找回密码

查看: 1756|回复: 0

[剧情] 关于一个男孩[简繁英字幕].About.a.Boy.2002.BluRay.1080p.DTS-HD.MA5.1.x265.10bit-ALT 9.38GB

[复制链接]
蓝光币
8
发表于 2022-8-9 00:51:40 | 显示全部楼层 |阅读模式


◎标  题 关于一个男孩
◎译  名 单亲插班生(港) / 非关男孩(台)
◎片  名 About a Boy
◎年  代 2002
◎产  地 英国 / 美国 / 法国 / 德国
◎类  别 剧情 / 笑剧 / 恋爱
◎语  言 英语
◎上映日期 2002-04-26(英国)
◎IMDb评分 7.1/10 (179824人评价)
◎IMDb链接 https://www.imdb.com/title/tt0276751/
◎豆瓣评分 7.3/10 (23454人评价)
◎豆瓣链接 https://movie.douban.com/subject/1304811/
◎片  长 101 分钟
◎导  演 克里斯·韦兹 Chris Weitz
       保罗·韦兹 Paul Weitz
◎编  剧 尼克·霍恩比 Nick Hornby
       彼得·赫奇斯 Peter Hedges
       克里斯·韦兹 Chris Weitz
       保罗·韦兹 Paul Weitz
◎演  员 休·格兰特 Hugh Grant
       尼古拉斯·霍尔特 Nicholas Hoult
       莎朗·斯莫 Sharon Small
       托妮·科莱特 Toni Collette
       娜塔丽·特纳 Natalia Tena
       弗莱泽古迪 Fritha Goodey
       苏珊娜多伊尔 Susannah Doyle
       柏达妮缪尔 Bethany Muir
       珍妮·加洛韦 Jenny Galloway
       维多莉亚·斯莫费特 Victoria Smurfit
       Frog Stone Frog Stone
       凯茜·墨菲 Cathy Murphy
       杰森萨尔基 Jason Salkey
       安娜贝勒艾裴逊 Annabelle Apsion
       马修·詹姆斯·托马斯 Matthew James Thomas
       Scott Charles Scott Charles
       希安马丁 Sian Martin
       马克·德鲁里 Mark Drewry
       罗莎琳德·奈特 Rosalind Knight
       蕾切尔·薇兹 Rachel Weisz
       奥古斯图斯·珀如 Augustus Prew
       亚历克斯丘 Alex Kew
       马克·希普 Mark Heap
       罗杰布莱尔利 Roger Brierley
       蒂姆·赖斯 Tim Rice
       克里斯·塔伦特 Chris Tarrant
       Carol Vorderman Carol Vorderman
       Richard Whiteley Richard Whiteley
◎标  签 英国 / Hugh_Grant / 笑剧 / 英国电影 / 剧情 / NicholasHoult / HUGHGRANT / 2002
◎简  介
    威尔(休·格兰特 Hugh Grant 饰)是一个伦敦的有钱人。他继续了父亲的遗产,整天吃喝玩乐,游戏情场。但是,他心里却有着空虚和孤独。为了可以熟悉更多的女人,他想到了单亲家长会。那边单亲妈妈众多,他必定能游刃不足。带着这个目标,他假扮成单亲爸爸,加入了单亲家长会。                                                                      马克斯(尼古拉斯·霍尔特 Nicholas Hoult 饰)的母亲也是家长会里的成员。母亲天天早晨醒来,城市起头沮丧、落泪,想自杀。马克斯家庭不幸,加上经常受人欺侮,身处劣境的他寄希望于威尔,把威尔看成可依靠的工具。他经常造访威尔家,坐在威尔身旁冷静的看电视。开初这一切让威尔感觉非常打搅。可是渐渐的,两颗孤独的心起头找到依靠,威尔和小男孩之间的友谊渐渐升温。
  1. ##### MediaInfo ######
  2. General
  3. Unique ID                                : 296199372697470124148459378892264814534 (0xDED5EC945A33E0E715FAA0240411B7C6)
  4. Complete name                            : About.a.Boy.2002.BluRay.1080p.DTS-HD.MA5.1.x265.10bit-ALT.mkv
  5. Format                                   : Matroska
  6. Format version                           : Version 4
  7. File size                                : 9.38 GiB
  8. Duration                                 : 1 h 41 min
  9. Overall bit rate mode                    : Variable
  10. Overall bit rate                         : 13.3 Mb/s
  11. Encoded date                             : UTC 2022-02-25 02:06:38
  12. Writing application                      : mkvmerge v49.0.0 ('Sick Of Losing Soulmates') 64-bit
  13. Writing library                          : libebml v1.4.0 + libmatroska v1.6.1
  14. Video
  15. ID                                       : 1
  16. Format                                   : HEVC
  17. Format/Info                              : High Efficiency Video Coding
  18. Format profile                           : Main 10@L5.1@High
  19. Codec ID                                 : V_MPEGH/ISO/HEVC
  20. Duration                                 : 1 h 41 min
  21. Bit rate                                 : 8 767 kb/s
  22. Width                                    : 1 920 pixels
  23. Height                                   : 816 pixels
  24. Display aspect ratio                     : 2.35:1
  25. Frame rate mode                          : Constant
  26. Frame rate                               : 23.976 (24000/1001/53875) FPS
  27. Color space                              : YUV
  28. Chroma subsampling                       : 4:2:0
  29. Bit depth                                : 10 bits
  30. Bits/(Pixel*Frame)                       : 0.233
  31. Stream size                              : 6.20 GiB (66%)
  32. Title                                    : HEVC, x265Main10@L5.1@High, 24/1.001 fps @ 8766 kbps
  33. Writing library                          : x265 3.4+14-gd419c7152:[Windows][GCC 10.2.0][64 bit] 10bit
  34. Encoding settings                        : cpuid=538751111039 / frame-threads=4 / numa-pools=16 / wpp / pmode / pme / no-psnr / no-ssim / log-level=2 / input-csp=1 / input-res=1920x816 / interlace=0 / total-frames=145745 / level-idc=51 / high-tier=1 / uhd-bd=0 / ref=5 / no-allow-non-conformance / no-repeat-headers / annexb / no-aud / no-hrd / info / hash=0 / no-temporal-layers / open-gop / min-keyint=24 / keyint=240 / gop-lookahead=0 / bframes=6 / b-adapt=2 / b-pyramid / bframe-bias=0 / rc-lookahead=40 / lookahead-slices=0 / NTM4NzU=uuDQuD2mJt9fsCf / scenecut=40 / hist-scenecut=0 / radl=0 / no-splice / no-intra-refresh / ctu=32 / min-cu-size=8 / no-rect / no-amp / max-tu-size=32 / tu-inter-depth=3 / tu-intra-depth=3 / limit-tu=4 / rdoq-level=2 / dynamic-rd=0.00 / no-ssim-rd / signhide / no-tskip / nr-intra=0 / nr-inter=0 / no-constrained-intra / no-strong-intra-smoothing / max-merge=4 / limit-refs=1 / limit-modes / me=3 / subme=4 / merange=25 / temporal-mvp / no-frame-dup / no-hme / weightp / weightb / no-analyze-src-pics / deblock=-3:-3 / no-sao / no-sao-non-deblock / rd=6 / selective-sao=0 / no-early-skip / rskip / no-fast-intra / no-tskip-fast / no-cu-lossless / b-intra / no-splitrd-skip / rdpenalty=0 / psy-rd=2.00 / psy-rdoq=1.00 / no-rd-refine / no-lossless / cbqpoffs=0 / crqpoffs=0 / rc=crf / crf=17.0 / qcomp=0.65 / qpstep=4 / stats-write=0 / stats-read=0 / vbv-maxrate=80000 / vbv-bufsize=80000 / vbv-init=0.9 / crf-max=0.0 / crf-min=0.0 / ipratio=1.40 / pbratio=1.30 / aq-mode=2 / aq-strength=0.85 / cutree / zone-count=0 / no-strict-cbr / qg-size=32 / no-rc-grain / qpmax=69 / qpmin=0 / no-const-vbv / sar=1 / overscan=0 / videoformat=5 / range=0 / colorprim=1 / transfer=1 / colormatrix=1 / chromaloc=0 / display-window=0 / cll=0,0 / min-luma=0 / max-luma=1023 / log2-max-poc-lsb=8 / vui-timing-info / vui-hrd-info / slices=1 / no-opt-qp-pps / no-opt-ref-list-length-pps / no-multi-pass-opt-rps / scenecut-bias=0.05 / hist-threshold=0.03 / no-opt-cu-delta-qp / no-aq-motion / no-hdr10 / no-hdr10-opt / no-dhdr10-opt / no-idr-recovery-sei / analysis-reuse-level=0 / analysis-save-reuse-level=0 / analysis-load-reuse-level=0 / scale-factor=0 / refine-intra=0 / refine-inter=0 / refine-mv=1 / refine-ctu-distortion=0 / no-limit-sao / ctu-info=0 / no-lowpass-dct / refine-analysis-type=0 / copy-pic=1 / max-ausize-factor=1.0 / no-dynamic-refine / no-single-sei / no-hevc-aq / no-svt / no-field / qp-adaptation-range=1.00 / no-scenecut-aware-qpconformance-window-offsets / right=0 / bottom=0 / NTM4NzU= / decoder-max-rate=0
  35. Language                                 : English
  36. Default                                  : Yes
  37. Forced                                   : No
  38. Color range                              : Limited
  39. Color primaries                          : BT.709
  40. Transfer characteristics                 : BT.709
  41. Matrix coefficients                      : BT.709
  42. Audio #1
  43. ID                                       : 2
  44. Format                                   : DTS XLL
  45. Format/Info                              : Digital Theater Systems
  46. Commercial name                          : DTS-HD Master Audio
  47. Codec ID                                 : A_DTS
  48. Duration                                 : 1 h 41 min
  49. Bit rate mode                            : Variable
  50. Bit rate                                 : 4 175 kb/s
  51. Channel(s)                               : 6 channels
  52. Channel layout                           : C L R Ls Rs LFE
  53. Sampling rate                            : 48.0 kHz
  54. Frame rate                               : 93.750 FPS (512 SPF)
  55. Bit depth                                : 24 bits
  56. Compression mode                         : Lossless
  57. Stream size                              : 2.95 GiB (32%)
  58. Title                                    : English DTS-HD Master Audio 5.1 @ 4175 kbps
  59. Language                                 : English
  60. Default                                  : Yes
  61. Forced                                   : No
  62. Audio #2
  63. ID                                       : 3
  64. Format                                   : AC-3
  65. Format/Info                              : Audio Coding 3
  66. Commercial name                          : Dolby Digital
  67. Codec ID                                 : A_AC3
  68. Duration                                 : 1 h 41 min
  69. Bit rate mode                            : Constant
  70. Bit rate                                 : 192 kb/s
  71. Channel(s)                               : 2 channels
  72. Channel layout                           : L R
  73. Sampling rate                            : 48.0 kHz
  74. Frame rate                               : 31.250 FPS (1536 SPF)
  75. Compression mode                         : Lossy
  76. Stream size                              : 139 MiB (1%)
  77. Title                                    : English Dolby Digital Audio 2.0 @ 192 kbps  Commentary
  78. Language                                 : English
  79. Service kind                             : Complete Main
  80. Default                                  : No
  81. Forced                                   : No
  82. Text #1
  83. ID                                       : 4
  84. Format                                   : PGS
  85. Codec ID                                 : S_HDMV/PGS
  86. Codec ID/Info                            : Picture based subtitle format used on BDs/HD-DVDs
  87. Duration                                 : 1 h 38 min
  88. Bit rate                                 : 53.4 kb/s
  89. Count of elements                        : 3418
  90. Stream size                              : 37.6 MiB (0%)
  91. Title                                    : Eng/SUP
  92. Language                                 : English
  93. Default                                  : No
  94. Forced                                   : No
  95. Text #2
  96. ID                                       : 5
  97. Format                                   : PGS
  98. Codec ID                                 : S_HDMV/PGS
  99. Codec ID/Info                            : Picture based subtitle format used on BDs/HD-DVDs
  100. Duration                                 : 1 h 35 min
  101. Bit rate                                 : 31.6 kb/s
  102. Count of elements                        : 2496
  103. Stream size                              : 21.6 MiB (0%)
  104. Title                                    : Chs/SUP  简体
  105. Language                                 : Chinese
  106. Default                                  : Yes
  107. Forced                                   : No
  108. Text #3
  109. ID                                       : 6
  110. Format                                   : PGS
  111. Codec ID                                 : S_HDMV/PGS
  112. Codec ID/Info                            : Picture based subtitle format used on BDs/HD-DVDs
  113. Duration                                 : 1 h 35 min
  114. Bit rate                                 : 33.0 kb/s
  115. Count of elements                        : 2496
  116. Stream size                              : 22.5 MiB (0%)
  117. Title                                    : Cht/SUP  繁体
  118. Language                                 : Chinese
  119. Default                                  : No
  120. Forced                                   : No
  121. Menu
  122. 00:00:00.000                             : en:第 01 章
  123. 00:06:49.868                             : en:第 02 章
  124. 00:10:58.616                             : en:第 03 章
  125. 00:13:24.303                             : en:第 04 章
  126. 00:17:51.904                             : en:第 05 章
  127. 00:21:02.511                             : en:第 06 章
  128. 00:23:21.025                             : en:第 07 章
  129. 00:29:49.162                             : en:第 08 章
  130. 00:35:10.942                             : en:第 09 章
  131. 00:44:03.808                             : en:第 10 章
  132. 00:47:34.143                             : en:第 11 章
  133. 00:52:23.974                             : en:第 12 章
  134. 00:58:13.824                             : en:第 13 章
  135. 01:02:40.548                             : en:第 14 章
  136. 01:09:14.442                             : en:第 15 章
  137. 01:13:54.555                             : en:第 16 章
  138. 01:19:39.233                             : en:第 17 章
  139. 01:25:50.562                             : en:第 18 章
  140. 01:33:54.629                             : en:第 19 章
  141. 01:36:17.605                             : en:第 20 章
复制代码
















保举请利用qBittorrent,utorrent,transmission等标准BT软件下载!以获得最快速度。奉求保种!





回复

使用道具 举报

懒得打字嘛,点击右侧快捷回复 【右侧内容,后台自定义】
您需要登录后才可以回帖 登录 | 立即加入

本版积分规则

Copyright © 2024 Comsenz Inc. Powered by 蓝光电影网

本站内容由用户自主分享和转载自互联网,转载目的在于传递更多信息,并不代表本网赞同其观点和对其真实性负责。

如有侵权、违反国家法律政策行为,请联系我们,我们会第一时间及时清除和处理!

举报反馈邮箱:4k1080.com@gmail.com

快速回复 返回顶部 返回列表