找回密码

蓝光电影网

查看: 1286|回复: 56

蜘蛛侠:英雄无归 Spider-Man.No.Way.Home.2021.1080p.3D.BluRay.Half-OU.x264.DTS-HD.MA.7.1-FGT 21.19GB

[复制链接]
蓝光币
1020
发表于 2022-8-18 17:31:59 | 显示全部楼层 |阅读模式
[img][/img]

◎标  题 蜘蛛侠:豪杰无归
◎译  名 新蜘蛛侠3 / 蜘蛛侠:无回之战 / 蜘蛛侠:不战无归(港) / 蜘蛛人:无家日(台) / 蜘蛛侠3:豪杰末路 / 蜘蛛侠3:无家可归 / Spider-Man 3 / Spider-Man: Phone Home / Spider-Man: Home-Wrecker / Spider-Man: Home Slice
◎片  名 Spider-Man: No Way Home
◎年  代 2021
◎产  地 美国 / 冰岛
◎类  别 行动 / 科幻 / 冒险
◎语  言 英语 / 他加禄语
◎上映日期 2021-12-15(中国台湾) / 2021-12-17(美国)
◎IMDb评分 8.6/10 (518443人评价)
◎IMDb链接 https://www.imdb.com/title/tt10872600/
◎豆瓣评分 7.5/10 (80556人评价)
◎豆瓣链接 https://movie.douban.com/subject/26933210/
◎片  长 148分钟
◎导  演 乔·沃茨 Jon Watts
◎编  剧 克里斯·麦克纳 Chris McKenna
       埃里克·萨默斯 Erik Sommers
       斯坦·李 Stan Lee
       史蒂夫·迪特寇 Steve Ditko
       克里斯·麦基纳 Chris McKenna
◎演  员 汤姆·赫兰德 Tom Holland
       赞达亚 Zendaya
       本尼迪克特·康伯巴奇 Benedict Cumberbatch
       雅各布·巴特朗 Jacob Batalon
       玛丽莎·托梅 Marisa Tomei
       乔恩·费儒 Jon Favreau
       威廉·达福 Willem Dafoe
       阿尔弗雷德·莫里纳 Alfred Molina
       杰米·福克斯 Jamie Foxx
       本尼迪克特·王 Benedict Wong
       J·K·西蒙斯 J.K. Simmons
       托比·马奎尔 Tobey Maguire
       安德鲁·加菲尔德 Andrew Garfield
       查理·考克斯 Charlie Cox
       瑞斯·伊凡斯 Rhys Ifans
       托马斯·哈登·丘奇 Thomas Haden Church
       安格瑞·赖斯 Angourie Rice
       托尼·雷沃罗利 Tony Revolori
       宝拉·纽瑟姆 Paula Newsome
       汉尼拔·布勒斯 Hannibal Buress
       马丁·斯塔尔 Martin Starr
       J·B·斯穆夫 J.B. Smoove
       哈龙·汗 Haroon Khan
       本·范德梅 Ben VanderMey
       加里·维克斯 Gary Weeks
       马洛里·霍夫 Mallory Hoff
       里贾纳·陈婷 Regina Ting Chen
       格伦·基奥 Glenn Keogh
       帕丽丝·本杰明 Paris Benjamin
       朱万达斯·坎迪斯 Jwaundace Candece
       泰勒·圣克莱尔 Taylor St. Clair
       小豪尔赫·兰登伯格 Jorge Lendeborg Jr.
       何塞·阿尔弗雷多·费尔南德斯 José Alfredo Fernandez
       约翰尼·塞雷 Johnny Serret
       罗伯特·廷斯利 Robert Tinsley
       哈里·赫兰德 Harry Holland
       汤姆·哈迪 Tom Hardy
       克里斯托·费尔南德斯 Cristo Fernández
       布莱德利·瑞安·奈斯贝尔 Bradley Ryan Knispel
       阿里安·莫耶德 Arian Moayed
       凯文·费奇 Kevin Feige
       迈克·吉亚奇诺 Michael Giacchino
       萨尼娅·米尔科维奇·海斯 Sanja Milkovic Hays
◎简  介

  《蜘蛛侠:豪杰无归》是豪杰系列三部曲的结束篇,也标志着漫威多元宇宙的正式开启。此次,蜘蛛侠(汤姆·赫兰德 饰)与奇异博士(本尼迪克特·康伯巴奇 饰)继《复联4》后再度联手打响时空混战。蜘蛛侠借助奇异博士操控时空的才能翻开了时空通道,激发了前所未见的危机。
  1. Video
  2. ID                                       : 1
  3. Format                                   : AVC
  4. Format/Info                              : Advanced Video Codec
  5. Format profile                           : [email protected]
  6. Format settings                          : CABAC / 2 Ref Frames
  7. Format settings, CABAC                   : Yes
  8. Format settings, Reference frames        : 2 frames
  9. Codec ID                                 : V_MPEG4/ISO/AVC
  10. Duration                                 : 2 h 28 min
  11. Bit rate                                 : 14.9 Mb/s
  12. Nominal bit rate                         : 16.0 Mb/s
  13. Width                                    : 1 920 pixels
  14. Height                                   : 1 080 pixels
  15. Display aspect ratio                     : 16:9
  16. Frame rate mode                          : Constant
  17. Frame rate                               : 23.976 (24000/1001/189150) FPS
  18. Color space                              : YUV
  19. Chroma subsampling                       : 4:2:0
  20. Bit depth                                : 8 bits
  21. Scan type                                : Progressive
  22. Bits/(Pixel*Frame)                       : 0.300
  23. Stream size                              : 15.4 GiB (73%)
  24. Writing library                          : x264 core 148
  25. Encoding settings                        : cabac=1 / ref=1 / deblock=1:-1:-1 / analyse=0x3:0 / me=hex / subme=5 / psy=0 / mixed_ref=0 / me_range=16 / chroma_me=1 / trellis=0 / 8x8dct=1 / cqm=0 / deadzone=21,11 / fast_pskip=0 / chroma_qp_offset=0 / threads=48 / lookahead_threads=8 / sliced_threads=0 / nr=0 / decimate=1 / interlaced=0 / bluray_compat=0 / constrained_intra=0 / bframes=2 / b_pyramid=0 / b_adapt=1 / b_bias=0 / direct=1 / weightb=0 / open_gop=0 / weightp=0 / keyint=24 / keyint_min=13 / scenecut=40 / intra_refresh=0 / rc_lookahead=24 / rc=cbr / mbtree=0 / bitrate=16000 / ratetol=1.0 / qcomp=0.60 / qpmin=0 / qpmax=69 / qpstep=4 / vbv_maxrate=16000 / vbv_bufsize=16000 / nal_hrd=none / filler=0 / ip_ratio=1.40 / pb_ratio=1.30 / aq=1:1.00
  26. Default                                  : Yes
  27. Forced                                   : No
  28. Color range                              : Limited
  29. Color primaries                          : BT.709
  30. Transfer characteristics                 : BT.709
  31. Matrix coefficients                      : BT.709
  32. Audio #1
  33. ID                                       : 2
  34. Format                                   : DTS XLL
  35. Format/Info                              : Digital Theater Systems
  36. Commercial name                          : DTS-HD Master Audio
  37. Codec ID                                 : A_DTS
  38. Duration                                 : 2 h 28 min
  39. Bit rate mode                            : Variable
  40. Bit rate                                 : 3 851 kb/s
  41. Channel(s)                               : 8 channels
  42. Channel layout                           : C L R LFE Lb Rb Lss Rss
  43. Sampling rate                            : 48.0 kHz
  44. Frame rate                               : 93.750 FPS (512 SPF)
  45. Bit depth                                : 24 bits
  46. Compression mode                         : Lossless
  47. Delay relative to video                  : 4 ms
  48. Stream size                              : 3.99 GiB (19%)
  49. Title                                    : DTS-HD MA 7.1
  50. Language                                 : English
  51. Default                                  : Yes
  52. Forced                                   : No
  53. Audio #2
  54. ID                                       : 3
  55. Format                                   : DTS XLL
  56. Format/Info                              : Digital Theater Systems
  57. Commercial name                          : DTS-HD Master Audio
  58. Codec ID                                 : A_DTS
  59. Duration                                 : 2 h 28 min
  60. Bit rate mode                            : Variable
  61. Bit rate                                 : 928 kb/s
  62. Channel(s)                               : 2 channels
  63. Channel layout                           : L R
  64. Sampling rate                            : 48.0 kHz
  65. Frame rate                               : 93.750 FPS (512 SPF)
  66. Bit depth                                : 16 bits
  67. Compression mode                         : Lossless
  68. Stream size                              : 983 MiB (5%)
  69. Title                                    : DTS-HD MA 2.0
  70. Language                                 : English
  71. Default                                  : No
  72. Forced                                   : No
  73. Audio #3
  74. ID                                       : 4
  75. Format                                   : AC-3
  76. Format/Info                              : Audio Coding 3
  77. Commercial name                          : Dolby Digital
  78. Codec ID                                 : A_AC3
  79. Duration                                 : 2 h 28 min
  80. Bit rate mode                            : Constant
  81. Bit rate                                 : 640 kb/s
  82. Channel(s)                               : 6 channels
  83. Channel layout                           : L R C LFE Ls Rs
  84. Sampling rate                            : 48.0 kHz
  85. Frame rate                               : 31.250 FPS (1536 SPF)
  86. Compression mode                         : Lossy
  87. Stream size                              : 678 MiB (3%)
  88. Title                                    : DD 5.1
  89. Language                                 : English
  90. Service kind                             : Complete Main
  91. Default                                  : No
  92. Forced                                   : No
  93. Text #1
  94. ID                                       : 5
  95. Format                                   : PGS
  96. Muxing mode                              : zlib
  97. Codec ID                                 : S_HDMV/PGS
  98. Codec ID/Info                            : Picture based subtitle format used on BDs/HD-DVDs
  99. Duration                                 : 2 h 27 min
  100. Bit rate                                 : 49.8 kb/s
  101. Frame rate                               : 0.496 FPS
  102. Count of elements                        : 4402
  103. Stream size                              : 52.7 MiB (0%)
  104. Language                                 : English
  105. Default                                  : Yes
  106. Forced                                   : No
  107. Text #2
  108. ID                                       : 6
  109. ID in the original source medium         : 4610 (0x1202)
  110. Format                                   : PGS
  111. Muxing mode                              : zlib
  112. Codec ID                                 : S_HDMV/PGS
  113. Codec ID/Info                            : Picture based subtitle format used on BDs/HD-DVDs
  114. Duration                                 : 2 h 27 min
  115. Bit rate                                 : 27.3 kb/s
  116. Frame rate                               : 0.418 FPS
  117. Count of elements                        : 3708
  118. Stream size                              : 28.9 MiB (0%)
  119. Language                                 : French
  120. Default                                  : No
  121. Forced                                   : No
  122. Original source medium                   : Blu-ray
  123. Text #3
  124. ID                                       : 7
  125. ID in the original source medium         : 4611 (0x1203)
  126. Format                                   : PGS
  127. Muxing mode                              : zlib
  128. Codec ID                                 : S_HDMV/PGS
  129. Codec ID/Info                            : Picture based subtitle format used on BDs/HD-DVDs
  130. Duration                                 : 2 h 28 min
  131. Bit rate                                 : 30.4 kb/s
  132. Frame rate                               : 0.430 FPS
  133. Count of elements                        : 3821
  134. Stream size                              : 32.2 MiB (0%)
  135. Language                                 : Spanish
  136. Default                                  : No
  137. Forced                                   : No
  138. Original source medium                   : Blu-ray
  139. Text #4
  140. ID                                       : 8
  141. ID in the original source medium         : 4611 (0x1203)
  142. Format                                   : PGS
  143. Muxing mode                              : zlib
  144. Codec ID                                 : S_HDMV/PGS
  145. Codec ID/Info                            : Picture based subtitle format used on BDs/HD-DVDs
  146. Duration                                 : 2 h 17 min
  147. Bit rate                                 : 204 b/s
  148. Frame rate                               : 0.002 FPS
  149. Count of elements                        : 18
  150. Stream size                              : 207 KiB (0%)
  151. Language                                 : Spanish
  152. Default                                  : No
  153. Forced                                   : No
  154. Original source medium                   : Blu-ray
  155. Text #5
  156. ID                                       : 9
  157. Format                                   : PGS
  158. Muxing mode                              : zlib
  159. Codec ID                                 : S_HDMV/PGS
  160. Codec ID/Info                            : Picture based subtitle format used on BDs/HD-DVDs
  161. Duration                                 : 2 h 28 min
  162. Bit rate                                 : 28.5 kb/s
  163. Frame rate                               : 0.430 FPS
  164. Count of elements                        : 3821
  165. Stream size                              : 30.2 MiB (0%)
  166. Title                                    : Chinese (Cantonese)
  167. Language                                 : Chinese
  168. Default                                  : No
  169. Forced                                   : No
  170. Text #6
  171. ID                                       : 10
  172. Format                                   : PGS
  173. Muxing mode                              : zlib
  174. Codec ID                                 : S_HDMV/PGS
  175. Codec ID/Info                            : Picture based subtitle format used on BDs/HD-DVDs
  176. Duration                                 : 2 h 28 min
  177. Bit rate                                 : 29.5 kb/s
  178. Frame rate                               : 0.444 FPS
  179. Count of elements                        : 3945
  180. Stream size                              : 31.2 MiB (0%)
  181. Title                                    : Chinese (Simplified)
  182. Language                                 : Chinese
  183. Default                                  : No
  184. Forced                                   : No
  185. Text #7
  186. ID                                       : 11
  187. Format                                   : PGS
  188. Muxing mode                              : zlib
  189. Codec ID                                 : S_HDMV/PGS
  190. Codec ID/Info                            : Picture based subtitle format used on BDs/HD-DVDs
  191. Duration                                 : 2 h 28 min
  192. Bit rate                                 : 26.1 kb/s
  193. Frame rate                               : 0.445 FPS
  194. Count of elements                        : 3955
  195. Stream size                              : 27.6 MiB (0%)
  196. Title                                    : Chinese (Traditional)
  197. Language                                 : Chinese
  198. Default                                  : No
  199. Forced                                   : No
  200. Text #8
  201. ID                                       : 12
  202. Format                                   : PGS
  203. Muxing mode                              : zlib
  204. Codec ID                                 : S_HDMV/PGS
  205. Codec ID/Info                            : Picture based subtitle format used on BDs/HD-DVDs
  206. Duration                                 : 2 h 28 min
  207. Bit rate                                 : 26.4 kb/s
  208. Frame rate                               : 0.451 FPS
  209. Count of elements                        : 4009
  210. Stream size                              : 27.9 MiB (0%)
  211. Title                                    : Korean
  212. Language                                 : Korean
  213. Default                                  : No
  214. Forced                                   : No
  215. Text #9
  216. ID                                       : 13
  217. Format                                   : PGS
  218. Muxing mode                              : zlib
  219. Codec ID                                 : S_HDMV/PGS
  220. Codec ID/Info                            : Picture based subtitle format used on BDs/HD-DVDs
  221. Duration                                 : 2 h 28 min
  222. Bit rate                                 : 32.8 kb/s
  223. Frame rate                               : 0.429 FPS
  224. Count of elements                        : 3809
  225. Stream size                              : 34.7 MiB (0%)
  226. Title                                    : Portuguese (Brazilian)
  227. Language                                 : Portuguese
  228. Default                                  : No
  229. Forced                                   : No
  230. Text #10
  231. ID                                       : 14
  232. Format                                   : PGS
  233. Muxing mode                              : zlib
  234. Codec ID                                 : S_HDMV/PGS
  235. Codec ID/Info                            : Picture based subtitle format used on BDs/HD-DVDs
  236. Duration                                 : 2 h 28 min
  237. Bit rate                                 : 30.4 kb/s
  238. Frame rate                               : 0.430 FPS
  239. Count of elements                        : 3821
  240. Stream size                              : 32.2 MiB (0%)
  241. Title                                    : Spanish (Latin American)
  242. Language                                 : Spanish
  243. Default                                  : No
  244. Forced                                   : No
  245. Text #11
  246. ID                                       : 15
  247. Format                                   : PGS
  248. Muxing mode                              : zlib
  249. Codec ID                                 : S_HDMV/PGS
  250. Codec ID/Info                            : Picture based subtitle format used on BDs/HD-DVDs
  251. Duration                                 : 2 h 28 min
  252. Bit rate                                 : 32.5 kb/s
  253. Frame rate                               : 0.439 FPS
  254. Count of elements                        : 3896
  255. Stream size                              : 34.4 MiB (0%)
  256. Language                                 : Thai
  257. Default                                  : No
  258. Forced                                   : No
  259. Menu
  260. 00:00:00.000                             : en:Chapter 01
  261. 00:05:01.634                             : en:Chapter 02
  262. 00:11:57.049                             : en:Chapter 03
  263. 00:18:37.366                             : en:Chapter 04
  264. 00:26:58.908                             : en:Chapter 05
  265. 00:37:19.695                             : en:Chapter 06
  266. 00:48:00.460                             : en:Chapter 07
  267. 00:59:49.168                             : en:Chapter 08
  268. 01:04:05.091                             : en:Chapter 09
  269. 01:09:49.768                             : en:Chapter 10
  270. 01:18:27.911                             : en:Chapter 11
  271. 01:28:58.082                             : en:Chapter 12
  272. 01:46:36.848                             : en:Chapter 13
  273. 02:05:37.780                             : en:Chapter 14
  274. 02:13:02.057                             : en:Chapter 15
  275. 02:18:54.326                             : en:Chapter 16
复制代码




                                       
                                       

                                       
                                       
                                       




回复

使用道具 举报

蓝光币
10
发表于 2022-8-19 10:00:21 | 显示全部楼层
速度很快
回复

使用道具 举报

蓝光币
259
发表于 2022-8-19 10:13:54 | 显示全部楼层
3D版终于出了啊,我还以为不出了呢
回复 支持 反对

使用道具 举报

蓝光币
259
发表于 2022-8-19 10:15:00 | 显示全部楼层
回复帖子算不算盖楼呢?我来试一试
回复 支持 反对

使用道具 举报

蓝光币
33
发表于 2022-8-21 09:54:21 | 显示全部楼层

这东西我收了!谢谢楼主!蓝光电影网真好!
回复 支持 反对

使用道具 举报

蓝光币
259
发表于 2022-8-21 10:38:00 | 显示全部楼层
这几年3D电影越来越少了
回复 支持 反对

使用道具 举报

蓝光币
210
发表于 2022-8-22 14:51:20 | 显示全部楼层
楼主发贴辛苦了,谢谢楼主分享!我觉得蓝光电影网是注册对了!
回复 支持 反对

使用道具 举报

蓝光币
29
发表于 2022-8-22 15:54:40 | 显示全部楼层
好东西,感谢分享
回复 支持 反对

使用道具 举报

蓝光币
249
发表于 2022-8-23 14:13:20 | 显示全部楼层
蜘蛛侠:英雄无归 Spider-Man.No.Way.Home
回复 支持 反对

使用道具 举报

蓝光币
90
发表于 2022-8-24 09:37:17 | 显示全部楼层

楼主,大恩不言谢了!蓝光电影网是最棒的!
回复 支持 反对

使用道具 举报

懒得打字嘛,点击右侧快捷回复 【右侧内容,后台自定义】
您需要登录后才可以回帖 登录 | 立即加入

本版积分规则

Archiver|小黑屋| 蓝光电影网 |网站地图

Copyright © 2021 Comsenz Inc. Powered by 蓝光电影网

蓝光电影网

本站内容由用户自主分享和转载自互联网,转载目的在于传递更多信息,并不代表本网赞同其观点和对其真实性负责。

如有侵权、违反国家法律政策行为,请联系我们,我们会第一时间及时清除和处理!

举报反馈邮箱:[email protected]

快速回复 返回顶部 返回列表