找回密码

查看: 1434|回复: 1

[剧情] 你是下一个[中文字幕].You're.Next.2011.1080p.BluRay.DTS.x265-10bit-BATHD 5.22GB

[复制链接]
蓝光币
8
发表于 2022-8-23 04:00:45 | 显示全部楼层 |阅读模式


◎标  题 你是下一个
◎译  名 下一个就是你
◎片  名 You're Next
◎年  代 2011
◎产  地 美国
◎类  别 惊悚 / 可骇
◎语  言 英语
◎上映日期 2011-09-10(多伦多电影节) / 2013-08-23(美国)
◎IMDb评分 6.6/10 (94912人评价)
◎IMDb链接 https://www.imdb.com/title/tt1853739/
◎豆瓣评分 6.9/10 (20067人评价)
◎豆瓣链接 https://movie.douban.com/subject/6128025/
◎片  长 95分钟
◎导  演 亚当·温加德 Adam Wingard
◎编  剧 西蒙·巴雷特 Simon Barrett
◎演  员 沙妮·文森 Sharni Vinson
       尼古拉斯·图齐 Nicholas Tucci
       温迪·格伦 Wendy Glenn
       AJ·鲍恩 AJ Bowen
       乔·斯万博格 Joe Swanberg
       玛格丽特·兰妮 Margaret Laney
       艾米·西米茨 Amy Seimetz
       缇·威斯特 Ti West
       罗布·莫兰 Rob Moran
       芭芭拉·克兰普顿 Barbara Crampton
       L·C·霍尔特 L.C. Holt
       西蒙·巴雷特 Simon Barrett
       莱恩·休斯 Lane Hughes
       凯特·林恩·希尔 Kate Lyn Sheil
◎标  签 惊悚 / 可骇 / 血腥 / 美国 / 暴力 / 犯罪 / 美国电影 / 2011
◎简  介
    在看似平常温馨的夜里,一个羊羔面具正在制造杀戮的阴霾,任何时候,任何人,都有能够成为面具杀手的下一个方针。年轻的艾琳(沙妮·文森 Sharni Vinson 饰)正随着她的男朋友克里斯皮安(AJ·鲍恩 AJ Bowen 饰)回密苏里度假屋中加入他怙恃的成婚纪念日。克里斯皮安的兄弟和妹妹都带着另一半前来集会,一家人在饭桌前其乐融融。但是屋外却是另一番使人毛骨悚然的气象,几个头戴面具的杀手正对这家人虎视眈眈。忽然,弟弟德雷克背部中枪,杀戮敏捷展开,其他家庭成员相继遭到惊吓和危险。就在这危机时辰,艾琳反客为主,构造起百口防御,迸发出惊人的求生本能,度假屋瞬间酿成不共戴天的血腥疆场……
  1. ##### MediaInfo ######
  2. General
  3. Unique ID                                : 295935941178366670340038824851456238623 (0xDEA33067205A1BE6F799DA8EDD11A41F)
  4. Complete name                            : You're.Next.2011.1080p.BluRay.DTS.x265-10bit-BATHD.mkv
  5. Format                                   : Matroska
  6. Format version                           : Version 4
  7. File size                                : 5.22 GiB
  8. Duration                                 : 1 h 34 min
  9. Overall bit rate                         : 7 951 kb/s
  10. Movie name                               : You're Next 2011 1080p BluRay DTS x265-10bit-HDS
  11. Encoded date                             : UTC 2022-08-18 03:13:00
  12. Writing application                      : mkvmerge v67.0.0 ('Under Stars') 64-bit
  13. Writing library                          : libebml v1.4.2 + libmatroska v1.6.4
  14. Video
  15. ID                                       : 1
  16. Format                                   : HEVC
  17. Format/Info                              : High Efficiency Video Coding
  18. Format profile                           : Main 10@L5.1@High
  19. Codec ID                                 : V_MPEGH/ISO/HEVC
  20. Duration                                 : 1 h 34 min
  21. Bit rate                                 : 6 427 kb/s
  22. Width                                    : 1 916 pixels
  23. Height                                   : 800 pixels
  24. Display aspect ratio                     : 2.40:1
  25. Frame rate mode                          : Constant
  26. Frame rate                               : 23.976 (24000/1001/53875) FPS
  27. Color space                              : YUV
  28. Chroma subsampling                       : 4:2:0
  29. Bit depth                                : 10 bits
  30. Bits/(Pixel*Frame)                       : 0.175
  31. Stream size                              : 4.22 GiB (81%)
  32. Title                                    : meyu@HDSky
  33. Writing library                          : x265 - H.265/HEVC codec
  34. Default                                  : Yes
  35. Forced                                   : No
  36. Audio
  37. ID                                       : 2
  38. Format                                   : DTS
  39. Format/Info                              : Digital Theater Systems
  40. Codec ID                                 : A_DTS
  41. Duration                                 : 1 h 34 min
  42. Bit rate mode                            : Constant
  43. Bit rate                                 : 1 509 kb/s
  44. Channel(s)                               : 6 channels
  45. Channel layout                           : C L R Ls Rs LFE
  46. Sampling rate                            : 48.0 kHz
  47. Frame rate                               : 93.750 FPS (512 SPF)
  48. Bit depth                                : 24 bits
  49. Compression mode                         : Lossy
  50. Stream size                              : 1 015 MiB (19%)
  51. Title                                    : English
  52. Language                                 : English
  53. Default                                  : Yes
  54. Forced                                   : No
  55. Text
  56. ID                                       : 3
  57. Format                                   : PGS
  58. Muxing mode                              : zlib
  59. Codec ID                                 : S_HDMV/PGS
  60. Codec ID/Info                            : Picture based subtitle format used on BDs/HD-DVDs
  61. Duration                                 : 1 h 30 min
  62. Bit rate                                 : 25.6 kb/s
  63. Count of elements                        : 1497
  64. Stream size                              : 16.6 MiB (0%)
  65. Title                                    : ENG
  66. Language                                 : English
  67. Default                                  : Yes
  68. Forced                                   : No
  69. Menu
  70. 00:00:00.000                             : en:第 01 章
  71. 00:06:21.381                             : en:第 02 章
  72. 00:13:40.820                             : en:第 03 章
  73. 00:18:34.738                             : en:第 04 章
  74. 00:22:40.776                             : en:第 05 章
  75. 00:35:22.745                             : en:第 06 章
  76. 00:41:53.719                             : en:第 07 章
  77. 00:50:18.432                             : en:第 08 章
  78. 00:59:07.377                             : en:第 09 章
  79. 01:03:33.810                             : en:第 10 章
  80. 01:10:51.872                             : en:第 11 章
  81. 01:20:00.796                             : en:第 12 章
  82. 01:31:12.675                             : en:第 13 章
复制代码



保举请利用qBittorrent,utorrent,transmission等标准BT软件下载!以获得最快速度。奉求保种!





[url=https://www.4k1080.com/data/attachment/forum/你是下一个[中笔墨幕].You're.Next.2011.1080p.BluRay.DTS.x265-10bit-BATHD.torrent]你是下一个[中笔墨幕].You're.Next.2011.1080p.BluRay.DTS.x265-10bit-BATHD 5.22GB[/url]
回复

使用道具 举报

蓝光币
352
发表于 2023-8-30 12:20:09 | 显示全部楼层
楼主发贴辛苦了,谢谢楼主分享!我觉得蓝光电影网是注册对了!
回复

使用道具 举报

懒得打字嘛,点击右侧快捷回复 【右侧内容,后台自定义】
您需要登录后才可以回帖 登录 | 立即加入

本版积分规则

Copyright © 2024 Comsenz Inc. Powered by 蓝光电影网

本站内容由用户自主分享和转载自互联网,转载目的在于传递更多信息,并不代表本网赞同其观点和对其真实性负责。

如有侵权、违反国家法律政策行为,请联系我们,我们会第一时间及时清除和处理!

举报反馈邮箱:4k1080.com@gmail.com

快速回复 返回顶部 返回列表