找回密码

蓝光电影网

查看: 11|回复: 0

[动作] 盗贼 Bandit.2022.1080p.WEBRip.x264-RARBG 2.40GB

[复制链接]
蓝光币
953
发表于 前天 17:48 | 显示全部楼层 |阅读模式
[img][/img]

◎标  题 盗贼
◎片  名 Bandit
◎年  代 2022
◎产  地 加拿大
◎类  别 行动 / 惊悚 / 犯罪
◎语  言 英语
◎上映日期 2022-09-23(美国)
◎IMDb链接 https://www.imdb.com/title/tt9853500/
◎豆瓣链接 https://movie.douban.com/subject/35284113/
◎片  长 126分钟
◎导  演 阿伦·安加 Allan Ungar
◎编  剧 克莱格·温曼 Kraig Wenman
◎演  员 梅尔·吉布森 Mel Gibson
       伊丽莎·库斯伯特 Elisha Cuthbert
       奥利薇亚·阿波 Olivia d'Abo
       乔什·杜哈明 Josh Duhamel
       内斯特·卡博内尔 Nestor Carbonell
       海雷·韦伯 Haley Webb
       克莱尔·布朗森 Claire Bronson
       斯温·特梅尔 Swen Temmel
       莱斯莉·斯特拉顿 Leslie Stratton
       基思·阿瑟·鲍顿 Keith Arthur Bolden
       齐雅拉·德安布罗西奥 Chiara D'Ambrosio
       蕾切尔·马卡里兰 Rachael Markarian
       迪伦·弗拉施纳 Dylan Flashner
       杰森·韦尔 Jason Vail
       杰西卡·卢扎 Jessica Luza
       利安德·苏莱曼 Leander Suleiman
       格雷格·科贝特 Greg Corbett
       巴迪·沃特金斯 Buddy Watkins
       查理·萨拉 Charlie Sara
       B·J·温弗里 B.J. Winfrey
◎简  介

  职业罪犯小吉尔伯特·加尔文(杜哈明饰)从美国牢狱逃出并超出边境进入加拿大,在加拿大,他假名为罗伯特·怀特曼,有了新的身份。在坠入爱河并成婚后,他宣称接管了一份观光平安顾问的工作,但他大胆的犯罪行为仍在继续。在他向毕生黑帮成员汤米(吉布森)追求投资后,他的奇迹变得加倍复杂,他卷入了加拿大历史上最大的抢劫案,这使他成为跨国追捕的焦点人物。
  1. Video
  2. ID                                       : 1
  3. Format                                   : AVC
  4. Format/Info                              : Advanced Video Codec
  5. Format profile                           : [email protected]
  6. Format settings                          : CABAC / 4 Ref Frames
  7. Format settings, CABAC                   : Yes
  8. Format settings, Reference frames        : 4 frames
  9. Codec ID                                 : avc1
  10. Codec ID/Info                            : Advanced Video Coding
  11. Duration                                 : 2 h 5 min
  12. Bit rate                                 : 2 500 kb/s
  13. Width                                    : 1 916 pixels
  14. Height                                   : 800 pixels
  15. Display aspect ratio                     : 2.40:1
  16. Frame rate mode                          : Constant
  17. Frame rate                               : 23.976 (23976/1000/189150) FPS
  18. Color space                              : YUV
  19. Chroma subsampling                       : 4:2:0
  20. Bit depth                                : 8 bits
  21. Scan type                                : Progressive
  22. Bits/(Pixel*Frame)                       : 0.068
  23. Stream size                              : 2.19 GiB (92%)
  24. Writing library                          : x264 core 152 r2851M ba24899
  25. Encoding settings                        : cabac=1 / ref=4 / deblock=1:-1:-1 / analyse=0x3:0x113 / me=umh / subme=9 / psy=1 / psy_rd=1.00:0.15 / mixed_ref=1 / me_range=24 / chroma_me=1 / trellis=2 / 8x8dct=1 / cqm=0 / deadzone=21,11 / fast_pskip=1 / chroma_qp_offset=-3 / threads=16 / lookahead_threads=4 / sliced_threads=0 / nr=0 / decimate=1 / interlaced=0 / bluray_compat=0 / constrained_intra=0 / bframes=3 / b_pyramid=2 / b_adapt=2 / b_bias=0 / direct=3 / weightb=1 / open_gop=0 / weightp=2 / keyint=250 / keyint_min=25 / scenecut=40 / intra_refresh=0 / rc_lookahead=50 / rc=2pass / mbtree=1 / bitrate=2500 / ratetol=1.0 / qcomp=0.60 / qpmin=0 / qpmax=69 / qpstep=4 / cplxblur=20.0 / qblur=0.5 / vbv_maxrate=31250 / vbv_bufsize=31250 / nal_hrd=none / filler=0 / ip_ratio=1.40 / aq=3:1.00
  26. Encoded date                             : UTC 2022-09-23 09:13:44
  27. Tagged date                              : UTC 2022-09-23 09:13:44
  28. Codec configuration box                  : avcC
  29. Audio
  30. ID                                       : 2
  31. Format                                   : AAC LC
  32. Format/Info                              : Advanced Audio Codec Low Complexity
  33. Codec ID                                 : mp4a-40-2
  34. Duration                                 : 2 h 5 min
  35. Duration_LastFrame                       : -11 ms
  36. Bit rate mode                            : Constant
  37. Bit rate                                 : 224 kb/s
  38. Channel(s)                               : 6 channels
  39. Channel layout                           : C L R Ls Rs LFE
  40. Sampling rate                            : 48.0 kHz
  41. Frame rate                               : 46.875 FPS (1024 SPF)
  42. Compression mode                         : Lossy
  43. Stream size                              : 202 MiB (8%)
  44. Language                                 : English
  45. Default                                  : Yes
  46. Alternate group                          : 1
  47. Encoded date                             : UTC 2022-09-23 09:13:44
  48. Tagged date                              : UTC 2022-09-23 09:13:44
复制代码




                                       
                                       

                                       
                                       
                                       




回复

使用道具 举报

懒得打字嘛,点击右侧快捷回复 【右侧内容,后台自定义】
您需要登录后才可以回帖 登录 | 立即加入

本版积分规则

Archiver|小黑屋| 蓝光电影网 |网站地图

Copyright © 2021 Comsenz Inc. Powered by 蓝光电影网

蓝光电影网

本站内容由用户自主分享和转载自互联网,转载目的在于传递更多信息,并不代表本网赞同其观点和对其真实性负责。

如有侵权、违反国家法律政策行为,请联系我们,我们会第一时间及时清除和处理!

举报反馈邮箱:[email protected]

快速回复 返回顶部 返回列表