找回密码

蓝光电影网

查看: 143|回复: 3

[2160p] 惊天营救 Extraction.2020.2160p.NF.WEB-DL.x265.10bit.SDR.DDP5.1.Atmos-SMURF 10.28GB

[复制链接]
蓝光币
1084
发表于 2022-11-30 09:25:12 | 显示全部楼层 |阅读模式
[img][/img]

◎标  题 惊天救援
◎译  名 极限救援 / 达卡 / Dhaka / Out of the Fire
◎片  名 Extraction
◎年  代 2020
◎产  地 美国
◎类  别 行动 / 惊悚 / 犯罪
◎语  言 英语 / 印地语 / 孟加拉语
◎上映日期 2020-04-24(美国)
◎IMDb评分 6.7/10 (184084人评价)
◎IMDb链接 https://www.imdb.com/title/tt8936646/
◎豆瓣评分 7.1/10 (80433人评价)
◎豆瓣链接 https://movie.douban.com/subject/30314127/
◎片  长 116分钟
◎导  演 山姆·哈格雷夫 Sam Hargrave
◎编  剧 乔·罗素 Joe Russo
       安德·帕克斯 Ande Parks
       安东尼·罗素 Anthony Russo
◎演  员 克里斯·海姆斯沃斯 Chris Hemsworth
       大卫·哈伯 David Harbour
       格什菲·法拉哈尼 Golshifteh Farahani
       兰迪普·弘达 Randeep Hooda
       克里斯·贾伊·阿历克斯 Chris Jai Alex
       潘卡·特里帕蒂 Pankaj Tripathi
       马克·多纳托 Marc Donato
       海斯·威尔弗德 Hays Wellford
       拉亚·坎普贝尔 Rayna Campbell
       鲁德赫拉什·贾斯瓦尔 Rudhraksh Jaiswal
       普里延苏·潘尤利 Priyanshu Painyuli
       克里斯·海姆斯沃斯 Chris Hemsworth
       安东尼·罗素 Anthony Russo
       乔·罗素 Joe Russo
       胡飘逸 Junyi Hu
       亚历克斯·贝尔彻 Alex Belcher
       亨利·杰克曼 Henry Jackman
       纽顿·托马斯·西格尔 Newton Thomas Sigel
       斯坦·萨尔法斯 Stan Salfas
       萨拉·芬兰 Sarah Finn
       菲利普·艾维 Philip Ivey
       乔恩·马拉德 Jon Mallard
◎标  签 行动 / 枪战 / 行动片 / 美国 / 克里斯·海姆斯沃斯 / Netflix / 2020 / 剧情
◎简  介

  泰勒·雷克(克里斯·海姆斯沃斯饰)是一位无所害怕的黑市雇佣兵,一无一切的他受命救援入狱的黑帮大佬被绑架的儿子。可是在充溢着兵器买卖商和毒贩的阴晦地来天下中,本就致命的使命更是难以完成,并完全地改变了雷克和男孩的命运。
  1. Video
  2. ID                                       : 1
  3. Format                                   : HEVC
  4. Format/Info                              : High Efficiency Video Coding
  5. Format profile                           : Main [email protected]@Main
  6. Codec ID                                 : V_MPEGH/ISO/HEVC
  7. Duration                                 : 1 h 57 min
  8. Bit rate                                 : 11.7 Mb/s
  9. Width                                    : 3 840 pixels
  10. Height                                   : 2 160 pixels
  11. Display aspect ratio                     : 16:9
  12. Frame rate mode                          : Constant
  13. Frame rate                               : 24.000 FPS
  14. Color space                              : YUV
  15. Chroma subsampling                       : 4:2:0
  16. Bit depth                                : 10 bits
  17. Bits/(Pixel*Frame)                       : 0.059
  18. Stream size                              : 9.64 GiB (94%)
  19. Language                                 : English
  20. Default                                  : Yes
  21. Forced                                   : No
  22. Color range                              : Limited
  23. Color primaries                          : BT.709
  24. Transfer characteristics                 : BT.709
  25. Matrix coefficients                      : BT.709

  26. Audio
  27. ID                                       : 2
  28. Format                                   : E-AC-3 JOC
  29. Format/Info                              : Enhanced AC-3 with Joint Object Coding
  30. Commercial name                          : Dolby Digital Plus with Dolby Atmos
  31. Codec ID                                 : A_EAC3
  32. Duration                                 : 1 h 57 min
  33. Bit rate mode                            : Constant
  34. Bit rate                                 : 768 kb/s
  35. Channel(s)                               : 6 channels
  36. Channel layout                           : L R C LFE Ls Rs
  37. Sampling rate                            : 48.0 kHz
  38. Frame rate                               : 31.250 FPS (1536 SPF)
  39. Compression mode                         : Lossy
  40. Stream size                              : 646 MiB (6%)
  41. Language                                 : English
  42. Service kind                             : Complete Main
  43. Default                                  : Yes
  44. Forced                                   : No
  45. Complexity index                         : 16
  46. Number of dynamic objects                : 15
  47. Bed channel count                        : 1 channel
  48. Bed channel configuration                : LFE

  49. Text #1
  50. ID                                       : 3
  51. Format                                   : UTF-8
  52. Codec ID                                 : S_TEXT/UTF8
  53. Codec ID/Info                            : UTF-8 Plain Text
  54. Duration                                 : 1 h 22 min
  55. Bit rate                                 : 6 b/s
  56. Frame rate                               : 0.034 FPS
  57. Count of elements                        : 168
  58. Stream size                              : 3.85 KiB (0%)
  59. Title                                    : Forced
  60. Language                                 : English
  61. Default                                  : Yes
  62. Forced                                   : Yes

  63. Text #2
  64. ID                                       : 4
  65. Format                                   : UTF-8
  66. Codec ID                                 : S_TEXT/UTF8
  67. Codec ID/Info                            : UTF-8 Plain Text
  68. Duration                                 : 1 h 33 min
  69. Bit rate                                 : 26 b/s
  70. Frame rate                               : 0.125 FPS
  71. Count of elements                        : 702
  72. Stream size                              : 18.6 KiB (0%)
  73. Language                                 : English
  74. Default                                  : No
  75. Forced                                   : No

  76. Text #3
  77. ID                                       : 5
  78. Format                                   : UTF-8
  79. Codec ID                                 : S_TEXT/UTF8
  80. Codec ID/Info                            : UTF-8 Plain Text
  81. Duration                                 : 1 h 39 min
  82. Bit rate                                 : 33 b/s
  83. Frame rate                               : 0.152 FPS
  84. Count of elements                        : 908
  85. Stream size                              : 24.3 KiB (0%)
  86. Title                                    : SDH
  87. Language                                 : English
  88. Default                                  : No
  89. Forced                                   : No

  90. Text #4
  91. ID                                       : 6
  92. Format                                   : UTF-8
  93. Codec ID                                 : S_TEXT/UTF8
  94. Codec ID/Info                            : UTF-8 Plain Text
  95. Duration                                 : 1 h 55 min
  96. Bit rate                                 : 34 b/s
  97. Frame rate                               : 0.099 FPS
  98. Count of elements                        : 685
  99. Stream size                              : 29.6 KiB (0%)
  100. Language                                 : Arabic
  101. Default                                  : No
  102. Forced                                   : No

  103. Text #5
  104. ID                                       : 7
  105. Format                                   : UTF-8
  106. Codec ID                                 : S_TEXT/UTF8
  107. Codec ID/Info                            : UTF-8 Plain Text
  108. Duration                                 : 1 h 55 min
  109. Bit rate                                 : 19 b/s
  110. Frame rate                               : 0.100 FPS
  111. Count of elements                        : 691
  112. Stream size                              : 16.3 KiB (0%)
  113. Language                                 : Czech
  114. Default                                  : No
  115. Forced                                   : No

  116. Text #6
  117. ID                                       : 8
  118. Format                                   : UTF-8
  119. Codec ID                                 : S_TEXT/UTF8
  120. Codec ID/Info                            : UTF-8 Plain Text
  121. Duration                                 : 1 h 55 min
  122. Bit rate                                 : 19 b/s
  123. Frame rate                               : 0.097 FPS
  124. Count of elements                        : 673
  125. Stream size                              : 16.4 KiB (0%)
  126. Language                                 : Danish
  127. Default                                  : No
  128. Forced                                   : No

  129. Text #7
  130. ID                                       : 9
  131. Format                                   : UTF-8
  132. Codec ID                                 : S_TEXT/UTF8
  133. Codec ID/Info                            : UTF-8 Plain Text
  134. Duration                                 : 1 h 55 min
  135. Bit rate                                 : 20 b/s
  136. Frame rate                               : 0.098 FPS
  137. Count of elements                        : 680
  138. Stream size                              : 17.6 KiB (0%)
  139. Language                                 : German
  140. Default                                  : No
  141. Forced                                   : No

  142. Text #8
  143. ID                                       : 10
  144. Format                                   : UTF-8
  145. Codec ID                                 : S_TEXT/UTF8
  146. Codec ID/Info                            : UTF-8 Plain Text
  147. Duration                                 : 1 h 55 min
  148. Bit rate                                 : 32 b/s
  149. Frame rate                               : 0.101 FPS
  150. Count of elements                        : 699
  151. Stream size                              : 27.6 KiB (0%)
  152. Language                                 : Greek
  153. Default                                  : No
  154. Forced                                   : No

  155. Text #9
  156. ID                                       : 11
  157. Format                                   : UTF-8
  158. Codec ID                                 : S_TEXT/UTF8
  159. Codec ID/Info                            : UTF-8 Plain Text
  160. Duration                                 : 1 h 55 min
  161. Bit rate                                 : 19 b/s
  162. Frame rate                               : 0.101 FPS
  163. Count of elements                        : 697
  164. Stream size                              : 16.5 KiB (0%)
  165. Title                                    : Latin American
  166. Language                                 : Spanish
  167. Default                                  : No
  168. Forced                                   : No

  169. Text #10
  170. ID                                       : 12
  171. Format                                   : UTF-8
  172. Codec ID                                 : S_TEXT/UTF8
  173. Codec ID/Info                            : UTF-8 Plain Text
  174. Duration                                 : 1 h 55 min
  175. Bit rate                                 : 20 b/s
  176. Frame rate                               : 0.104 FPS
  177. Count of elements                        : 722
  178. Stream size                              : 17.1 KiB (0%)
  179. Language                                 : Spanish
  180. Default                                  : No
  181. Forced                                   : No

  182. Text #11
  183. ID                                       : 13
  184. Format                                   : UTF-8
  185. Codec ID                                 : S_TEXT/UTF8
  186. Codec ID/Info                            : UTF-8 Plain Text
  187. Duration                                 : 1 h 55 min
  188. Bit rate                                 : 19 b/s
  189. Frame rate                               : 0.097 FPS
  190. Count of elements                        : 674
  191. Stream size                              : 16.1 KiB (0%)
  192. Language                                 : Finnish
  193. Default                                  : No
  194. Forced                                   : No

  195. Text #12
  196. ID                                       : 14
  197. Format                                   : UTF-8
  198. Codec ID                                 : S_TEXT/UTF8
  199. Codec ID/Info                            : UTF-8 Plain Text
  200. Duration                                 : 1 h 55 min
  201. Bit rate                                 : 21 b/s
  202. Frame rate                               : 0.097 FPS
  203. Count of elements                        : 674
  204. Stream size                              : 18.5 KiB (0%)
  205. Language                                 : fil
  206. Default                                  : No
  207. Forced                                   : No

  208. Text #13
  209. ID                                       : 15
  210. Format                                   : UTF-8
  211. Codec ID                                 : S_TEXT/UTF8
  212. Codec ID/Info                            : UTF-8 Plain Text
  213. Duration                                 : 1 h 55 min
  214. Bit rate                                 : 20 b/s
  215. Frame rate                               : 0.099 FPS
  216. Count of elements                        : 689
  217. Stream size                              : 17.1 KiB (0%)
  218. Language                                 : French
  219. Default                                  : No
  220. Forced                                   : No

  221. Text #14
  222. ID                                       : 16
  223. Format                                   : UTF-8
  224. Codec ID                                 : S_TEXT/UTF8
  225. Codec ID/Info                            : UTF-8 Plain Text
  226. Duration                                 : 1 h 55 min
  227. Bit rate                                 : 30 b/s
  228. Frame rate                               : 0.098 FPS
  229. Count of elements                        : 677
  230. Stream size                              : 25.8 KiB (0%)
  231. Language                                 : Hebrew
  232. Default                                  : No
  233. Forced                                   : No

  234. Text #15
  235. ID                                       : 17
  236. Format                                   : UTF-8
  237. Codec ID                                 : S_TEXT/UTF8
  238. Codec ID/Info                            : UTF-8 Plain Text
  239. Duration                                 : 1 h 40 min
  240. Bit rate                                 : 21 b/s
  241. Frame rate                               : 0.113 FPS
  242. Count of elements                        : 684
  243. Stream size                              : 15.8 KiB (0%)
  244. Language                                 : Croatian
  245. Default                                  : No
  246. Forced                                   : No

  247. Text #16
  248. ID                                       : 18
  249. Format                                   : UTF-8
  250. Codec ID                                 : S_TEXT/UTF8
  251. Codec ID/Info                            : UTF-8 Plain Text
  252. Duration                                 : 1 h 55 min
  253. Bit rate                                 : 19 b/s
  254. Frame rate                               : 0.097 FPS
  255. Count of elements                        : 674
  256. Stream size                              : 16.2 KiB (0%)
  257. Language                                 : Hungarian
  258. Default                                  : No
  259. Forced                                   : No

  260. Text #17
  261. ID                                       : 19
  262. Format                                   : UTF-8
  263. Codec ID                                 : S_TEXT/UTF8
  264. Codec ID/Info                            : UTF-8 Plain Text
  265. Duration                                 : 1 h 55 min
  266. Bit rate                                 : 20 b/s
  267. Frame rate                               : 0.096 FPS
  268. Count of elements                        : 668
  269. Stream size                              : 17.1 KiB (0%)
  270. Language                                 : Indonesian
  271. Default                                  : No
  272. Forced                                   : No

  273. Text #18
  274. ID                                       : 20
  275. Format                                   : UTF-8
  276. Codec ID                                 : S_TEXT/UTF8
  277. Codec ID/Info                            : UTF-8 Plain Text
  278. Duration                                 : 1 h 55 min
  279. Bit rate                                 : 19 b/s
  280. Frame rate                               : 0.096 FPS
  281. Count of elements                        : 664
  282. Stream size                              : 16.8 KiB (0%)
  283. Language                                 : Italian
  284. Default                                  : No
  285. Forced                                   : No

  286. Text #19
  287. ID                                       : 21
  288. Format                                   : UTF-8
  289. Codec ID                                 : S_TEXT/UTF8
  290. Codec ID/Info                            : UTF-8 Plain Text
  291. Duration                                 : 1 h 55 min
  292. Bit rate                                 : 20 b/s
  293. Frame rate                               : 0.099 FPS
  294. Count of elements                        : 689
  295. Stream size                              : 17.0 KiB (0%)
  296. Language                                 : Japanese
  297. Default                                  : No
  298. Forced                                   : No

  299. Text #20
  300. ID                                       : 22
  301. Format                                   : UTF-8
  302. Codec ID                                 : S_TEXT/UTF8
  303. Codec ID/Info                            : UTF-8 Plain Text
  304. Duration                                 : 1 h 55 min
  305. Bit rate                                 : 23 b/s
  306. Frame rate                               : 0.098 FPS
  307. Count of elements                        : 679
  308. Stream size                              : 20.0 KiB (0%)
  309. Language                                 : Korean
  310. Default                                  : No
  311. Forced                                   : No

  312. Text #21
  313. ID                                       : 23
  314. Format                                   : UTF-8
  315. Codec ID                                 : S_TEXT/UTF8
  316. Codec ID/Info                            : UTF-8 Plain Text
  317. Duration                                 : 1 h 40 min
  318. Bit rate                                 : 22 b/s
  319. Frame rate                               : 0.111 FPS
  320. Count of elements                        : 670
  321. Stream size                              : 16.6 KiB (0%)
  322. Language                                 : Malay
  323. Default                                  : No
  324. Forced                                   : No

  325. Text #22
  326. ID                                       : 24
  327. Format                                   : UTF-8
  328. Codec ID                                 : S_TEXT/UTF8
  329. Codec ID/Info                            : UTF-8 Plain Text
  330. Duration                                 : 1 h 55 min
  331. Bit rate                                 : 18 b/s
  332. Frame rate                               : 0.094 FPS
  333. Count of elements                        : 655
  334. Stream size                              : 16.0 KiB (0%)
  335. Language                                 : Norwegian Bokmal
  336. Default                                  : No
  337. Forced                                   : No

  338. Text #23
  339. ID                                       : 25
  340. Format                                   : UTF-8
  341. Codec ID                                 : S_TEXT/UTF8
  342. Codec ID/Info                            : UTF-8 Plain Text
  343. Duration                                 : 1 h 55 min
  344. Bit rate                                 : 19 b/s
  345. Frame rate                               : 0.096 FPS
  346. Count of elements                        : 667
  347. Stream size                              : 16.1 KiB (0%)
  348. Language                                 : Dutch
  349. Default                                  : No
  350. Forced                                   : No

  351. Text #24
  352. ID                                       : 26
  353. Format                                   : UTF-8
  354. Codec ID                                 : S_TEXT/UTF8
  355. Codec ID/Info                            : UTF-8 Plain Text
  356. Duration                                 : 1 h 55 min
  357. Bit rate                                 : 17 b/s
  358. Frame rate                               : 0.096 FPS
  359. Count of elements                        : 668
  360. Stream size                              : 14.4 KiB (0%)
  361. Language                                 : Polish
  362. Default                                  : No
  363. Forced                                   : No

  364. Text #25
  365. ID                                       : 27
  366. Format                                   : UTF-8
  367. Codec ID                                 : S_TEXT/UTF8
  368. Codec ID/Info                            : UTF-8 Plain Text
  369. Duration                                 : 1 h 55 min
  370. Bit rate                                 : 19 b/s
  371. Frame rate                               : 0.097 FPS
  372. Count of elements                        : 672
  373. Stream size                              : 16.3 KiB (0%)
  374. Title                                    : Brazilian
  375. Language                                 : Portuguese
  376. Default                                  : No
  377. Forced                                   : No

  378. Text #26
  379. ID                                       : 28
  380. Format                                   : UTF-8
  381. Codec ID                                 : S_TEXT/UTF8
  382. Codec ID/Info                            : UTF-8 Plain Text
  383. Duration                                 : 1 h 55 min
  384. Bit rate                                 : 20 b/s
  385. Frame rate                               : 0.100 FPS
  386. Count of elements                        : 691
  387. Stream size                              : 16.9 KiB (0%)
  388. Language                                 : Portuguese
  389. Default                                  : No
  390. Forced                                   : No

  391. Text #27
  392. ID                                       : 29
  393. Format                                   : UTF-8
  394. Codec ID                                 : S_TEXT/UTF8
  395. Codec ID/Info                            : UTF-8 Plain Text
  396. Duration                                 : 1 h 55 min
  397. Bit rate                                 : 23 b/s
  398. Frame rate                               : 0.099 FPS
  399. Count of elements                        : 687
  400. Stream size                              : 19.5 KiB (0%)
  401. Language                                 : Romanian
  402. Default                                  : No
  403. Forced                                   : No

  404. Text #28
  405. ID                                       : 30
  406. Format                                   : UTF-8
  407. Codec ID                                 : S_TEXT/UTF8
  408. Codec ID/Info                            : UTF-8 Plain Text
  409. Duration                                 : 1 h 55 min
  410. Bit rate                                 : 30 b/s
  411. Frame rate                               : 0.097 FPS
  412. Count of elements                        : 675
  413. Stream size                              : 26.2 KiB (0%)
  414. Language                                 : Russian
  415. Default                                  : No
  416. Forced                                   : No

  417. Text #29
  418. ID                                       : 31
  419. Format                                   : UTF-8
  420. Codec ID                                 : S_TEXT/UTF8
  421. Codec ID/Info                            : UTF-8 Plain Text
  422. Duration                                 : 1 h 55 min
  423. Bit rate                                 : 19 b/s
  424. Frame rate                               : 0.089 FPS
  425. Count of elements                        : 620
  426. Stream size                              : 16.9 KiB (0%)
  427. Language                                 : Swedish
  428. Default                                  : No
  429. Forced                                   : No

  430. Text #30
  431. ID                                       : 32
  432. Format                                   : UTF-8
  433. Codec ID                                 : S_TEXT/UTF8
  434. Codec ID/Info                            : UTF-8 Plain Text
  435. Duration                                 : 1 h 55 min
  436. Bit rate                                 : 51 b/s
  437. Frame rate                               : 0.098 FPS
  438. Count of elements                        : 681
  439. Stream size                              : 43.2 KiB (0%)
  440. Language                                 : Thai
  441. Default                                  : No
  442. Forced                                   : No

  443. Text #31
  444. ID                                       : 33
  445. Format                                   : UTF-8
  446. Codec ID                                 : S_TEXT/UTF8
  447. Codec ID/Info                            : UTF-8 Plain Text
  448. Duration                                 : 1 h 55 min
  449. Bit rate                                 : 19 b/s
  450. Frame rate                               : 0.095 FPS
  451. Count of elements                        : 661
  452. Stream size                              : 16.7 KiB (0%)
  453. Language                                 : Turkish
  454. Default                                  : No
  455. Forced                                   : No

  456. Text #32
  457. ID                                       : 34
  458. Format                                   : UTF-8
  459. Codec ID                                 : S_TEXT/UTF8
  460. Codec ID/Info                            : UTF-8 Plain Text
  461. Duration                                 : 1 h 55 min
  462. Bit rate                                 : 32 b/s
  463. Frame rate                               : 0.101 FPS
  464. Count of elements                        : 700
  465. Stream size                              : 27.8 KiB (0%)
  466. Language                                 : Ukrainian
  467. Default                                  : No
  468. Forced                                   : No

  469. Text #33
  470. ID                                       : 35
  471. Format                                   : UTF-8
  472. Codec ID                                 : S_TEXT/UTF8
  473. Codec ID/Info                            : UTF-8 Plain Text
  474. Duration                                 : 1 h 55 min
  475. Bit rate                                 : 28 b/s
  476. Frame rate                               : 0.097 FPS
  477. Count of elements                        : 674
  478. Stream size                              : 24.3 KiB (0%)
  479. Language                                 : Vietnamese
  480. Default                                  : No
  481. Forced                                   : No

  482. Text #34
  483. ID                                       : 36
  484. Format                                   : UTF-8
  485. Codec ID                                 : S_TEXT/UTF8
  486. Codec ID/Info                            : UTF-8 Plain Text
  487. Duration                                 : 1 h 55 min
  488. Bit rate                                 : 22 b/s
  489. Frame rate                               : 0.098 FPS
  490. Count of elements                        : 681
  491. Stream size                              : 19.2 KiB (0%)
  492. Title                                    : Simplified
  493. Language                                 : Chinese
  494. Default                                  : No
  495. Forced                                   : No

  496. Text #35
  497. ID                                       : 37
  498. Format                                   : UTF-8
  499. Codec ID                                 : S_TEXT/UTF8
  500. Codec ID/Info                            : UTF-8 Plain Text
  501. Duration                                 : 1 h 55 min
  502. Bit rate                                 : 21 b/s
  503. Frame rate                               : 0.107 FPS
  504. Count of elements                        : 744
  505. Stream size                              : 18.5 KiB (0%)
  506. Title                                    : Traditional
  507. Language                                 : Chinese
  508. Default                                  : No
  509. Forced                                   : No

  510. Menu
  511. 01:43:34.000                             : en:End Credits
复制代码




                                       
                                       

                                       
                                       
                                       




回复

使用道具 举报

蓝光币
5
发表于 2022-12-1 08:57:58 | 显示全部楼层
感谢分享好资源,蓝光电影网不错
回复 支持 反对

使用道具 举报

蓝光币
5
发表于 2022-12-1 08:58:03 | 显示全部楼层
感谢分享好资源,蓝光电影网不错
回复 支持 反对

使用道具 举报

蓝光币
1
发表于 2022-12-3 21:07:36 | 显示全部楼层
楼主发贴辛苦了,谢谢楼主分享!我觉得蓝光电影网是注册对了!
回复 支持 反对

使用道具 举报

懒得打字嘛,点击右侧快捷回复 【右侧内容,后台自定义】
您需要登录后才可以回帖 登录 | 立即加入

本版积分规则

Archiver|小黑屋| 蓝光电影网 |网站地图

Copyright © 2021 Comsenz Inc. Powered by 蓝光电影网

蓝光电影网

本站内容由用户自主分享和转载自互联网,转载目的在于传递更多信息,并不代表本网赞同其观点和对其真实性负责。

如有侵权、违反国家法律政策行为,请联系我们,我们会第一时间及时清除和处理!

举报反馈邮箱:[email protected]

快速回复 返回顶部 返回列表