找回密码

查看: 1327|回复: 1

[2160p] 侏罗纪公园3.Jurassic.Park.III.2001.2160p.UHD.BluRay.x265.10bit.HDR.DTS-X.7.1-RARBG 8.86GB

[复制链接]
蓝光币
1840
发表于 2023-1-2 14:55:21 | 显示全部楼层 |阅读模式


◎标  题 侏罗纪公园3
◎译  名 Jurassic Park 3
◎片  名 Jurassic Park III
◎年  代 2001
◎产  地 美国
◎类  别 行动 / 科幻 / 惊悚 / 冒险
◎语  言 英语
◎上映日期 2002-01-23(中国大陆) / 2001-07-18(美国)
◎IMDb评分 5.9/10 (324732人评价)
◎IMDb链接 https://www.imdb.com/title/tt0163025/
◎豆瓣评分 7.3/10 (115546人评价)
◎豆瓣链接 https://movie.douban.com/subject/1304643/
◎片  长 92 分钟
◎导  演 乔·庄斯顿 Joe Johnston
◎编  剧 彼得·布奇曼 Peter Buchman
       亚历山大·佩恩 Alexander Payne
       迈克尔·克莱顿 Michael Crichton
       吉姆·泰勒 Jim Taylor
◎演  员 山姆·尼尔 Sam Neill
       威廉姆·H·梅西 William H. Macy
       蒂娅·里欧妮 Téa Leoni
       亚历桑德罗·尼沃拉 Alessandro Nivola
       特拉沃·摩根 Trevor Morgan
       迈克尔·杰特 Michael Jeter
       约翰·迪尔 John Diehl
       劳拉·邓恩 Laura Dern
       泰勒·尼科斯 Taylor Nichols
       马克·哈雷利克 Mark Harelik
       胡里奥·奥斯卡·门乔索 Julio Oscar Mechoso
       布莱克·迈克尔·布莱恩 Blake Michael Bryan
       萨拉·丹尼尔·马迪森 Sarah Danielle Madison
       琳达·朴 Linda Park
       布鲁斯·A·扬 Bruce A. Young
       童自荣 Zirong Tong
       詹姆斯·霍纳 James Horner
       Bernard Zilinskas Bernard Zilinskas
       Edward C. Gillow Edward C. Gillow
       布鲁斯·弗兰奇 Bruce French
       Karin M. Gaarder Karin M. Gaarder
       史蒂文·斯皮尔伯格 Steven Spielberg
       戴维·沃马克 David Womark
       拉瑞·弗兰科 Larry J. Franco
       凯瑟琳·肯尼迪 Kathleen Kennedy
       谢利·约翰逊 Shelly Johnson
       罗伯特·达尔瓦 Robert Dalva
       南希·福伊 Nancy Foy
       埃德·韦罗 Ed Verreaux
       斯坦·温斯顿 Stan Winston
       凯瑟琳·布伦黛尔 Kathryn Blondell
       Ryan Cook Ryan Cook
       杰·库珀 Jay Cooper
       卡洛斯·巴埃纳 Carlos Baena
       Theresa Corrao Theresa Corrao
       克里斯托弗·埃文斯 Christopher Evans
       David Gainey David Gainey
       杰弗·海隆 Geoff Heron
       布莱恩·康纳 Brian Connor
       Robbie Clot Robbie Clot
       Sue Campbell Sue Campbell
       克莱格·巴朗 Craig Barron
       Charles Bailey Charles Bailey
       Rick O'Connor Rick O'Connor
       达米恩·卡尔 Damien Carr
       扎卡里·科尔 Zachary Cole
       Ryan Laney Ryan Laney
       大卫·马什 David Marsh
       Mark S. Miller Mark S. Miller
       Chris Stoski Chris Stoski
       行弘进 Susumu Yukuhiro
       R·克里斯托弗·怀特 R. Christopher White
       罗伯特·韦弗 Robert Weaver
       帕特里克·图巴赫 Patrick Tubach
       Danny Gordon Taylor Danny Gordon Taylor
       Chad Taylor Chad Taylor
       Tom St. Amand Tom St. Amand
       Anthony Shafer Anthony Shafer
       Martin Rosenberg Martin Rosenberg
       Eddie Pasquarello Eddie Pasquarello
       Steve Nichols Steve Nichols
       杰克·莫多万 Jack Mongovan
       吉姆·米切尔 Jim Mitchell
       埃里克·D·克里斯坦森 Eric D. Christensen
       M·扎卡里·谢尔曼 M. Zachary Sherman
       Paul Griffin Paul Griffin
       Josh Gans Josh Gans
       毛里西奥·贝奥基 Mauricio Baiocchi
       David Weitzberg David Weitzberg
       方·戴维斯 Fon Davis
       Paul Churchill Paul Churchill
       C. Andrew Nelson C. Andrew Nelson
       C. Michael Easton C. Michael Easton
       Michael Morgan Michael Morgan
       David Latour David Latour
       Durant Schoon Durant Schoon
       梅于尔·帕特尔 Mayur Patel
       布鲁斯·鲍威尔 Bruce Powell
       Alan Rosenfeld Alan Rosenfeld
◎简  介
  继索纳岛恐龙逃往事务曩昔已有八年,艾伦•格兰特博士(山姆•尼尔 Sam Neill 饰)不管若何也不愿再返回阿谁鬼地方。虽然发下重誓,但现状不能不让他发出誓词。他的一项史前动物研讨堕入资金严重的逆境。而这时,富有的贩子保罗•科比(William H. Macy 饰)及其夫人阿曼达(Téa Leoni 饰)找到艾伦,约请他作为领导带他们乘飞机前往索纳岛参观。一方面报酬颇丰,一方面又得知不用着陆小岛,好了伤疤忘了疼的艾伦接管了他们的约请。                                    
                                但是工作却朝相反的偏向成长,他们的飞机终极迫降小岛。至此他才得知,本来科比佳耦来此的目标竟是为了寻觅失落的儿子。与此同时他还发现,经过八年的自然进化,恐龙中最聪明的速龙居然具有了自己赖以交换的说话。这一次他的对手不但凶暴,而且更加狡猾……
  1. Video
  2. ID                                       : 1
  3. Format                                   : HEVC
  4. Format/Info                              : High Efficiency Video Coding
  5. Format profile                           : Main 10@L5.1@Main
  6. HDR format                               : SMPTE ST 2086, HDR10 compatible
  7. Codec ID                                 : V_MPEGH/ISO/HEVC
  8. Duration                                 : 1 h 32 min
  9. Bit rate                                 : 8 019 kb/s
  10. Width                                    : 3 840 pixels
  11. Height                                   : 2 076 pixels
  12. Display aspect ratio                     : 1.85:1
  13. Frame rate mode                          : Constant
  14. Frame rate                               : 23.976 (24000/1001) FPS
  15. Color space                              : YUV
  16. Chroma subsampling                       : 4:2:0
  17. Bit depth                                : 10 bits
  18. Bits/(Pixel*Frame)                       : 0.042
  19. Stream size                              : 5.16 GiB (58%)
  20. Writing library                          : x265 3.5+rarbg-HDR-38-20255e6:[Linux][clang 16.0.0][64 bit] 10bit
  21. Encoding settings                        : cpuid=1111039 / frame-threads=6 / wpp / no-pmode / no-pme / no-psnr / no-ssim / log-level=2 / input-csp=1 / input-res=3840x2076 / interlace=0 / total-frames=0 / level-idc=51 / high-tier=1 / uhd-bd=0 / ref=4 / no-allow-non-conformance / repeat-headers / annexb / aud / no-eob / no-eos / no-hrd / info / hash=0 / no-temporal-layers / no-open-gop / min-keyint=1 / keyint=24 / gop-lookahead=0 / bframes=4 / b-adapt=2 / b-pyramid / bframe-bias=0 / rc-lookahead=25 / lookahead-slices=4 / scenecut=40 / no-hist-scenecut / radl=0 / no-splice / no-intra-refresh / ctu=64 / min-cu-size=8 / rect / no-amp / max-tu-size=32 / tu-inter-depth=1 / tu-intra-depth=1 / limit-tu=0 / rdoq-level=2 / dynamic-rd=0.00 / no-ssim-rd / signhide / no-tskip / nr-intra=0 / nr-inter=0 / no-constrained-intra / strong-intra-smoothing / max-merge=3 / limit-refs=3 / no-limit-modes / me=3 / subme=3 / merange=57 / temporal-mvp / no-frame-dup / no-hme / weightp / no-weightb / no-analyze-src-pics / deblock=0:0 / no-sao / no-sao-non-deblock / rd=4 / selective-sao=0 / no-early-skip / rskip / no-fast-intra / no-tskip-fast / no-cu-lossless / no-b-intra / no-splitrd-skip / rdpenalty=0 / psy-rd=2.00 / psy-rdoq=1.00 / no-rd-refine / no-lossless / cbqpoffs=0 / crqpoffs=0 / rc=abr / bitrate=8000 / qcomp=0.60 / qpstep=4 / stats-write=0 / stats-read=2 / cplxblur=20.0 / qblur=0.5 / ipratio=1.40 / pbratio=1.30 / aq-mode=1 / aq-strength=1.00 / cutree / zone-count=0 / no-strict-cbr / qg-size=32 / no-rc-grain / qpmax=69 / qpmin=0 / no-const-vbv / sar=1 / overscan=0 / videoformat=5 / range=0 / colorprim=9 / transfer=16 / colormatrix=9 / chromaloc=0 / display-window=0 / master-display=G(13250,34500)B(7500,3000)R(34000,16000)WP(15635,16450)L(10000000,50) / cll=915,70 / min-luma=0 / max-luma=1023 / log2-max-poc-lsb=8 / vui-timing-info / vui-hrd-info / slices=1 / no-opt-qp-pps / no-opt-ref-list-length-pps / no-multi-pass-opt-rps / scenecut-bias=0.05 / hist-threshold=0.03 / no-opt-cu-delta-qp / no-aq-motion / hdr10 / hdr10-opt / no-dhdr10-opt / no-idr-recovery-sei / analysis-reuse-level=0 / analysis-save-reuse-level=0 / analysis-load-reuse-level=0 / scale-factor=0 / refine-intra=0 / refine-inter=0 / refine-mv=1 / refine-ctu-distortion=0 / no-limit-sao / ctu-info=0 / no-lowpass-dct / refine-analysis-type=0 / copy-pic=1 / max-ausize-factor=1.0 / no-dynamic-refine / no-single-sei / no-hevc-aq / no-svt / no-field / qp-adaptation-range=1.00 / scenecut-aware-qp=0conformance-window-offsets / right=0 / bottom=0 / decoder-max-rate=0 / no-vbv-live-multi-pass
  22. Default                                  : Yes
  23. Forced                                   : No
  24. Color range                              : Limited
  25. Color primaries                          : BT.2020
  26. Transfer characteristics                 : PQ
  27. Matrix coefficients                      : BT.2020 non-constant
  28. Mastering display color primaries        : Display P3
  29. Mastering display luminance              : min: 0.0050 cd/m2, max: 1000 cd/m2
  30. Maximum Content Light Level              : 915 cd/m2
  31. Maximum Frame-Average Light Level        : 70 cd/m2
  32. Audio #1
  33. ID                                       : 2
  34. Format                                   : DTS XLL X
  35. Format/Info                              : Digital Theater Systems
  36. Commercial name                          : DTS-HD Master Audio
  37. Codec ID                                 : A_DTS
  38. Duration                                 : 1 h 32 min
  39. Bit rate mode                            : Variable
  40. Bit rate                                 : 5 345 kb/s
  41. Channel(s)                               : 8 channels
  42. Channel(s)_Original                      : Object Based
  43. ChannelLayout_Original                   : Object Based
  44. Sampling rate                            : 48.0 kHz
  45. Frame rate                               : 93.750 FPS (512 SPF)
  46. Bit depth                                : 24 bits
  47. Stream size                              : 3.45 GiB (39%)
  48. Title                                    : English DTS-X 7.1
  49. Language                                 : English
  50. Default                                  : Yes
  51. Forced                                   : No
  52. Audio #2
  53. ID                                       : 3
  54. Format                                   : AC-3
  55. Format/Info                              : Audio Coding 3
  56. Commercial name                          : Dolby Digital
  57. Codec ID                                 : A_AC3
  58. Duration                                 : 1 h 32 min
  59. Bit rate mode                            : Constant
  60. Bit rate                                 : 384 kb/s
  61. Channel(s)                               : 6 channels
  62. Channel layout                           : L R C LFE Ls Rs
  63. Sampling rate                            : 48.0 kHz
  64. Frame rate                               : 31.250 FPS (1536 SPF)
  65. Compression mode                         : Lossy
  66. Stream size                              : 254 MiB (3%)
  67. Title                                    : English DD 5.1
  68. Language                                 : English
  69. Service kind                             : Complete Main
  70. Default                                  : No
  71. Forced                                   : No
  72. Text #1
  73. ID                                       : 4
  74. Format                                   : UTF-8
  75. Codec ID                                 : S_TEXT/UTF8
  76. Codec ID/Info                            : UTF-8 Plain Text
  77. Duration                                 : 1 h 23 min
  78. Bit rate                                 : 39 b/s
  79. Frame rate                               : 0.165 FPS
  80. Count of elements                        : 827
  81. Stream size                              : 24.2 KiB (0%)
  82. Title                                    : English SRT
  83. Language                                 : English
  84. Default                                  : Yes
  85. Forced                                   : No
  86. Text #2
  87. ID                                       : 5
  88. Format                                   : UTF-8
  89. Codec ID                                 : S_TEXT/UTF8
  90. Codec ID/Info                            : UTF-8 Plain Text
  91. Duration                                 : 1 h 23 min
  92. Bit rate                                 : 42 b/s
  93. Frame rate                               : 0.187 FPS
  94. Count of elements                        : 941
  95. Stream size                              : 25.8 KiB (0%)
  96. Title                                    : English SDH SRT
  97. Language                                 : English
  98. Default                                  : No
  99. Forced                                   : No
  100. Menu
  101. 00:00:00.000                             : en:Chapter 01
  102. 00:04:10.500                             : en:Chapter 02
  103. 00:12:42.720                             : en:Chapter 03
  104. 00:17:25.669                             : en:Chapter 04
  105. 00:19:55.777                             : en:Chapter 05
  106. 00:26:26.334                             : en:Chapter 06
  107. 00:27:34.569                             : en:Chapter 07
  108. 00:32:36.537                             : en:Chapter 08
  109. 00:36:12.086                             : en:Chapter 09
  110. 00:40:10.825                             : en:Chapter 10
  111. 00:44:31.251                             : en:Chapter 11
  112. 00:53:05.390                             : en:Chapter 12
  113. 00:56:47.654                             : en:Chapter 13
  114. 00:58:54.614                             : en:Chapter 14
  115. 01:02:59.734                             : en:Chapter 15
  116. 01:11:43.632                             : en:Chapter 16
  117. 01:14:52.237                             : en:Chapter 17
  118. 01:18:43.260                             : en:Chapter 18
  119. 01:21:28.842                             : en:Chapter 19
  120. 01:24:26.895                             : en:Chapter 20
复制代码











回复

使用道具 举报

蓝光币
15
发表于 6 天前 | 显示全部楼层
谢谢谢谢谢谢
回复

使用道具 举报

懒得打字嘛,点击右侧快捷回复 【右侧内容,后台自定义】
您需要登录后才可以回帖 登录 | 立即加入

本版积分规则

Copyright © 2024 Comsenz Inc. Powered by 蓝光电影网

本站内容由用户自主分享和转载自互联网,转载目的在于传递更多信息,并不代表本网赞同其观点和对其真实性负责。

如有侵权、违反国家法律政策行为,请联系我们,我们会第一时间及时清除和处理!

举报反馈邮箱:4k1080.com@gmail.com

快速回复 返回顶部 返回列表