找回密码

查看: 922|回复: 0

[剧情] 濑降物语.The.Seburi.Story.1985.JAPANESE.1080p.WEBRip.x264-VXT 2.38GB

[复制链接]
蓝光币
1848
发表于 2023-1-2 14:57:02 | 显示全部楼层 |阅读模式


◎标  题 濑降物语
◎译  名 The Seburi Story
◎片  名 瀬降り物語
◎年  代 1985
◎产  地 日本
◎类  别 剧情
◎语  言 日语
◎上映日期 1985-02-18
◎IMDb评分 6.8/10 (22人评价)
◎IMDb链接 https://www.imdb.com/title/tt0124113/
◎豆瓣链接 https://movie.douban.com/subject/2222951/
◎片  长 125分钟
◎导  演 中岛贞夫 Sadao Nakajima
◎编  剧 中岛贞夫 Sadao Nakajima
◎演  员 萩原健一 Kenichi Hagiwara
       殿山泰司 Taiji Tonoyama
       藤田弓子 Yumiko Fujita
       小林稔侍 Nenji Kobayashi
       冈本丽 Rei Okamoto
       室田日出男 Hideo Murota
       光石研 Ken Mitsuishi
       永岛映子 Eiko Nagashima
       内田朝雄 Asao Uchida
       内藤刚志 Takashi Naitô
       早乙女爱 Ai Saotome
       井上孝幸 Takayuki Inoue
◎简  介
  山野の漂泊う山の民の一族で、群子の親分と呼ばれる木下一と一人息子の太が、亀蔵とクニの一家が住む川原の瀬降りを訪れた時には、山はもうすっかり色づいていた。ヤゾーが来たのは二人の息子カズオがハナという娘を嫁に迎えたためで、その仲立ちをするのであった。二人の祝言は古式にのっとり行なわれ、二人は山の民の掟に従って翌朝、新六合へ向かって旅立った。ヤゾーは一年前に妻を亡くしており独り身であった。クニはそんなヤゾーに、カズオの妹ヒデをさかんにすすめるがヤゾーはとりあわなかった。冬--。兄が去り、ヤゾー親子が去ったヒデは何となく寂しい気分でいた。そんなある日、亀蔵が死んだ。葬儀には各地から一族の仲間が集まったが、何以かカズオとハナの姿がなかった。その頃、カズオはある村で巡査に捕まっていたのだ。窃盗と兵役忌避の疑いで取り調べを受けていたカズオをやっとのことで助けだした...
  1. Video
  2. ID                                       : 1
  3. Format                                   : AVC
  4. Format/Info                              : Advanced Video Codec
  5. Format profile                           : High@L4.1
  6. Format settings                          : CABAC / 4 Ref Frames
  7. Format settings, CABAC                   : Yes
  8. Format settings, Reference frames        : 4 frames
  9. Codec ID                                 : avc1
  10. Codec ID/Info                            : Advanced Video Coding
  11. Duration                                 : 2 h 5 min
  12. Bit rate                                 : 2 500 kb/s
  13. Width                                    : 1 920 pixels
  14. Height                                   : 1 040 pixels
  15. Display aspect ratio                     : 1.85:1
  16. Frame rate mode                          : Constant
  17. Frame rate                               : 23.976 (23976/1000) FPS
  18. Color space                              : YUV
  19. Chroma subsampling                       : 4:2:0
  20. Bit depth                                : 8 bits
  21. Scan type                                : Progressive
  22. Bits/(Pixel*Frame)                       : 0.052
  23. Stream size                              : 2.18 GiB (92%)
  24. Writing library                          : x264 core 152 r2851M ba24899
  25. Encoding settings                        : cabac=1 / ref=4 / deblock=1:-1:-1 / analyse=0x3:0x113 / me=umh / subme=9 / psy=1 / psy_rd=1.00:0.15 / mixed_ref=1 / me_range=24 / chroma_me=1 / trellis=2 / 8x8dct=1 / cqm=0 / deadzone=21,11 / fast_pskip=1 / chroma_qp_offset=-3 / threads=16 / lookahead_threads=4 / sliced_threads=0 / nr=0 / decimate=1 / interlaced=0 / bluray_compat=0 / constrained_intra=0 / bframes=3 / b_pyramid=2 / b_adapt=2 / b_bias=0 / direct=3 / weightb=1 / open_gop=0 / weightp=2 / keyint=250 / keyint_min=25 / scenecut=40 / intra_refresh=0 / rc_lookahead=50 / rc=2pass / mbtree=1 / bitrate=2500 / ratetol=1.0 / qcomp=0.60 / qpmin=0 / qpmax=69 / qpstep=4 / cplxblur=20.0 / qblur=0.5 / vbv_maxrate=31250 / vbv_bufsize=31250 / nal_hrd=none / filler=0 / ip_ratio=1.40 / aq=3:1.00
  26. Encoded date                             : UTC 2022-12-31 23:05:10
  27. Tagged date                              : UTC 2022-12-31 23:05:10
  28. Codec configuration box                  : avcC
  29. Audio
  30. ID                                       : 2
  31. Format                                   : AAC LC
  32. Format/Info                              : Advanced Audio Codec Low Complexity
  33. Codec ID                                 : mp4a-40-2
  34. Duration                                 : 2 h 5 min
  35. Bit rate mode                            : Constant
  36. Bit rate                                 : 224 kb/s
  37. Channel(s)                               : 2 channels
  38. Channel layout                           : L R
  39. Sampling rate                            : 48.0 kHz
  40. Frame rate                               : 46.875 FPS (1024 SPF)
  41. Compression mode                         : Lossy
  42. Stream size                              : 200 MiB (8%)
  43. Language                                 : Japanese
  44. Default                                  : Yes
  45. Alternate group                          : 1
  46. Encoded date                             : UTC 2022-12-31 23:05:10
  47. Tagged date                              : UTC 2022-12-31 23:05:10
复制代码











回复

使用道具 举报

懒得打字嘛,点击右侧快捷回复 【右侧内容,后台自定义】
您需要登录后才可以回帖 登录 | 立即加入

本版积分规则

Copyright © 2024 Comsenz Inc. Powered by 蓝光电影网

本站内容由用户自主分享和转载自互联网,转载目的在于传递更多信息,并不代表本网赞同其观点和对其真实性负责。

如有侵权、违反国家法律政策行为,请联系我们,我们会第一时间及时清除和处理!

举报反馈邮箱:4k1080.com@gmail.com

快速回复 返回顶部 返回列表