找回密码

查看: 1320|回复: 0

[2160p-WEB] 施图茨的疗愈之道[中文字幕].Stutz.2022.2160p.NF.WEB-DL.x265.10bit.SDR.DDP5.1-Slutz 8.56GB

[复制链接]
蓝光币
1848
发表于 2023-1-2 14:57:25 | 显示全部楼层 |阅读模式


◎标  题 施图茨的疗愈之道
◎译  名 菲尔·斯图茨 / 斯图茨 / 施图茨
◎片  名 Stutz
◎年  代 2022
◎产  地 美国
◎类  别 记载片
◎语  言 英语
◎上映日期 2022-11-14(美国收集)
◎IMDb评分 7.9/10 (9512人评价)
◎IMDb链接 https://www.imdb.com/title/tt21819228/
◎豆瓣评分 9.0/10 (571人评价)
◎豆瓣链接 https://movie.douban.com/subject/36075748/
◎片  长 96分钟
◎导  演 乔纳·希尔 Jonah Hill
◎演  员 乔纳·希尔 Jonah Hill
       菲尔·斯图茨 Phil Stutz
◎简  介
  在与演员乔纳·希尔的坦诚对话中,主治心理医生菲尔·施图茨探讨了自己的晚年履历和唯一无二的视觉治疗模子。
  1. Video
  2. ID                                       : 1
  3. Format                                   : HEVC
  4. Format/Info                              : High Efficiency Video Coding
  5. Format profile                           : Main 10@L5@Main
  6. Codec ID                                 : V_MPEGH/ISO/HEVC
  7. Duration                                 : 1 h 36 min
  8. Bit rate                                 : 12.1 Mb/s
  9. Width                                    : 3 840 pixels
  10. Height                                   : 2 160 pixels
  11. Display aspect ratio                     : 16:9
  12. Frame rate mode                          : Constant
  13. Frame rate                               : 23.976 (24000/1001) FPS
  14. Color space                              : YUV
  15. Chroma subsampling                       : 4:2:0
  16. Bit depth                                : 10 bits
  17. Bits/(Pixel*Frame)                       : 0.061
  18. Stream size                              : 8.12 GiB (95%)
  19. Language                                 : English
  20. Default                                  : Yes
  21. Forced                                   : No
  22. Color range                              : Limited
  23. Color primaries                          : BT.709
  24. Transfer characteristics                 : BT.709
  25. Matrix coefficients                      : BT.709
  26. Audio
  27. ID                                       : 2
  28. Format                                   : E-AC-3
  29. Format/Info                              : Enhanced AC-3
  30. Commercial name                          : Dolby Digital Plus
  31. Codec ID                                 : A_EAC3
  32. Duration                                 : 1 h 36 min
  33. Bit rate mode                            : Constant
  34. Bit rate                                 : 640 kb/s
  35. Channel(s)                               : 6 channels
  36. Channel layout                           : L R C LFE Ls Rs
  37. Sampling rate                            : 48.0 kHz
  38. Frame rate                               : 31.250 FPS (1536 SPF)
  39. Compression mode                         : Lossy
  40. Stream size                              : 441 MiB (5%)
  41. Language                                 : English
  42. Service kind                             : Complete Main
  43. Default                                  : Yes
  44. Forced                                   : No
  45. Text #1
  46. ID                                       : 3
  47. Format                                   : UTF-8
  48. Codec ID                                 : S_TEXT/UTF8
  49. Codec ID/Info                            : UTF-8 Plain Text
  50. Duration                                 : 1 h 32 min
  51. Bit rate                                 : 100 b/s
  52. Frame rate                               : 0.294 FPS
  53. Count of elements                        : 1636
  54. Stream size                              : 68.1 KiB (0%)
  55. Language                                 : English
  56. Default                                  : No
  57. Forced                                   : No
  58. Text #2
  59. ID                                       : 4
  60. Format                                   : UTF-8
  61. Codec ID                                 : S_TEXT/UTF8
  62. Codec ID/Info                            : UTF-8 Plain Text
  63. Duration                                 : 1 h 35 min
  64. Bit rate                                 : 103 b/s
  65. Frame rate                               : 0.302 FPS
  66. Count of elements                        : 1737
  67. Stream size                              : 72.3 KiB (0%)
  68. Title                                    : SDH
  69. Language                                 : English
  70. Default                                  : No
  71. Forced                                   : No
  72. Text #3
  73. ID                                       : 5
  74. Format                                   : UTF-8
  75. Codec ID                                 : S_TEXT/UTF8
  76. Codec ID/Info                            : UTF-8 Plain Text
  77. Duration                                 : 1 h 32 min
  78. Bit rate                                 : 164 b/s
  79. Frame rate                               : 0.281 FPS
  80. Count of elements                        : 1568
  81. Stream size                              : 112 KiB (0%)
  82. Language                                 : Arabic
  83. Default                                  : No
  84. Forced                                   : No
  85. Text #4
  86. ID                                       : 6
  87. Format                                   : UTF-8
  88. Codec ID                                 : S_TEXT/UTF8
  89. Codec ID/Info                            : UTF-8 Plain Text
  90. Duration                                 : 1 h 34 min
  91. Bit rate                                 : 87 b/s
  92. Frame rate                               : 0.273 FPS
  93. Count of elements                        : 1551
  94. Stream size                              : 60.5 KiB (0%)
  95. Language                                 : Czech
  96. Default                                  : No
  97. Forced                                   : No
  98. Text #5
  99. ID                                       : 7
  100. Format                                   : UTF-8
  101. Codec ID                                 : S_TEXT/UTF8
  102. Codec ID/Info                            : UTF-8 Plain Text
  103. Duration                                 : 1 h 34 min
  104. Bit rate                                 : 80 b/s
  105. Frame rate                               : 0.272 FPS
  106. Count of elements                        : 1549
  107. Stream size                              : 56.2 KiB (0%)
  108. Language                                 : Danish
  109. Default                                  : No
  110. Forced                                   : No
  111. Text #6
  112. ID                                       : 8
  113. Format                                   : UTF-8
  114. Codec ID                                 : S_TEXT/UTF8
  115. Codec ID/Info                            : UTF-8 Plain Text
  116. Duration                                 : 1 h 34 min
  117. Bit rate                                 : 91 b/s
  118. Frame rate                               : 0.271 FPS
  119. Count of elements                        : 1540
  120. Stream size                              : 63.9 KiB (0%)
  121. Language                                 : German
  122. Default                                  : No
  123. Forced                                   : No
  124. Text #7
  125. ID                                       : 9
  126. Format                                   : UTF-8
  127. Codec ID                                 : S_TEXT/UTF8
  128. Codec ID/Info                            : UTF-8 Plain Text
  129. Duration                                 : 1 h 34 min
  130. Bit rate                                 : 140 b/s
  131. Frame rate                               : 0.283 FPS
  132. Count of elements                        : 1610
  133. Stream size                              : 97.3 KiB (0%)
  134. Language                                 : Greek
  135. Default                                  : No
  136. Forced                                   : No
  137. Text #8
  138. ID                                       : 10
  139. Format                                   : UTF-8
  140. Codec ID                                 : S_TEXT/UTF8
  141. Codec ID/Info                            : UTF-8 Plain Text
  142. Duration                                 : 1 h 34 min
  143. Bit rate                                 : 82 b/s
  144. Frame rate                               : 0.271 FPS
  145. Count of elements                        : 1539
  146. Stream size                              : 57.4 KiB (0%)
  147. Title                                    : Latin American
  148. Language                                 : Spanish (Latin America)
  149. Default                                  : No
  150. Forced                                   : No
  151. Text #9
  152. ID                                       : 11
  153. Format                                   : UTF-8
  154. Codec ID                                 : S_TEXT/UTF8
  155. Codec ID/Info                            : UTF-8 Plain Text
  156. Duration                                 : 1 h 34 min
  157. Bit rate                                 : 80 b/s
  158. Frame rate                               : 0.268 FPS
  159. Count of elements                        : 1524
  160. Stream size                              : 56.0 KiB (0%)
  161. Language                                 : Spanish (ES)
  162. Default                                  : No
  163. Forced                                   : No
  164. Text #10
  165. ID                                       : 12
  166. Format                                   : UTF-8
  167. Codec ID                                 : S_TEXT/UTF8
  168. Codec ID/Info                            : UTF-8 Plain Text
  169. Duration                                 : 1 h 34 min
  170. Bit rate                                 : 84 b/s
  171. Frame rate                               : 0.227 FPS
  172. Count of elements                        : 1292
  173. Stream size                              : 58.4 KiB (0%)
  174. Language                                 : Finnish
  175. Default                                  : No
  176. Forced                                   : No
  177. Text #11
  178. ID                                       : 13
  179. Format                                   : UTF-8
  180. Codec ID                                 : S_TEXT/UTF8
  181. Codec ID/Info                            : UTF-8 Plain Text
  182. Duration                                 : 1 h 34 min
  183. Bit rate                                 : 93 b/s
  184. Frame rate                               : 0.283 FPS
  185. Count of elements                        : 1608
  186. Stream size                              : 64.9 KiB (0%)
  187. Language                                 : fil
  188. Default                                  : No
  189. Forced                                   : No
  190. Text #12
  191. ID                                       : 14
  192. Format                                   : UTF-8
  193. Codec ID                                 : S_TEXT/UTF8
  194. Codec ID/Info                            : UTF-8 Plain Text
  195. Duration                                 : 1 h 34 min
  196. Bit rate                                 : 91 b/s
  197. Frame rate                               : 0.276 FPS
  198. Count of elements                        : 1572
  199. Stream size                              : 63.6 KiB (0%)
  200. Language                                 : French
  201. Default                                  : No
  202. Forced                                   : No
  203. Text #13
  204. ID                                       : 15
  205. Format                                   : UTF-8
  206. Codec ID                                 : S_TEXT/UTF8
  207. Codec ID/Info                            : UTF-8 Plain Text
  208. Duration                                 : 1 h 34 min
  209. Bit rate                                 : 142 b/s
  210. Frame rate                               : 0.263 FPS
  211. Count of elements                        : 1496
  212. Stream size                              : 98.7 KiB (0%)
  213. Language                                 : Hebrew
  214. Default                                  : No
  215. Forced                                   : No
  216. Text #14
  217. ID                                       : 16
  218. Format                                   : UTF-8
  219. Codec ID                                 : S_TEXT/UTF8
  220. Codec ID/Info                            : UTF-8 Plain Text
  221. Duration                                 : 1 h 34 min
  222. Bit rate                                 : 79 b/s
  223. Frame rate                               : 0.265 FPS
  224. Count of elements                        : 1509
  225. Stream size                              : 54.9 KiB (0%)
  226. Language                                 : Croatian
  227. Default                                  : No
  228. Forced                                   : No
  229. Text #15
  230. ID                                       : 17
  231. Format                                   : UTF-8
  232. Codec ID                                 : S_TEXT/UTF8
  233. Codec ID/Info                            : UTF-8 Plain Text
  234. Duration                                 : 1 h 34 min
  235. Bit rate                                 : 95 b/s
  236. Frame rate                               : 0.276 FPS
  237. Count of elements                        : 1570
  238. Stream size                              : 66.4 KiB (0%)
  239. Language                                 : Hungarian
  240. Default                                  : No
  241. Forced                                   : No
  242. Text #16
  243. ID                                       : 18
  244. Format                                   : UTF-8
  245. Codec ID                                 : S_TEXT/UTF8
  246. Codec ID/Info                            : UTF-8 Plain Text
  247. Duration                                 : 1 h 34 min
  248. Bit rate                                 : 90 b/s
  249. Frame rate                               : 0.278 FPS
  250. Count of elements                        : 1583
  251. Stream size                              : 62.7 KiB (0%)
  252. Language                                 : Indonesian
  253. Default                                  : No
  254. Forced                                   : No
  255. Text #17
  256. ID                                       : 19
  257. Format                                   : UTF-8
  258. Codec ID                                 : S_TEXT/UTF8
  259. Codec ID/Info                            : UTF-8 Plain Text
  260. Duration                                 : 1 h 34 min
  261. Bit rate                                 : 84 b/s
  262. Frame rate                               : 0.289 FPS
  263. Count of elements                        : 1641
  264. Stream size                              : 59.0 KiB (0%)
  265. Language                                 : Italian
  266. Default                                  : No
  267. Forced                                   : No
  268. Text #18
  269. ID                                       : 20
  270. Format                                   : UTF-8
  271. Codec ID                                 : S_TEXT/UTF8
  272. Codec ID/Info                            : UTF-8 Plain Text
  273. Duration                                 : 1 h 34 min
  274. Bit rate                                 : 88 b/s
  275. Frame rate                               : 0.284 FPS
  276. Count of elements                        : 1617
  277. Stream size                              : 61.6 KiB (0%)
  278. Language                                 : Japanese
  279. Default                                  : No
  280. Forced                                   : No
  281. Text #19
  282. ID                                       : 21
  283. Format                                   : UTF-8
  284. Codec ID                                 : S_TEXT/UTF8
  285. Codec ID/Info                            : UTF-8 Plain Text
  286. Duration                                 : 1 h 34 min
  287. Bit rate                                 : 113 b/s
  288. Frame rate                               : 0.277 FPS
  289. Count of elements                        : 1577
  290. Stream size                              : 78.9 KiB (0%)
  291. Language                                 : Korean
  292. Default                                  : No
  293. Forced                                   : No
  294. Text #20
  295. ID                                       : 22
  296. Format                                   : UTF-8
  297. Codec ID                                 : S_TEXT/UTF8
  298. Codec ID/Info                            : UTF-8 Plain Text
  299. Duration                                 : 1 h 34 min
  300. Bit rate                                 : 83 b/s
  301. Frame rate                               : 0.273 FPS
  302. Count of elements                        : 1553
  303. Stream size                              : 58.2 KiB (0%)
  304. Language                                 : Malay
  305. Default                                  : No
  306. Forced                                   : No
  307. Text #21
  308. ID                                       : 23
  309. Format                                   : UTF-8
  310. Codec ID                                 : S_TEXT/UTF8
  311. Codec ID/Info                            : UTF-8 Plain Text
  312. Duration                                 : 1 h 34 min
  313. Bit rate                                 : 86 b/s
  314. Frame rate                               : 0.265 FPS
  315. Count of elements                        : 1510
  316. Stream size                              : 60.4 KiB (0%)
  317. Language                                 : Norwegian Bokmal
  318. Default                                  : No
  319. Forced                                   : No
  320. Text #22
  321. ID                                       : 24
  322. Format                                   : UTF-8
  323. Codec ID                                 : S_TEXT/UTF8
  324. Codec ID/Info                            : UTF-8 Plain Text
  325. Duration                                 : 1 h 34 min
  326. Bit rate                                 : 88 b/s
  327. Frame rate                               : 0.246 FPS
  328. Count of elements                        : 1401
  329. Stream size                              : 61.6 KiB (0%)
  330. Language                                 : Dutch
  331. Default                                  : No
  332. Forced                                   : No
  333. Text #23
  334. ID                                       : 25
  335. Format                                   : UTF-8
  336. Codec ID                                 : S_TEXT/UTF8
  337. Codec ID/Info                            : UTF-8 Plain Text
  338. Duration                                 : 1 h 34 min
  339. Bit rate                                 : 79 b/s
  340. Frame rate                               : 0.272 FPS
  341. Count of elements                        : 1545
  342. Stream size                              : 55.2 KiB (0%)
  343. Language                                 : Polish
  344. Default                                  : No
  345. Forced                                   : No
  346. Text #24
  347. ID                                       : 26
  348. Format                                   : UTF-8
  349. Codec ID                                 : S_TEXT/UTF8
  350. Codec ID/Info                            : UTF-8 Plain Text
  351. Duration                                 : 1 h 34 min
  352. Bit rate                                 : 89 b/s
  353. Frame rate                               : 0.271 FPS
  354. Count of elements                        : 1538
  355. Stream size                              : 62.0 KiB (0%)
  356. Title                                    : Brazilian
  357. Language                                 : Portuguese (BR)
  358. Default                                  : No
  359. Forced                                   : No
  360. Text #25
  361. ID                                       : 27
  362. Format                                   : UTF-8
  363. Codec ID                                 : S_TEXT/UTF8
  364. Codec ID/Info                            : UTF-8 Plain Text
  365. Duration                                 : 1 h 34 min
  366. Bit rate                                 : 84 b/s
  367. Frame rate                               : 0.248 FPS
  368. Count of elements                        : 1411
  369. Stream size                              : 58.7 KiB (0%)
  370. Language                                 : Portuguese (PT)
  371. Default                                  : No
  372. Forced                                   : No
  373. Text #26
  374. ID                                       : 28
  375. Format                                   : UTF-8
  376. Codec ID                                 : S_TEXT/UTF8
  377. Codec ID/Info                            : UTF-8 Plain Text
  378. Duration                                 : 1 h 34 min
  379. Bit rate                                 : 98 b/s
  380. Frame rate                               : 0.268 FPS
  381. Count of elements                        : 1525
  382. Stream size                              : 68.2 KiB (0%)
  383. Language                                 : Romanian
  384. Default                                  : No
  385. Forced                                   : No
  386. Text #27
  387. ID                                       : 29
  388. Format                                   : UTF-8
  389. Codec ID                                 : S_TEXT/UTF8
  390. Codec ID/Info                            : UTF-8 Plain Text
  391. Duration                                 : 1 h 34 min
  392. Bit rate                                 : 147 b/s
  393. Frame rate                               : 0.273 FPS
  394. Count of elements                        : 1551
  395. Stream size                              : 102 KiB (0%)
  396. Language                                 : Russian
  397. Default                                  : No
  398. Forced                                   : No
  399. Text #28
  400. ID                                       : 30
  401. Format                                   : UTF-8
  402. Codec ID                                 : S_TEXT/UTF8
  403. Codec ID/Info                            : UTF-8 Plain Text
  404. Duration                                 : 1 h 34 min
  405. Bit rate                                 : 85 b/s
  406. Frame rate                               : 0.262 FPS
  407. Count of elements                        : 1490
  408. Stream size                              : 59.3 KiB (0%)
  409. Language                                 : Swedish
  410. Default                                  : No
  411. Forced                                   : No
  412. Text #29
  413. ID                                       : 31
  414. Format                                   : UTF-8
  415. Codec ID                                 : S_TEXT/UTF8
  416. Codec ID/Info                            : UTF-8 Plain Text
  417. Duration                                 : 1 h 34 min
  418. Bit rate                                 : 231 b/s
  419. Frame rate                               : 0.278 FPS
  420. Count of elements                        : 1581
  421. Stream size                              : 161 KiB (0%)
  422. Language                                 : Thai
  423. Default                                  : No
  424. Forced                                   : No
  425. Text #30
  426. ID                                       : 32
  427. Format                                   : UTF-8
  428. Codec ID                                 : S_TEXT/UTF8
  429. Codec ID/Info                            : UTF-8 Plain Text
  430. Duration                                 : 1 h 34 min
  431. Bit rate                                 : 87 b/s
  432. Frame rate                               : 0.271 FPS
  433. Count of elements                        : 1541
  434. Stream size                              : 60.9 KiB (0%)
  435. Language                                 : Turkish
  436. Default                                  : No
  437. Forced                                   : No
  438. Text #31
  439. ID                                       : 33
  440. Format                                   : UTF-8
  441. Codec ID                                 : S_TEXT/UTF8
  442. Codec ID/Info                            : UTF-8 Plain Text
  443. Duration                                 : 1 h 34 min
  444. Bit rate                                 : 139 b/s
  445. Frame rate                               : 0.279 FPS
  446. Count of elements                        : 1586
  447. Stream size                              : 96.6 KiB (0%)
  448. Language                                 : Ukrainian
  449. Default                                  : No
  450. Forced                                   : No
  451. Text #32
  452. ID                                       : 34
  453. Format                                   : UTF-8
  454. Codec ID                                 : S_TEXT/UTF8
  455. Codec ID/Info                            : UTF-8 Plain Text
  456. Duration                                 : 1 h 34 min
  457. Bit rate                                 : 123 b/s
  458. Frame rate                               : 0.275 FPS
  459. Count of elements                        : 1566
  460. Stream size                              : 85.8 KiB (0%)
  461. Language                                 : Vietnamese
  462. Default                                  : No
  463. Forced                                   : No
  464. Text #33
  465. ID                                       : 35
  466. Format                                   : UTF-8
  467. Codec ID                                 : S_TEXT/UTF8
  468. Codec ID/Info                            : UTF-8 Plain Text
  469. Duration                                 : 1 h 34 min
  470. Bit rate                                 : 90 b/s
  471. Frame rate                               : 0.278 FPS
  472. Count of elements                        : 1583
  473. Stream size                              : 62.9 KiB (0%)
  474. Title                                    : Simplified
  475. Language                                 : Chinese (Simplied)
  476. Default                                  : No
  477. Forced                                   : No
  478. Text #34
  479. ID                                       : 36
  480. Format                                   : UTF-8
  481. Codec ID                                 : S_TEXT/UTF8
  482. Codec ID/Info                            : UTF-8 Plain Text
  483. Duration                                 : 1 h 34 min
  484. Bit rate                                 : 87 b/s
  485. Frame rate                               : 0.282 FPS
  486. Count of elements                        : 1602
  487. Stream size                              : 60.9 KiB (0%)
  488. Title                                    : Traditional
  489. Language                                 : Chinese (Traditional)
  490. Default                                  : No
  491. Forced                                   : No
  492. Menu
  493. 01:34:02.000                             : en:End Credits
复制代码











回复

使用道具 举报

懒得打字嘛,点击右侧快捷回复 【右侧内容,后台自定义】
您需要登录后才可以回帖 登录 | 立即加入

本版积分规则

Copyright © 2024 Comsenz Inc. Powered by 蓝光电影网

本站内容由用户自主分享和转载自互联网,转载目的在于传递更多信息,并不代表本网赞同其观点和对其真实性负责。

如有侵权、违反国家法律政策行为,请联系我们,我们会第一时间及时清除和处理!

举报反馈邮箱:4k1080.com@gmail.com

快速回复 返回顶部 返回列表