找回密码

查看: 1128|回复: 0

[2160p-WEB] 施图茨的疗愈之道[中文字幕].Stutz.2022.2160p.NF.WEB-DL.DDP5.1.DV.MKV.x265-Slutz 12.75GB

[复制链接]
蓝光币
1840
发表于 2023-1-2 14:57:25 | 显示全部楼层 |阅读模式


◎标  题 施图茨的疗愈之道
◎译  名 菲尔·斯图茨 / 斯图茨 / 施图茨
◎片  名 Stutz
◎年  代 2022
◎产  地 美国
◎类  别 记载片
◎语  言 英语
◎上映日期 2022-11-14(美国收集)
◎IMDb评分 7.9/10 (9486人评价)
◎IMDb链接 https://www.imdb.com/title/tt21819228/
◎豆瓣评分 9.0/10 (571人评价)
◎豆瓣链接 https://movie.douban.com/subject/36075748/
◎片  长 96分钟
◎导  演 乔纳·希尔 Jonah Hill
◎演  员 乔纳·希尔 Jonah Hill
       菲尔·斯图茨 Phil Stutz
◎简  介
  在与演员乔纳·希尔的坦诚对话中,主治心理医生菲尔·施图茨探讨了自己的晚年履历和唯一无二的视觉治疗模子。
  1. Video
  2. ID                                       : 1
  3. Format                                   : HEVC
  4. Format/Info                              : High Efficiency Video Coding
  5. Format profile                           : Main 10@L5@Main
  6. HDR format                               : Dolby Vision, Version 1.0, dvhe.05.06, BL+RPU
  7. Codec ID                                 : V_MPEGH/ISO/HEVC
  8. Duration                                 : 1 h 36 min
  9. Bit rate                                 : 18.3 Mb/s
  10. Width                                    : 3 840 pixels
  11. Height                                   : 2 160 pixels
  12. Display aspect ratio                     : 16:9
  13. Frame rate mode                          : Constant
  14. Frame rate                               : 23.976 (24000/1001) FPS
  15. Color space                              : YUV
  16. Chroma subsampling                       : 4:2:0
  17. Bit depth                                : 10 bits
  18. Bits/(Pixel*Frame)                       : 0.092
  19. Stream size                              : 12.3 GiB (97%)
  20. Language                                 : English
  21. Default                                  : Yes
  22. Forced                                   : No
  23. Color range                              : Full
  24. Audio
  25. ID                                       : 2
  26. Format                                   : E-AC-3
  27. Format/Info                              : Enhanced AC-3
  28. Commercial name                          : Dolby Digital Plus
  29. Codec ID                                 : A_EAC3
  30. Duration                                 : 1 h 36 min
  31. Bit rate mode                            : Constant
  32. Bit rate                                 : 640 kb/s
  33. Channel(s)                               : 6 channels
  34. Channel layout                           : L R C LFE Ls Rs
  35. Sampling rate                            : 48.0 kHz
  36. Frame rate                               : 31.250 FPS (1536 SPF)
  37. Compression mode                         : Lossy
  38. Stream size                              : 441 MiB (3%)
  39. Language                                 : English
  40. Service kind                             : Complete Main
  41. Default                                  : Yes
  42. Forced                                   : No
  43. Text #1
  44. ID                                       : 3
  45. Format                                   : UTF-8
  46. Codec ID                                 : S_TEXT/UTF8
  47. Codec ID/Info                            : UTF-8 Plain Text
  48. Duration                                 : 1 h 32 min
  49. Bit rate                                 : 100 b/s
  50. Frame rate                               : 0.294 FPS
  51. Count of elements                        : 1636
  52. Stream size                              : 68.1 KiB (0%)
  53. Language                                 : English
  54. Default                                  : No
  55. Forced                                   : No
  56. Text #2
  57. ID                                       : 4
  58. Format                                   : UTF-8
  59. Codec ID                                 : S_TEXT/UTF8
  60. Codec ID/Info                            : UTF-8 Plain Text
  61. Duration                                 : 1 h 35 min
  62. Bit rate                                 : 103 b/s
  63. Frame rate                               : 0.302 FPS
  64. Count of elements                        : 1737
  65. Stream size                              : 72.3 KiB (0%)
  66. Title                                    : SDH
  67. Language                                 : English
  68. Default                                  : No
  69. Forced                                   : No
  70. Text #3
  71. ID                                       : 5
  72. Format                                   : UTF-8
  73. Codec ID                                 : S_TEXT/UTF8
  74. Codec ID/Info                            : UTF-8 Plain Text
  75. Duration                                 : 1 h 32 min
  76. Bit rate                                 : 164 b/s
  77. Frame rate                               : 0.281 FPS
  78. Count of elements                        : 1568
  79. Stream size                              : 112 KiB (0%)
  80. Language                                 : Arabic
  81. Default                                  : No
  82. Forced                                   : No
  83. Text #4
  84. ID                                       : 6
  85. Format                                   : UTF-8
  86. Codec ID                                 : S_TEXT/UTF8
  87. Codec ID/Info                            : UTF-8 Plain Text
  88. Duration                                 : 1 h 34 min
  89. Bit rate                                 : 87 b/s
  90. Frame rate                               : 0.273 FPS
  91. Count of elements                        : 1551
  92. Stream size                              : 60.5 KiB (0%)
  93. Language                                 : Czech
  94. Default                                  : No
  95. Forced                                   : No
  96. Text #5
  97. ID                                       : 7
  98. Format                                   : UTF-8
  99. Codec ID                                 : S_TEXT/UTF8
  100. Codec ID/Info                            : UTF-8 Plain Text
  101. Duration                                 : 1 h 34 min
  102. Bit rate                                 : 80 b/s
  103. Frame rate                               : 0.272 FPS
  104. Count of elements                        : 1549
  105. Stream size                              : 56.2 KiB (0%)
  106. Language                                 : Danish
  107. Default                                  : No
  108. Forced                                   : No
  109. Text #6
  110. ID                                       : 8
  111. Format                                   : UTF-8
  112. Codec ID                                 : S_TEXT/UTF8
  113. Codec ID/Info                            : UTF-8 Plain Text
  114. Duration                                 : 1 h 34 min
  115. Bit rate                                 : 91 b/s
  116. Frame rate                               : 0.271 FPS
  117. Count of elements                        : 1540
  118. Stream size                              : 63.9 KiB (0%)
  119. Language                                 : German
  120. Default                                  : No
  121. Forced                                   : No
  122. Text #7
  123. ID                                       : 9
  124. Format                                   : UTF-8
  125. Codec ID                                 : S_TEXT/UTF8
  126. Codec ID/Info                            : UTF-8 Plain Text
  127. Duration                                 : 1 h 34 min
  128. Bit rate                                 : 140 b/s
  129. Frame rate                               : 0.283 FPS
  130. Count of elements                        : 1610
  131. Stream size                              : 97.3 KiB (0%)
  132. Language                                 : Greek
  133. Default                                  : No
  134. Forced                                   : No
  135. Text #8
  136. ID                                       : 10
  137. Format                                   : UTF-8
  138. Codec ID                                 : S_TEXT/UTF8
  139. Codec ID/Info                            : UTF-8 Plain Text
  140. Duration                                 : 1 h 34 min
  141. Bit rate                                 : 82 b/s
  142. Frame rate                               : 0.271 FPS
  143. Count of elements                        : 1539
  144. Stream size                              : 57.4 KiB (0%)
  145. Title                                    : Latin American
  146. Language                                 : Spanish (Latin America)
  147. Default                                  : No
  148. Forced                                   : No
  149. Text #9
  150. ID                                       : 11
  151. Format                                   : UTF-8
  152. Codec ID                                 : S_TEXT/UTF8
  153. Codec ID/Info                            : UTF-8 Plain Text
  154. Duration                                 : 1 h 34 min
  155. Bit rate                                 : 80 b/s
  156. Frame rate                               : 0.268 FPS
  157. Count of elements                        : 1524
  158. Stream size                              : 56.0 KiB (0%)
  159. Language                                 : Spanish (ES)
  160. Default                                  : No
  161. Forced                                   : No
  162. Text #10
  163. ID                                       : 12
  164. Format                                   : UTF-8
  165. Codec ID                                 : S_TEXT/UTF8
  166. Codec ID/Info                            : UTF-8 Plain Text
  167. Duration                                 : 1 h 34 min
  168. Bit rate                                 : 84 b/s
  169. Frame rate                               : 0.227 FPS
  170. Count of elements                        : 1292
  171. Stream size                              : 58.4 KiB (0%)
  172. Language                                 : Finnish
  173. Default                                  : No
  174. Forced                                   : No
  175. Text #11
  176. ID                                       : 13
  177. Format                                   : UTF-8
  178. Codec ID                                 : S_TEXT/UTF8
  179. Codec ID/Info                            : UTF-8 Plain Text
  180. Duration                                 : 1 h 34 min
  181. Bit rate                                 : 93 b/s
  182. Frame rate                               : 0.283 FPS
  183. Count of elements                        : 1608
  184. Stream size                              : 64.9 KiB (0%)
  185. Language                                 : fil
  186. Default                                  : No
  187. Forced                                   : No
  188. Text #12
  189. ID                                       : 14
  190. Format                                   : UTF-8
  191. Codec ID                                 : S_TEXT/UTF8
  192. Codec ID/Info                            : UTF-8 Plain Text
  193. Duration                                 : 1 h 34 min
  194. Bit rate                                 : 91 b/s
  195. Frame rate                               : 0.276 FPS
  196. Count of elements                        : 1572
  197. Stream size                              : 63.6 KiB (0%)
  198. Language                                 : French
  199. Default                                  : No
  200. Forced                                   : No
  201. Text #13
  202. ID                                       : 15
  203. Format                                   : UTF-8
  204. Codec ID                                 : S_TEXT/UTF8
  205. Codec ID/Info                            : UTF-8 Plain Text
  206. Duration                                 : 1 h 34 min
  207. Bit rate                                 : 142 b/s
  208. Frame rate                               : 0.263 FPS
  209. Count of elements                        : 1496
  210. Stream size                              : 98.7 KiB (0%)
  211. Language                                 : Hebrew
  212. Default                                  : No
  213. Forced                                   : No
  214. Text #14
  215. ID                                       : 16
  216. Format                                   : UTF-8
  217. Codec ID                                 : S_TEXT/UTF8
  218. Codec ID/Info                            : UTF-8 Plain Text
  219. Duration                                 : 1 h 34 min
  220. Bit rate                                 : 79 b/s
  221. Frame rate                               : 0.265 FPS
  222. Count of elements                        : 1509
  223. Stream size                              : 54.9 KiB (0%)
  224. Language                                 : Croatian
  225. Default                                  : No
  226. Forced                                   : No
  227. Text #15
  228. ID                                       : 17
  229. Format                                   : UTF-8
  230. Codec ID                                 : S_TEXT/UTF8
  231. Codec ID/Info                            : UTF-8 Plain Text
  232. Duration                                 : 1 h 34 min
  233. Bit rate                                 : 95 b/s
  234. Frame rate                               : 0.276 FPS
  235. Count of elements                        : 1570
  236. Stream size                              : 66.4 KiB (0%)
  237. Language                                 : Hungarian
  238. Default                                  : No
  239. Forced                                   : No
  240. Text #16
  241. ID                                       : 18
  242. Format                                   : UTF-8
  243. Codec ID                                 : S_TEXT/UTF8
  244. Codec ID/Info                            : UTF-8 Plain Text
  245. Duration                                 : 1 h 34 min
  246. Bit rate                                 : 90 b/s
  247. Frame rate                               : 0.278 FPS
  248. Count of elements                        : 1583
  249. Stream size                              : 62.7 KiB (0%)
  250. Language                                 : Indonesian
  251. Default                                  : No
  252. Forced                                   : No
  253. Text #17
  254. ID                                       : 19
  255. Format                                   : UTF-8
  256. Codec ID                                 : S_TEXT/UTF8
  257. Codec ID/Info                            : UTF-8 Plain Text
  258. Duration                                 : 1 h 34 min
  259. Bit rate                                 : 84 b/s
  260. Frame rate                               : 0.289 FPS
  261. Count of elements                        : 1641
  262. Stream size                              : 59.0 KiB (0%)
  263. Language                                 : Italian
  264. Default                                  : No
  265. Forced                                   : No
  266. Text #18
  267. ID                                       : 20
  268. Format                                   : UTF-8
  269. Codec ID                                 : S_TEXT/UTF8
  270. Codec ID/Info                            : UTF-8 Plain Text
  271. Duration                                 : 1 h 34 min
  272. Bit rate                                 : 88 b/s
  273. Frame rate                               : 0.284 FPS
  274. Count of elements                        : 1617
  275. Stream size                              : 61.6 KiB (0%)
  276. Language                                 : Japanese
  277. Default                                  : No
  278. Forced                                   : No
  279. Text #19
  280. ID                                       : 21
  281. Format                                   : UTF-8
  282. Codec ID                                 : S_TEXT/UTF8
  283. Codec ID/Info                            : UTF-8 Plain Text
  284. Duration                                 : 1 h 34 min
  285. Bit rate                                 : 113 b/s
  286. Frame rate                               : 0.277 FPS
  287. Count of elements                        : 1577
  288. Stream size                              : 78.9 KiB (0%)
  289. Language                                 : Korean
  290. Default                                  : No
  291. Forced                                   : No
  292. Text #20
  293. ID                                       : 22
  294. Format                                   : UTF-8
  295. Codec ID                                 : S_TEXT/UTF8
  296. Codec ID/Info                            : UTF-8 Plain Text
  297. Duration                                 : 1 h 34 min
  298. Bit rate                                 : 83 b/s
  299. Frame rate                               : 0.273 FPS
  300. Count of elements                        : 1553
  301. Stream size                              : 58.2 KiB (0%)
  302. Language                                 : Malay
  303. Default                                  : No
  304. Forced                                   : No
  305. Text #21
  306. ID                                       : 23
  307. Format                                   : UTF-8
  308. Codec ID                                 : S_TEXT/UTF8
  309. Codec ID/Info                            : UTF-8 Plain Text
  310. Duration                                 : 1 h 34 min
  311. Bit rate                                 : 86 b/s
  312. Frame rate                               : 0.265 FPS
  313. Count of elements                        : 1510
  314. Stream size                              : 60.4 KiB (0%)
  315. Language                                 : Norwegian Bokmal
  316. Default                                  : No
  317. Forced                                   : No
  318. Text #22
  319. ID                                       : 24
  320. Format                                   : UTF-8
  321. Codec ID                                 : S_TEXT/UTF8
  322. Codec ID/Info                            : UTF-8 Plain Text
  323. Duration                                 : 1 h 34 min
  324. Bit rate                                 : 88 b/s
  325. Frame rate                               : 0.246 FPS
  326. Count of elements                        : 1401
  327. Stream size                              : 61.6 KiB (0%)
  328. Language                                 : Dutch
  329. Default                                  : No
  330. Forced                                   : No
  331. Text #23
  332. ID                                       : 25
  333. Format                                   : UTF-8
  334. Codec ID                                 : S_TEXT/UTF8
  335. Codec ID/Info                            : UTF-8 Plain Text
  336. Duration                                 : 1 h 34 min
  337. Bit rate                                 : 79 b/s
  338. Frame rate                               : 0.272 FPS
  339. Count of elements                        : 1545
  340. Stream size                              : 55.2 KiB (0%)
  341. Language                                 : Polish
  342. Default                                  : No
  343. Forced                                   : No
  344. Text #24
  345. ID                                       : 26
  346. Format                                   : UTF-8
  347. Codec ID                                 : S_TEXT/UTF8
  348. Codec ID/Info                            : UTF-8 Plain Text
  349. Duration                                 : 1 h 34 min
  350. Bit rate                                 : 89 b/s
  351. Frame rate                               : 0.271 FPS
  352. Count of elements                        : 1538
  353. Stream size                              : 62.0 KiB (0%)
  354. Title                                    : Brazilian
  355. Language                                 : Portuguese (BR)
  356. Default                                  : No
  357. Forced                                   : No
  358. Text #25
  359. ID                                       : 27
  360. Format                                   : UTF-8
  361. Codec ID                                 : S_TEXT/UTF8
  362. Codec ID/Info                            : UTF-8 Plain Text
  363. Duration                                 : 1 h 34 min
  364. Bit rate                                 : 84 b/s
  365. Frame rate                               : 0.248 FPS
  366. Count of elements                        : 1411
  367. Stream size                              : 58.7 KiB (0%)
  368. Language                                 : Portuguese (PT)
  369. Default                                  : No
  370. Forced                                   : No
  371. Text #26
  372. ID                                       : 28
  373. Format                                   : UTF-8
  374. Codec ID                                 : S_TEXT/UTF8
  375. Codec ID/Info                            : UTF-8 Plain Text
  376. Duration                                 : 1 h 34 min
  377. Bit rate                                 : 98 b/s
  378. Frame rate                               : 0.268 FPS
  379. Count of elements                        : 1525
  380. Stream size                              : 68.2 KiB (0%)
  381. Language                                 : Romanian
  382. Default                                  : No
  383. Forced                                   : No
  384. Text #27
  385. ID                                       : 29
  386. Format                                   : UTF-8
  387. Codec ID                                 : S_TEXT/UTF8
  388. Codec ID/Info                            : UTF-8 Plain Text
  389. Duration                                 : 1 h 34 min
  390. Bit rate                                 : 147 b/s
  391. Frame rate                               : 0.273 FPS
  392. Count of elements                        : 1551
  393. Stream size                              : 102 KiB (0%)
  394. Language                                 : Russian
  395. Default                                  : No
  396. Forced                                   : No
  397. Text #28
  398. ID                                       : 30
  399. Format                                   : UTF-8
  400. Codec ID                                 : S_TEXT/UTF8
  401. Codec ID/Info                            : UTF-8 Plain Text
  402. Duration                                 : 1 h 34 min
  403. Bit rate                                 : 85 b/s
  404. Frame rate                               : 0.262 FPS
  405. Count of elements                        : 1490
  406. Stream size                              : 59.3 KiB (0%)
  407. Language                                 : Swedish
  408. Default                                  : No
  409. Forced                                   : No
  410. Text #29
  411. ID                                       : 31
  412. Format                                   : UTF-8
  413. Codec ID                                 : S_TEXT/UTF8
  414. Codec ID/Info                            : UTF-8 Plain Text
  415. Duration                                 : 1 h 34 min
  416. Bit rate                                 : 231 b/s
  417. Frame rate                               : 0.278 FPS
  418. Count of elements                        : 1581
  419. Stream size                              : 161 KiB (0%)
  420. Language                                 : Thai
  421. Default                                  : No
  422. Forced                                   : No
  423. Text #30
  424. ID                                       : 32
  425. Format                                   : UTF-8
  426. Codec ID                                 : S_TEXT/UTF8
  427. Codec ID/Info                            : UTF-8 Plain Text
  428. Duration                                 : 1 h 34 min
  429. Bit rate                                 : 87 b/s
  430. Frame rate                               : 0.271 FPS
  431. Count of elements                        : 1541
  432. Stream size                              : 60.9 KiB (0%)
  433. Language                                 : Turkish
  434. Default                                  : No
  435. Forced                                   : No
  436. Text #31
  437. ID                                       : 33
  438. Format                                   : UTF-8
  439. Codec ID                                 : S_TEXT/UTF8
  440. Codec ID/Info                            : UTF-8 Plain Text
  441. Duration                                 : 1 h 34 min
  442. Bit rate                                 : 139 b/s
  443. Frame rate                               : 0.279 FPS
  444. Count of elements                        : 1586
  445. Stream size                              : 96.6 KiB (0%)
  446. Language                                 : Ukrainian
  447. Default                                  : No
  448. Forced                                   : No
  449. Text #32
  450. ID                                       : 34
  451. Format                                   : UTF-8
  452. Codec ID                                 : S_TEXT/UTF8
  453. Codec ID/Info                            : UTF-8 Plain Text
  454. Duration                                 : 1 h 34 min
  455. Bit rate                                 : 123 b/s
  456. Frame rate                               : 0.275 FPS
  457. Count of elements                        : 1566
  458. Stream size                              : 85.8 KiB (0%)
  459. Language                                 : Vietnamese
  460. Default                                  : No
  461. Forced                                   : No
  462. Text #33
  463. ID                                       : 35
  464. Format                                   : UTF-8
  465. Codec ID                                 : S_TEXT/UTF8
  466. Codec ID/Info                            : UTF-8 Plain Text
  467. Duration                                 : 1 h 34 min
  468. Bit rate                                 : 90 b/s
  469. Frame rate                               : 0.278 FPS
  470. Count of elements                        : 1583
  471. Stream size                              : 62.9 KiB (0%)
  472. Title                                    : Simplified
  473. Language                                 : Chinese (Simplied)
  474. Default                                  : No
  475. Forced                                   : No
  476. Text #34
  477. ID                                       : 36
  478. Format                                   : UTF-8
  479. Codec ID                                 : S_TEXT/UTF8
  480. Codec ID/Info                            : UTF-8 Plain Text
  481. Duration                                 : 1 h 34 min
  482. Bit rate                                 : 87 b/s
  483. Frame rate                               : 0.282 FPS
  484. Count of elements                        : 1602
  485. Stream size                              : 60.9 KiB (0%)
  486. Title                                    : Traditional
  487. Language                                 : Chinese (Traditional)
  488. Default                                  : No
  489. Forced                                   : No
  490. Menu
  491. 01:34:02.000                             : en:End Credits
复制代码











回复

使用道具 举报

懒得打字嘛,点击右侧快捷回复 【右侧内容,后台自定义】
您需要登录后才可以回帖 登录 | 立即加入

本版积分规则

Copyright © 2024 Comsenz Inc. Powered by 蓝光电影网

本站内容由用户自主分享和转载自互联网,转载目的在于传递更多信息,并不代表本网赞同其观点和对其真实性负责。

如有侵权、违反国家法律政策行为,请联系我们,我们会第一时间及时清除和处理!

举报反馈邮箱:4k1080.com@gmail.com

快速回复 返回顶部 返回列表