找回密码

查看: 1127|回复: 0

[2160p-WEB] 思维笼[中文字幕].Mindcage.2022.2160p.WEB-DL.x265.10bit.HDR10Plus.DD5.1-KBOX 10.05GB

[复制链接]
蓝光币
1840
发表于 2023-1-2 14:57:27 | 显示全部楼层 |阅读模式


◎标  题 思维笼
◎片  名 Mindcage
◎年  代 2022
◎产  地 美国
◎类  别 惊悚
◎语  言 英语
◎上映日期 2022-12-16(美国)
◎IMDb评分 4.5/10 (1401人评价)
◎IMDb链接 https://www.imdb.com/title/tt14147224/
◎豆瓣评分 4.8/10 (231人评价)
◎豆瓣链接 https://movie.douban.com/subject/36066054/
◎片  长 96分钟
◎导  演 Mauro Borrelli Mauro Borrelli
◎编  剧 Arthur Reggie III Arthur Reggie III
◎演  员 约翰·马尔科维奇 John Malkovich
       马丁·劳伦斯 Martin Lawrence
       雅各布·格罗德尼克 Jacob Grodnik
       梅丽莎·罗斯伯格 Melissa Roxburgh
       艾登·特纳 Aiden Turner
       克里斯‧穆利纳克斯 Chris Mullinax
       里奇·蒙哥马利 Ritchie Montgomery
       Jeremy Turner Jeremy Turner
       卡桑德拉·加瓦 Cassandra Gava
◎简  介
  When a copycat strikes, two detectives ask a top serial killer for help.
  1. Video
  2. ID                                       : 1
  3. Format                                   : HEVC
  4. Format/Info                              : High Efficiency Video Coding
  5. Format profile                           : Main 10@L5@High
  6. HDR format                               : SMPTE ST 2094 App 4, Version 1, HDR10+ Profile B compatible
  7. Codec ID                                 : V_MPEGH/ISO/HEVC
  8. Duration                                 : 1 h 36 min
  9. Bit rate                                 : 14.5 Mb/s
  10. Width                                    : 3 824 pixels
  11. Height                                   : 1 592 pixels
  12. Display aspect ratio                     : 2.40:1
  13. Frame rate mode                          : Constant
  14. Frame rate                               : 23.976 (24000/1001) FPS
  15. Color space                              : YUV
  16. Chroma subsampling                       : 4:2:0 (Type 2)
  17. Bit depth                                : 10 bits
  18. Bits/(Pixel*Frame)                       : 0.099
  19. Stream size                              : 9.79 GiB (97%)
  20. Default                                  : Yes
  21. Forced                                   : No
  22. Color range                              : Limited
  23. Color primaries                          : BT.2020
  24. Transfer characteristics                 : PQ
  25. Matrix coefficients                      : BT.2020 non-constant
  26. Mastering display color primaries        : Display P3
  27. Mastering display luminance              : min: 0.0001 cd/m2, max: 1000 cd/m2
  28. Maximum Content Light Level              : 997 cd/m2
  29. Maximum Frame-Average Light Level        : 340 cd/m2
  30. Audio
  31. ID                                       : 2
  32. Format                                   : AC-3
  33. Format/Info                              : Audio Coding 3
  34. Commercial name                          : Dolby Digital
  35. Codec ID                                 : A_AC3
  36. Duration                                 : 1 h 36 min
  37. Bit rate mode                            : Constant
  38. Bit rate                                 : 384 kb/s
  39. Channel(s)                               : 6 channels
  40. Channel layout                           : L R C LFE Ls Rs
  41. Sampling rate                            : 48.0 kHz
  42. Frame rate                               : 31.250 FPS (1536 SPF)
  43. Compression mode                         : Lossy
  44. Stream size                              : 265 MiB (3%)
  45. Language                                 : English
  46. Service kind                             : Complete Main
  47. Default                                  : Yes
  48. Forced                                   : No
  49. Text #1
  50. ID                                       : 3
  51. Format                                   : UTF-8
  52. Codec ID                                 : S_TEXT/UTF8
  53. Codec ID/Info                            : UTF-8 Plain Text
  54. Duration                                 : 1 h 34 min
  55. Bit rate                                 : 52 b/s
  56. Frame rate                               : 0.186 FPS
  57. Count of elements                        : 1058
  58. Stream size                              : 36.1 KiB (0%)
  59. Title                                    : English CC
  60. Language                                 : English
  61. Default                                  : No
  62. Forced                                   : No
  63. Text #2
  64. ID                                       : 4
  65. Format                                   : UTF-8
  66. Codec ID                                 : S_TEXT/UTF8
  67. Codec ID/Info                            : UTF-8 Plain Text
  68. Duration                                 : 1 h 30 min
  69. Bit rate                                 : 43 b/s
  70. Frame rate                               : 0.166 FPS
  71. Count of elements                        : 896
  72. Stream size                              : 28.8 KiB (0%)
  73. Title                                    : Chinese Mandarin Simplified
  74. Language                                 : Mandarin (Hans)
  75. Default                                  : No
  76. Forced                                   : No
  77. Text #3
  78. ID                                       : 5
  79. Format                                   : UTF-8
  80. Codec ID                                 : S_TEXT/UTF8
  81. Codec ID/Info                            : UTF-8 Plain Text
  82. Duration                                 : 1 h 29 min
  83. Bit rate                                 : 49 b/s
  84. Frame rate                               : 0.165 FPS
  85. Count of elements                        : 889
  86. Stream size                              : 32.4 KiB (0%)
  87. Title                                    : Danish
  88. Language                                 : Danish
  89. Default                                  : No
  90. Forced                                   : No
  91. Text #4
  92. ID                                       : 6
  93. Format                                   : UTF-8
  94. Codec ID                                 : S_TEXT/UTF8
  95. Codec ID/Info                            : UTF-8 Plain Text
  96. Duration                                 : 1 h 29 min
  97. Bit rate                                 : 48 b/s
  98. Frame rate                               : 0.165 FPS
  99. Count of elements                        : 886
  100. Stream size                              : 31.8 KiB (0%)
  101. Title                                    : Finnish
  102. Language                                 : Finnish
  103. Default                                  : No
  104. Forced                                   : No
  105. Text #5
  106. ID                                       : 7
  107. Format                                   : UTF-8
  108. Codec ID                                 : S_TEXT/UTF8
  109. Codec ID/Info                            : UTF-8 Plain Text
  110. Duration                                 : 1 h 33 min
  111. Bit rate                                 : 45 b/s
  112. Frame rate                               : 0.173 FPS
  113. Count of elements                        : 970
  114. Stream size                              : 31.2 KiB (0%)
  115. Title                                    : French European
  116. Language                                 : French (FR)
  117. Default                                  : No
  118. Forced                                   : No
  119. Text #6
  120. ID                                       : 8
  121. Format                                   : UTF-8
  122. Codec ID                                 : S_TEXT/UTF8
  123. Codec ID/Info                            : UTF-8 Plain Text
  124. Duration                                 : 1 h 30 min
  125. Bit rate                                 : 42 b/s
  126. Frame rate                               : 0.169 FPS
  127. Count of elements                        : 913
  128. Stream size                              : 28.3 KiB (0%)
  129. Title                                    : Japanese
  130. Language                                 : Japanese
  131. Default                                  : No
  132. Forced                                   : No
  133. Text #7
  134. ID                                       : 9
  135. Format                                   : UTF-8
  136. Codec ID                                 : S_TEXT/UTF8
  137. Codec ID/Info                            : UTF-8 Plain Text
  138. Duration                                 : 1 h 30 min
  139. Bit rate                                 : 50 b/s
  140. Frame rate                               : 0.166 FPS
  141. Count of elements                        : 896
  142. Stream size                              : 33.5 KiB (0%)
  143. Title                                    : Korean
  144. Language                                 : Korean
  145. Default                                  : No
  146. Forced                                   : No
  147. Text #8
  148. ID                                       : 10
  149. Format                                   : UTF-8
  150. Codec ID                                 : S_TEXT/UTF8
  151. Codec ID/Info                            : UTF-8 Plain Text
  152. Duration                                 : 1 h 30 min
  153. Bit rate                                 : 48 b/s
  154. Frame rate                               : 0.164 FPS
  155. Count of elements                        : 888
  156. Stream size                              : 32.1 KiB (0%)
  157. Title                                    : Norwegian
  158. Language                                 : Norwegian
  159. Default                                  : No
  160. Forced                                   : No
  161. Text #9
  162. ID                                       : 11
  163. Format                                   : UTF-8
  164. Codec ID                                 : S_TEXT/UTF8
  165. Codec ID/Info                            : UTF-8 Plain Text
  166. Duration                                 : 1 h 29 min
  167. Bit rate                                 : 50 b/s
  168. Frame rate                               : 0.165 FPS
  169. Count of elements                        : 888
  170. Stream size                              : 32.8 KiB (0%)
  171. Title                                    : Swedish
  172. Language                                 : Swedish
  173. Default                                  : No
  174. Forced                                   : No
  175. Text #10
  176. ID                                       : 12
  177. Format                                   : UTF-8
  178. Codec ID                                 : S_TEXT/UTF8
  179. Codec ID/Info                            : UTF-8 Plain Text
  180. Duration                                 : 1 h 30 min
  181. Bit rate                                 : 123 b/s
  182. Frame rate                               : 0.166 FPS
  183. Count of elements                        : 896
  184. Stream size                              : 81.6 KiB (0%)
  185. Title                                    : Thai
  186. Language                                 : Thai
  187. Default                                  : No
  188. Forced                                   : No
  189. Text #11
  190. ID                                       : 13
  191. Format                                   : UTF-8
  192. Codec ID                                 : S_TEXT/UTF8
  193. Codec ID/Info                            : UTF-8 Plain Text
  194. Duration                                 : 1 h 30 min
  195. Bit rate                                 : 66 b/s
  196. Frame rate                               : 0.165 FPS
  197. Count of elements                        : 891
  198. Stream size                              : 43.7 KiB (0%)
  199. Title                                    : Vietnamese
  200. Language                                 : Vietnamese
  201. Default                                  : No
  202. Forced                                   : No
  203. Menu
  204. 00:00:00.000                             : en:Chapter 01
  205. 00:05:08.933                             : en:Chapter 02
  206. 00:18:18.765                             : en:Chapter 03
  207. 00:32:00.795                             : en:Chapter 04
  208. 00:44:24.497                             : en:Chapter 05
  209. 00:59:46.252                             : en:Chapter 06
  210. 01:15:22.230                             : en:Chapter 07
  211. 01:25:07.982                             : en:Chapter 08
  212. 01:33:32.821                             : en:Chapter 09
复制代码











回复

使用道具 举报

懒得打字嘛,点击右侧快捷回复 【右侧内容,后台自定义】
您需要登录后才可以回帖 登录 | 立即加入

本版积分规则

Copyright © 2024 Comsenz Inc. Powered by 蓝光电影网

本站内容由用户自主分享和转载自互联网,转载目的在于传递更多信息,并不代表本网赞同其观点和对其真实性负责。

如有侵权、违反国家法律政策行为,请联系我们,我们会第一时间及时清除和处理!

举报反馈邮箱:4k1080.com@gmail.com

快速回复 返回顶部 返回列表