找回密码

查看: 1748|回复: 3

[2160p-WEB] 西线无战事[中文字幕].All.Quiet.on.the.Western.Front.2022.GERMAN.2160p.NF.WEB-DL.DDP5.1.Atmos.DV.MKV.x265-DONUTS 14.00GB

[复制链接]
蓝光币
1848
发表于 2023-1-2 14:57:27 | 显示全部楼层 |阅读模式


◎标  题 西线无战事
◎译  名 新西线无战事 / All Quiet on the Western Front
◎片  名 Im Westen nichts Neues
◎年  代 2022
◎产  地 德国 / 美国 / 英国
◎类  别 剧情 / 行动 / 战争
◎语  言 德语 / 法语 / 英语
◎上映日期 2022-09-12(多伦多电影节) / 2022-09-29(德国) / 2022-10-28(德国收集)
◎IMDb评分 7.8/10 (93674人评价)
◎IMDb链接 https://www.imdb.com/title/tt1016150/
◎豆瓣评分 8.5/10 (91968人评价)
◎豆瓣链接 https://movie.douban.com/subject/3042261/
◎片  长 148分钟
◎导  演 爱德华·贝尔格 Edward Berger
◎编  剧 爱德华·贝尔格 Edward Berger
       莱斯莉·帕特森 Lesley Paterson
       伊恩·斯托克尔 Ian Stokell
       埃里希·玛利亚·雷马克 Erich Maria Remarque
◎演  员 费利克斯·卡默雷尔 Felix Kammerer
       阿尔布雷希特·舒赫 Albrecht Schuch
       亚伦·希尔默 Aaron Hilmer
       丹尼尔·布鲁赫 Daniel Brühl
       塞巴斯蒂安·胡克 Sebastian Hülk
       莫里茨·克劳斯 Moritz Klaus
       阿德里安·格鲁内瓦尔德 Adrian Grünewald
       埃丁·哈萨诺维奇 Edin Hasanović
       蒂博·德·蒙塔朗贝尔 Thibault de Montalembert
       大卫·史崔梭德 Devid Striesow
        Andreas Döhler
       吕克·费特 Luc Feit
       米夏埃尔·维滕博恩 Michael Wittenborn
       迈克尔·斯坦格 Michael Stange
       萨沙·纳丹 Sascha Nathan
       Tobias Langhoff Tobias Langhoff
       安东·范·卢克 Anton von Lucke
       乔·温特劳布 Joe Weintraub
       查尔斯·莫赫伦 Charles Morillon
       西里尔·多布雷 Cyril Dobrý
        Sebastian Jacques
       菲利克斯·冯·布雷多 Felix von Bredow
       雅各布·迪尔 Jakob Diehl
        Anthony Paliotti
        Hendrik Heutmann
       马古斯·汤姆齐克 Markus Tomczyk
        Wolf Danny Homann
        Peter Sikorski
       托马斯·齐林斯基 Thomas Zielinski
       安德烈·马尔孔 André Marcon
        Dominikus Weileder
       伊恩·斯托克尔 Ian Stokell
       莱斯莉·帕特森 Lesley Paterson
       沃尔克·贝特尔曼 Volker Bertelmann
       詹姆斯·弗伦德 James Friend
       利西·克里斯特尔 Lisy Christl
◎简  介
  该片改编自埃里希·玛利亚·雷马克撰写的同名典范小说,报告在第一次天下大战时代,保罗·鲍曼和同学莱尔、米勒加入了德国百姓自愿兵,被派往火线与法军作战。在疆场上,他们目击到了残暴的饥饿、血腥和灭亡,战争的荒诞无情让保罗从迷恋战争到意气消沉。
  1. Video
  2. ID                                       : 1
  3. Format                                   : HEVC
  4. Format/Info                              : High Efficiency Video Coding
  5. Format profile                           : Main 10@L5@Main
  6. HDR format                               : Dolby Vision, Version 1.0, dvhe.05.06, BL+RPU
  7. Codec ID                                 : V_MPEGH/ISO/HEVC
  8. Duration                                 : 2 h 28 min
  9. Bit rate                                 : 12.7 Mb/s
  10. Width                                    : 3 840 pixels
  11. Height                                   : 2 160 pixels
  12. Display aspect ratio                     : 16:9
  13. Frame rate mode                          : Constant
  14. Frame rate                               : 24.000 FPS
  15. Color space                              : YUV
  16. Chroma subsampling                       : 4:2:0
  17. Bit depth                                : 10 bits
  18. Bits/(Pixel*Frame)                       : 0.064
  19. Stream size                              : 13.2 GiB (94%)
  20. Default                                  : Yes
  21. Forced                                   : No
  22. Color range                              : Full
  23. Audio
  24. ID                                       : 2
  25. Format                                   : E-AC-3 JOC
  26. Format/Info                              : Enhanced AC-3 with Joint Object Coding
  27. Commercial name                          : Dolby Digital Plus with Dolby Atmos
  28. Codec ID                                 : A_EAC3
  29. Duration                                 : 2 h 28 min
  30. Bit rate mode                            : Constant
  31. Bit rate                                 : 768 kb/s
  32. Channel(s)                               : 6 channels
  33. Channel layout                           : L R C LFE Ls Rs
  34. Sampling rate                            : 48.0 kHz
  35. Frame rate                               : 31.250 FPS (1536 SPF)
  36. Compression mode                         : Lossy
  37. Stream size                              : 817 MiB (6%)
  38. Language                                 : German
  39. Service kind                             : Complete Main
  40. Default                                  : Yes
  41. Forced                                   : No
  42. Complexity index                         : 16
  43. Number of dynamic objects                : 15
  44. Bed channel count                        : 1 channel
  45. Bed channel configuration                : LFE
  46. Text #1
  47. ID                                       : 3
  48. Format                                   : UTF-8
  49. Codec ID                                 : S_TEXT/UTF8
  50. Codec ID/Info                            : UTF-8 Plain Text
  51. Duration                                 : 2 h 23 min
  52. Bit rate                                 : 25 b/s
  53. Frame rate                               : 0.122 FPS
  54. Count of elements                        : 1049
  55. Stream size                              : 27.3 KiB (0%)
  56. Title                                    : English
  57. Language                                 : English
  58. Default                                  : Yes
  59. Forced                                   : Yes
  60. Text #2
  61. ID                                       : 4
  62. Format                                   : UTF-8
  63. Codec ID                                 : S_TEXT/UTF8
  64. Codec ID/Info                            : UTF-8 Plain Text
  65. Duration                                 : 2 h 26 min
  66. Bit rate                                 : 44 b/s
  67. Frame rate                               : 0.119 FPS
  68. Count of elements                        : 1047
  69. Stream size                              : 47.4 KiB (0%)
  70. Title                                    : Arabic
  71. Language                                 : Arabic
  72. Default                                  : No
  73. Forced                                   : No
  74. Text #3
  75. ID                                       : 5
  76. Format                                   : UTF-8
  77. Codec ID                                 : S_TEXT/UTF8
  78. Codec ID/Info                            : UTF-8 Plain Text
  79. Duration                                 : 2 h 26 min
  80. Bit rate                                 : 25 b/s
  81. Frame rate                               : 0.119 FPS
  82. Count of elements                        : 1050
  83. Stream size                              : 27.5 KiB (0%)
  84. Title                                    : Basque
  85. Language                                 : Basque
  86. Default                                  : No
  87. Forced                                   : No
  88. Text #4
  89. ID                                       : 6
  90. Format                                   : UTF-8
  91. Codec ID                                 : S_TEXT/UTF8
  92. Codec ID/Info                            : UTF-8 Plain Text
  93. Duration                                 : 2 h 26 min
  94. Bit rate                                 : 22 b/s
  95. Frame rate                               : 0.119 FPS
  96. Count of elements                        : 1048
  97. Stream size                              : 24.7 KiB (0%)
  98. Title                                    : Catalan
  99. Language                                 : Catalan
  100. Default                                  : No
  101. Forced                                   : No
  102. Text #5
  103. ID                                       : 7
  104. Format                                   : UTF-8
  105. Codec ID                                 : S_TEXT/UTF8
  106. Codec ID/Info                            : UTF-8 Plain Text
  107. Duration                                 : 2 h 26 min
  108. Bit rate                                 : 26 b/s
  109. Frame rate                               : 0.132 FPS
  110. Count of elements                        : 1158
  111. Stream size                              : 28.6 KiB (0%)
  112. Title                                    : Chinese Simplified
  113. Language                                 : Chinese
  114. Default                                  : No
  115. Forced                                   : No
  116. Text #6
  117. ID                                       : 8
  118. Format                                   : UTF-8
  119. Codec ID                                 : S_TEXT/UTF8
  120. Codec ID/Info                            : UTF-8 Plain Text
  121. Duration                                 : 2 h 23 min
  122. Bit rate                                 : 26 b/s
  123. Frame rate                               : 0.123 FPS
  124. Count of elements                        : 1061
  125. Stream size                              : 27.8 KiB (0%)
  126. Title                                    : Chinese Traditional
  127. Language                                 : Chinese
  128. Default                                  : No
  129. Forced                                   : No
  130. Text #7
  131. ID                                       : 9
  132. Format                                   : UTF-8
  133. Codec ID                                 : S_TEXT/UTF8
  134. Codec ID/Info                            : UTF-8 Plain Text
  135. Duration                                 : 2 h 23 min
  136. Bit rate                                 : 22 b/s
  137. Frame rate                               : 0.119 FPS
  138. Count of elements                        : 1030
  139. Stream size                              : 23.6 KiB (0%)
  140. Title                                    : Croatian
  141. Language                                 : Croatian
  142. Default                                  : No
  143. Forced                                   : No
  144. Text #8
  145. ID                                       : 10
  146. Format                                   : UTF-8
  147. Codec ID                                 : S_TEXT/UTF8
  148. Codec ID/Info                            : UTF-8 Plain Text
  149. Duration                                 : 2 h 23 min
  150. Bit rate                                 : 23 b/s
  151. Frame rate                               : 0.119 FPS
  152. Count of elements                        : 1027
  153. Stream size                              : 25.2 KiB (0%)
  154. Title                                    : Czech
  155. Language                                 : Czech
  156. Default                                  : No
  157. Forced                                   : No
  158. Text #9
  159. ID                                       : 11
  160. Format                                   : UTF-8
  161. Codec ID                                 : S_TEXT/UTF8
  162. Codec ID/Info                            : UTF-8 Plain Text
  163. Duration                                 : 2 h 19 min
  164. Bit rate                                 : 39 b/s
  165. Frame rate                               : 0.161 FPS
  166. Count of elements                        : 1347
  167. Stream size                              : 40.2 KiB (0%)
  168. Title                                    : Czech [SDH]
  169. Language                                 : Czech
  170. Default                                  : No
  171. Forced                                   : No
  172. Text #10
  173. ID                                       : 12
  174. Format                                   : UTF-8
  175. Codec ID                                 : S_TEXT/UTF8
  176. Codec ID/Info                            : UTF-8 Plain Text
  177. Duration                                 : 2 h 23 min
  178. Bit rate                                 : 23 b/s
  179. Frame rate                               : 0.116 FPS
  180. Count of elements                        : 1004
  181. Stream size                              : 25.0 KiB (0%)
  182. Title                                    : Danish
  183. Language                                 : Danish
  184. Default                                  : No
  185. Forced                                   : No
  186. Text #11
  187. ID                                       : 13
  188. Format                                   : UTF-8
  189. Codec ID                                 : S_TEXT/UTF8
  190. Codec ID/Info                            : UTF-8 Plain Text
  191. Duration                                 : 2 h 23 min
  192. Bit rate                                 : 22 b/s
  193. Frame rate                               : 0.110 FPS
  194. Count of elements                        : 952
  195. Stream size                              : 24.2 KiB (0%)
  196. Title                                    : Dutch
  197. Language                                 : Dutch
  198. Default                                  : No
  199. Forced                                   : No
  200. Text #12
  201. ID                                       : 14
  202. Format                                   : UTF-8
  203. Codec ID                                 : S_TEXT/UTF8
  204. Codec ID/Info                            : UTF-8 Plain Text
  205. Duration                                 : 2 h 21 min
  206. Bit rate                                 : 38 b/s
  207. Frame rate                               : 0.172 FPS
  208. Count of elements                        : 1461
  209. Stream size                              : 40.1 KiB (0%)
  210. Title                                    : English [SDH]
  211. Language                                 : English
  212. Default                                  : No
  213. Forced                                   : No
  214. Text #13
  215. ID                                       : 15
  216. Format                                   : UTF-8
  217. Codec ID                                 : S_TEXT/UTF8
  218. Codec ID/Info                            : UTF-8 Plain Text
  219. Duration                                 : 2 h 23 min
  220. Bit rate                                 : 25 b/s
  221. Frame rate                               : 0.120 FPS
  222. Count of elements                        : 1039
  223. Stream size                              : 27.4 KiB (0%)
  224. Title                                    : European Spanish
  225. Language                                 : Spanish
  226. Default                                  : No
  227. Forced                                   : No
  228. Text #14
  229. ID                                       : 16
  230. Format                                   : UTF-8
  231. Codec ID                                 : S_TEXT/UTF8
  232. Codec ID/Info                            : UTF-8 Plain Text
  233. Duration                                 : 2 h 26 min
  234. Bit rate                                 : 26 b/s
  235. Frame rate                               : 0.120 FPS
  236. Count of elements                        : 1053
  237. Stream size                              : 28.3 KiB (0%)
  238. Title                                    : Filipino
  239. Language                                 : fil
  240. Default                                  : No
  241. Forced                                   : No
  242. Text #15
  243. ID                                       : 17
  244. Format                                   : UTF-8
  245. Codec ID                                 : S_TEXT/UTF8
  246. Codec ID/Info                            : UTF-8 Plain Text
  247. Duration                                 : 2 h 23 min
  248. Bit rate                                 : 22 b/s
  249. Frame rate                               : 0.101 FPS
  250. Count of elements                        : 872
  251. Stream size                              : 23.6 KiB (0%)
  252. Title                                    : Finnish
  253. Language                                 : Finnish
  254. Default                                  : No
  255. Forced                                   : No
  256. Text #16
  257. ID                                       : 18
  258. Format                                   : UTF-8
  259. Codec ID                                 : S_TEXT/UTF8
  260. Codec ID/Info                            : UTF-8 Plain Text
  261. Duration                                 : 2 h 23 min
  262. Bit rate                                 : 24 b/s
  263. Frame rate                               : 0.113 FPS
  264. Count of elements                        : 975
  265. Stream size                              : 25.6 KiB (0%)
  266. Title                                    : French
  267. Language                                 : French
  268. Default                                  : No
  269. Forced                                   : No
  270. Text #17
  271. ID                                       : 19
  272. Format                                   : UTF-8
  273. Codec ID                                 : S_TEXT/UTF8
  274. Codec ID/Info                            : UTF-8 Plain Text
  275. Duration                                 : 2 h 26 min
  276. Bit rate                                 : 23 b/s
  277. Frame rate                               : 0.119 FPS
  278. Count of elements                        : 1047
  279. Stream size                              : 25.1 KiB (0%)
  280. Title                                    : Galician
  281. Language                                 : Galician
  282. Default                                  : No
  283. Forced                                   : No
  284. Text #18
  285. ID                                       : 20
  286. Format                                   : UTF-8
  287. Codec ID                                 : S_TEXT/UTF8
  288. Codec ID/Info                            : UTF-8 Plain Text
  289. Duration                                 : 1 h 50 min
  290. Bit rate                                 : 1 b/s
  291. Frame rate                               : 0.008 FPS
  292. Count of elements                        : 54
  293. Stream size                              : 1.14 KiB (0%)
  294. Title                                    : German [Forced]
  295. Language                                 : German
  296. Default                                  : No
  297. Forced                                   : No
  298. Text #19
  299. ID                                       : 21
  300. Format                                   : UTF-8
  301. Codec ID                                 : S_TEXT/UTF8
  302. Codec ID/Info                            : UTF-8 Plain Text
  303. Duration                                 : 2 h 19 min
  304. Bit rate                                 : 37 b/s
  305. Frame rate                               : 0.161 FPS
  306. Count of elements                        : 1341
  307. Stream size                              : 38.6 KiB (0%)
  308. Title                                    : German [SDH]
  309. Language                                 : German
  310. Default                                  : No
  311. Forced                                   : No
  312. Text #20
  313. ID                                       : 22
  314. Format                                   : UTF-8
  315. Codec ID                                 : S_TEXT/UTF8
  316. Codec ID/Info                            : UTF-8 Plain Text
  317. Duration                                 : 2 h 26 min
  318. Bit rate                                 : 41 b/s
  319. Frame rate                               : 0.121 FPS
  320. Count of elements                        : 1067
  321. Stream size                              : 44.5 KiB (0%)
  322. Title                                    : Greek
  323. Language                                 : Greek
  324. Default                                  : No
  325. Forced                                   : No
  326. Text #21
  327. ID                                       : 23
  328. Format                                   : UTF-8
  329. Codec ID                                 : S_TEXT/UTF8
  330. Codec ID/Info                            : UTF-8 Plain Text
  331. Duration                                 : 2 h 23 min
  332. Bit rate                                 : 40 b/s
  333. Frame rate                               : 0.122 FPS
  334. Count of elements                        : 1053
  335. Stream size                              : 42.4 KiB (0%)
  336. Title                                    : Hebrew
  337. Language                                 : Hebrew
  338. Default                                  : No
  339. Forced                                   : No
  340. Text #22
  341. ID                                       : 24
  342. Format                                   : UTF-8
  343. Codec ID                                 : S_TEXT/UTF8
  344. Codec ID/Info                            : UTF-8 Plain Text
  345. Duration                                 : 2 h 26 min
  346. Bit rate                                 : 25 b/s
  347. Frame rate                               : 0.116 FPS
  348. Count of elements                        : 1018
  349. Stream size                              : 27.1 KiB (0%)
  350. Title                                    : Hungarian
  351. Language                                 : Hungarian
  352. Default                                  : No
  353. Forced                                   : No
  354. Text #23
  355. ID                                       : 25
  356. Format                                   : UTF-8
  357. Codec ID                                 : S_TEXT/UTF8
  358. Codec ID/Info                            : UTF-8 Plain Text
  359. Duration                                 : 2 h 23 min
  360. Bit rate                                 : 25 b/s
  361. Frame rate                               : 0.122 FPS
  362. Count of elements                        : 1053
  363. Stream size                              : 26.6 KiB (0%)
  364. Title                                    : Indonesian
  365. Language                                 : Indonesian
  366. Default                                  : No
  367. Forced                                   : No
  368. Text #24
  369. ID                                       : 26
  370. Format                                   : UTF-8
  371. Codec ID                                 : S_TEXT/UTF8
  372. Codec ID/Info                            : UTF-8 Plain Text
  373. Duration                                 : 2 h 23 min
  374. Bit rate                                 : 24 b/s
  375. Frame rate                               : 0.120 FPS
  376. Count of elements                        : 1033
  377. Stream size                              : 25.3 KiB (0%)
  378. Title                                    : Italian
  379. Language                                 : Italian
  380. Default                                  : No
  381. Forced                                   : No
  382. Text #25
  383. ID                                       : 27
  384. Format                                   : UTF-8
  385. Codec ID                                 : S_TEXT/UTF8
  386. Codec ID/Info                            : UTF-8 Plain Text
  387. Duration                                 : 2 h 23 min
  388. Bit rate                                 : 25 b/s
  389. Frame rate                               : 0.110 FPS
  390. Count of elements                        : 953
  391. Stream size                              : 26.7 KiB (0%)
  392. Title                                    : Japanese
  393. Language                                 : Japanese
  394. Default                                  : No
  395. Forced                                   : No
  396. Text #26
  397. ID                                       : 28
  398. Format                                   : UTF-8
  399. Codec ID                                 : S_TEXT/UTF8
  400. Codec ID/Info                            : UTF-8 Plain Text
  401. Duration                                 : 2 h 26 min
  402. Bit rate                                 : 31 b/s
  403. Frame rate                               : 0.120 FPS
  404. Count of elements                        : 1060
  405. Stream size                              : 33.9 KiB (0%)
  406. Title                                    : Korean
  407. Language                                 : Korean
  408. Default                                  : No
  409. Forced                                   : No
  410. Text #27
  411. ID                                       : 29
  412. Format                                   : UTF-8
  413. Codec ID                                 : S_TEXT/UTF8
  414. Codec ID/Info                            : UTF-8 Plain Text
  415. Duration                                 : 2 h 26 min
  416. Bit rate                                 : 23 b/s
  417. Frame rate                               : 0.120 FPS
  418. Count of elements                        : 1052
  419. Stream size                              : 25.3 KiB (0%)
  420. Title                                    : Malay
  421. Language                                 : Malay
  422. Default                                  : No
  423. Forced                                   : No
  424. Text #28
  425. ID                                       : 30
  426. Format                                   : UTF-8
  427. Codec ID                                 : S_TEXT/UTF8
  428. Codec ID/Info                            : UTF-8 Plain Text
  429. Duration                                 : 2 h 23 min
  430. Bit rate                                 : 23 b/s
  431. Frame rate                               : 0.121 FPS
  432. Count of elements                        : 1045
  433. Stream size                              : 24.3 KiB (0%)
  434. Title                                    : Norwegian Bokm?l
  435. Language                                 : Norwegian Bokmal
  436. Default                                  : No
  437. Forced                                   : No
  438. Text #29
  439. ID                                       : 31
  440. Format                                   : UTF-8
  441. Codec ID                                 : S_TEXT/UTF8
  442. Codec ID/Info                            : UTF-8 Plain Text
  443. Duration                                 : 2 h 26 min
  444. Bit rate                                 : 20 b/s
  445. Frame rate                               : 0.108 FPS
  446. Count of elements                        : 950
  447. Stream size                              : 22.3 KiB (0%)
  448. Title                                    : Polish
  449. Language                                 : Polish
  450. Default                                  : No
  451. Forced                                   : No
  452. Text #30
  453. ID                                       : 32
  454. Format                                   : UTF-8
  455. Codec ID                                 : S_TEXT/UTF8
  456. Codec ID/Info                            : UTF-8 Plain Text
  457. Duration                                 : 2 h 23 min
  458. Bit rate                                 : 24 b/s
  459. Frame rate                               : 0.120 FPS
  460. Count of elements                        : 1036
  461. Stream size                              : 26.2 KiB (0%)
  462. Title                                    : Portuguese
  463. Language                                 : Portuguese
  464. Default                                  : No
  465. Forced                                   : No
  466. Text #31
  467. ID                                       : 33
  468. Format                                   : UTF-8
  469. Codec ID                                 : S_TEXT/UTF8
  470. Codec ID/Info                            : UTF-8 Plain Text
  471. Duration                                 : 2 h 23 min
  472. Bit rate                                 : 25 b/s
  473. Frame rate                               : 0.121 FPS
  474. Count of elements                        : 1047
  475. Stream size                              : 27.1 KiB (0%)
  476. Title                                    : Portuguese Brazilian
  477. Language                                 : Portuguese
  478. Default                                  : No
  479. Forced                                   : No
  480. Text #32
  481. ID                                       : 34
  482. Format                                   : UTF-8
  483. Codec ID                                 : S_TEXT/UTF8
  484. Codec ID/Info                            : UTF-8 Plain Text
  485. Duration                                 : 2 h 23 min
  486. Bit rate                                 : 29 b/s
  487. Frame rate                               : 0.117 FPS
  488. Count of elements                        : 1014
  489. Stream size                              : 30.8 KiB (0%)
  490. Title                                    : Romanian
  491. Language                                 : Romanian
  492. Default                                  : No
  493. Forced                                   : No
  494. Text #33
  495. ID                                       : 35
  496. Format                                   : UTF-8
  497. Codec ID                                 : S_TEXT/UTF8
  498. Codec ID/Info                            : UTF-8 Plain Text
  499. Duration                                 : 2 h 26 min
  500. Bit rate                                 : 38 b/s
  501. Frame rate                               : 0.117 FPS
  502. Count of elements                        : 1028
  503. Stream size                              : 41.2 KiB (0%)
  504. Title                                    : Russian
  505. Language                                 : Russian
  506. Default                                  : No
  507. Forced                                   : No
  508. Text #34
  509. ID                                       : 36
  510. Format                                   : UTF-8
  511. Codec ID                                 : S_TEXT/UTF8
  512. Codec ID/Info                            : UTF-8 Plain Text
  513. Duration                                 : 2 h 23 min
  514. Bit rate                                 : 24 b/s
  515. Frame rate                               : 0.117 FPS
  516. Count of elements                        : 1009
  517. Stream size                              : 26.3 KiB (0%)
  518. Title                                    : Spanish
  519. Language                                 : Spanish
  520. Default                                  : No
  521. Forced                                   : No
  522. Text #35
  523. ID                                       : 37
  524. Format                                   : UTF-8
  525. Codec ID                                 : S_TEXT/UTF8
  526. Codec ID/Info                            : UTF-8 Plain Text
  527. Duration                                 : 2 h 20 min
  528. Bit rate                                 : 32 b/s
  529. Frame rate                               : 0.154 FPS
  530. Count of elements                        : 1296
  531. Stream size                              : 33.9 KiB (0%)
  532. Title                                    : Spanish [SDH]
  533. Language                                 : Spanish
  534. Default                                  : No
  535. Forced                                   : No
  536. Text #36
  537. ID                                       : 38
  538. Format                                   : UTF-8
  539. Codec ID                                 : S_TEXT/UTF8
  540. Codec ID/Info                            : UTF-8 Plain Text
  541. Duration                                 : 2 h 23 min
  542. Bit rate                                 : 25 b/s
  543. Frame rate                               : 0.107 FPS
  544. Count of elements                        : 922
  545. Stream size                              : 26.8 KiB (0%)
  546. Title                                    : Swedish
  547. Language                                 : Swedish
  548. Default                                  : No
  549. Forced                                   : No
  550. Text #37
  551. ID                                       : 39
  552. Format                                   : UTF-8
  553. Codec ID                                 : S_TEXT/UTF8
  554. Codec ID/Info                            : UTF-8 Plain Text
  555. Duration                                 : 2 h 26 min
  556. Bit rate                                 : 65 b/s
  557. Frame rate                               : 0.120 FPS
  558. Count of elements                        : 1059
  559. Stream size                              : 70.6 KiB (0%)
  560. Title                                    : Thai
  561. Language                                 : Thai
  562. Default                                  : No
  563. Forced                                   : No
  564. Text #38
  565. ID                                       : 40
  566. Format                                   : UTF-8
  567. Codec ID                                 : S_TEXT/UTF8
  568. Codec ID/Info                            : UTF-8 Plain Text
  569. Duration                                 : 2 h 26 min
  570. Bit rate                                 : 24 b/s
  571. Frame rate                               : 0.116 FPS
  572. Count of elements                        : 1019
  573. Stream size                              : 25.9 KiB (0%)
  574. Title                                    : Turkish
  575. Language                                 : Turkish
  576. Default                                  : No
  577. Forced                                   : No
  578. Text #39
  579. ID                                       : 41
  580. Format                                   : UTF-8
  581. Codec ID                                 : S_TEXT/UTF8
  582. Codec ID/Info                            : UTF-8 Plain Text
  583. Duration                                 : 2 h 26 min
  584. Bit rate                                 : 44 b/s
  585. Frame rate                               : 0.193 FPS
  586. Count of elements                        : 1696
  587. Stream size                              : 47.7 KiB (0%)
  588. Title                                    : Turkish [SDH]
  589. Language                                 : Turkish
  590. Default                                  : No
  591. Forced                                   : No
  592. Text #40
  593. ID                                       : 42
  594. Format                                   : UTF-8
  595. Codec ID                                 : S_TEXT/UTF8
  596. Codec ID/Info                            : UTF-8 Plain Text
  597. Duration                                 : 2 h 26 min
  598. Bit rate                                 : 39 b/s
  599. Frame rate                               : 0.118 FPS
  600. Count of elements                        : 1036
  601. Stream size                              : 42.4 KiB (0%)
  602. Title                                    : Ukrainian
  603. Language                                 : Ukrainian
  604. Default                                  : No
  605. Forced                                   : No
  606. Text #41
  607. ID                                       : 43
  608. Format                                   : UTF-8
  609. Codec ID                                 : S_TEXT/UTF8
  610. Codec ID/Info                            : UTF-8 Plain Text
  611. Duration                                 : 2 h 26 min
  612. Bit rate                                 : 33 b/s
  613. Frame rate                               : 0.120 FPS
  614. Count of elements                        : 1057
  615. Stream size                              : 36.3 KiB (0%)
  616. Title                                    : Vietnamese
  617. Language                                 : Vietnamese
  618. Default                                  : No
  619. Forced                                   : No
复制代码











西线无战事[中笔墨幕].All.Quiet.on.the.Western.Front.2022.GERMAN.2160p.NF.WEB-DL.DDP5.1.Atmos.DV.MKV.x265-DONUTS 14.00GB

All.Quiet.on.the.Western.Front.2022.GERMAN.2160p.NF.WEB-DL.DDP5.1.Atmos.DV.MKV.x.torrent

18.25 KB, 下载次数: 98, 下载积分: 蓝光币 -2

回复

使用道具 举报

蓝光币
181
发表于 2023-1-17 18:20:53 | 显示全部楼层
谢谢楼主分享资源
回复

使用道具 举报

蓝光币
22
发表于 2023-2-5 20:12:56 | 显示全部楼层
楼主发贴辛苦了,谢谢楼主分享!我觉得蓝光电影网是注册对了!
回复

使用道具 举报

蓝光币
0
发表于 2023-3-19 12:32:27 | 显示全部楼层
楼主发贴辛苦了,谢谢楼主分享!我觉得蓝光电影网是注册对了!
回复

使用道具 举报

懒得打字嘛,点击右侧快捷回复 【右侧内容,后台自定义】
您需要登录后才可以回帖 登录 | 立即加入

本版积分规则

Copyright © 2024 Comsenz Inc. Powered by 蓝光电影网

本站内容由用户自主分享和转载自互联网,转载目的在于传递更多信息,并不代表本网赞同其观点和对其真实性负责。

如有侵权、违反国家法律政策行为,请联系我们,我们会第一时间及时清除和处理!

举报反馈邮箱:4k1080.com@gmail.com

快速回复 返回顶部 返回列表