找回密码

查看: 1653|回复: 2

[2160p-WEB] 西线无战事[中文字幕].All.Quiet.on.the.Western.Front.2022.GERMAN.2160p.NF.WEB-DL.DDP5.1.Atmos.DV.MP4.x265-DVSUX 14.00GB

[复制链接]
蓝光币
1848
发表于 2023-1-2 14:57:27 | 显示全部楼层 |阅读模式


◎标  题 西线无战事
◎译  名 新西线无战事 / All Quiet on the Western Front
◎片  名 Im Westen nichts Neues
◎年  代 2022
◎产  地 德国 / 美国 / 英国
◎类  别 剧情 / 行动 / 战争
◎语  言 德语 / 法语 / 英语
◎上映日期 2022-09-12(多伦多电影节) / 2022-09-29(德国) / 2022-10-28(德国收集)
◎IMDb评分 7.8/10 (93674人评价)
◎IMDb链接 https://www.imdb.com/title/tt1016150/
◎豆瓣评分 8.5/10 (91968人评价)
◎豆瓣链接 https://movie.douban.com/subject/3042261/
◎片  长 148分钟
◎导  演 爱德华·贝尔格 Edward Berger
◎编  剧 爱德华·贝尔格 Edward Berger
       莱斯莉·帕特森 Lesley Paterson
       伊恩·斯托克尔 Ian Stokell
       埃里希·玛利亚·雷马克 Erich Maria Remarque
◎演  员 费利克斯·卡默雷尔 Felix Kammerer
       阿尔布雷希特·舒赫 Albrecht Schuch
       亚伦·希尔默 Aaron Hilmer
       丹尼尔·布鲁赫 Daniel Brühl
       塞巴斯蒂安·胡克 Sebastian Hülk
       莫里茨·克劳斯 Moritz Klaus
       阿德里安·格鲁内瓦尔德 Adrian Grünewald
       埃丁·哈萨诺维奇 Edin Hasanović
       蒂博·德·蒙塔朗贝尔 Thibault de Montalembert
       大卫·史崔梭德 Devid Striesow
        Andreas Döhler
       吕克·费特 Luc Feit
       米夏埃尔·维滕博恩 Michael Wittenborn
       迈克尔·斯坦格 Michael Stange
       萨沙·纳丹 Sascha Nathan
       Tobias Langhoff Tobias Langhoff
       安东·范·卢克 Anton von Lucke
       乔·温特劳布 Joe Weintraub
       查尔斯·莫赫伦 Charles Morillon
       西里尔·多布雷 Cyril Dobrý
        Sebastian Jacques
       菲利克斯·冯·布雷多 Felix von Bredow
       雅各布·迪尔 Jakob Diehl
        Anthony Paliotti
        Hendrik Heutmann
       马古斯·汤姆齐克 Markus Tomczyk
        Wolf Danny Homann
        Peter Sikorski
       托马斯·齐林斯基 Thomas Zielinski
       安德烈·马尔孔 André Marcon
        Dominikus Weileder
       伊恩·斯托克尔 Ian Stokell
       莱斯莉·帕特森 Lesley Paterson
       沃尔克·贝特尔曼 Volker Bertelmann
       詹姆斯·弗伦德 James Friend
       利西·克里斯特尔 Lisy Christl
◎简  介
  该片改编自埃里希·玛利亚·雷马克撰写的同名典范小说,报告在第一次天下大战时代,保罗·鲍曼和同学莱尔、米勒加入了德国百姓自愿兵,被派往火线与法军作战。在疆场上,他们目击到了残暴的饥饿、血腥和灭亡,战争的荒诞无情让保罗从迷恋战争到意气消沉。
  1. Video
  2. ID                                       : 1
  3. Format                                   : HEVC
  4. Format/Info                              : High Efficiency Video Coding
  5. Format profile                           : Main 10@L5@Main
  6. HDR format                               : Dolby Vision, Version 1.0, dvhe.05.06, BL+RPU
  7. Codec ID                                 : dvhe
  8. Codec ID/Info                            : High Efficiency Video Coding with Dolby Vision
  9. Duration                                 : 2 h 28 min
  10. Bit rate                                 : 12.7 Mb/s
  11. Width                                    : 3 840 pixels
  12. Height                                   : 2 160 pixels
  13. Display aspect ratio                     : 16:9
  14. Frame rate mode                          : Constant
  15. Frame rate                               : 24.000 FPS
  16. Color space                              : YUV
  17. Chroma subsampling                       : 4:2:0
  18. Bit depth                                : 10 bits
  19. Bits/(Pixel*Frame)                       : 0.064
  20. Stream size                              : 13.2 GiB (94%)
  21. Default                                  : Yes
  22. Alternate group                          : 1
  23. Encoded date                             : UTC 2023-01-01 17:22:40
  24. Tagged date                              : UTC 2023-01-01 17:28:24
  25. Color range                              : Full
  26. Codec configuration box                  : hvcC+dvcC
  27. Audio
  28. ID                                       : 2
  29. Format                                   : E-AC-3 JOC
  30. Format/Info                              : Enhanced AC-3 with Joint Object Coding
  31. Commercial name                          : Dolby Digital Plus with Dolby Atmos
  32. Codec ID                                 : ec-3
  33. Duration                                 : 2 h 28 min
  34. Bit rate mode                            : Constant
  35. Bit rate                                 : 768 kb/s
  36. Maximum bit rate                         : 811 kb/s
  37. Channel(s)                               : 6 channels
  38. Channel layout                           : L R C LFE Ls Rs
  39. Sampling rate                            : 48.0 kHz
  40. Frame rate                               : 31.250 FPS (1536 SPF)
  41. Compression mode                         : Lossy
  42. Stream size                              : 817 MiB (6%)
  43. Title                                    : English
  44. Language                                 : English
  45. Service kind                             : Complete Main
  46. Default                                  : Yes
  47. Alternate group                          : 1
  48. Tagged date                              : UTC 2023-01-01 17:28:24
  49. Complexity index                         : Not present / 16
  50. Number of dynamic objects                : 15
  51. Bed channel count                        : 1 channel
  52. Bed channel configuration                : LFE
  53. Text #1
  54. ID                                       : 3
  55. Format                                   : Timed Text
  56. Codec ID                                 : tx3g
  57. Duration                                 : 2 h 27 min
  58. Bit rate mode                            : Variable
  59. Bit rate                                 : 29 b/s
  60. Frame rate                               : 0.238 FPS
  61. Stream size                              : 31.6 KiB (0%)
  62. Title                                    : English
  63. Language                                 : English
  64. Forced                                   : No
  65. Encoded date                             : UTC 2023-01-01 17:28:21
  66. Tagged date                              : UTC 2023-01-01 17:28:24
  67. Text #2
  68. ID                                       : 4
  69. Format                                   : Timed Text
  70. Codec ID                                 : tx3g
  71. Duration                                 : 2 h 22 min
  72. Bit rate mode                            : Variable
  73. Bit rate                                 : 44 b/s
  74. Frame rate                               : 0.342 FPS
  75. Stream size                              : 46.1 KiB (0%)
  76. Title                                    : English
  77. Language                                 : English
  78. Forced                                   : No
  79. Encoded date                             : UTC 2023-01-01 17:28:21
  80. Tagged date                              : UTC 2023-01-01 17:28:24
  81. Text #3
  82. ID                                       : 5
  83. Format                                   : Timed Text
  84. Codec ID                                 : tx3g
  85. Duration                                 : 2 h 27 min
  86. Bit rate mode                            : Variable
  87. Bit rate                                 : 48 b/s
  88. Frame rate                               : 0.237 FPS
  89. Stream size                              : 51.4 KiB (0%)
  90. Title                                    : Arabic
  91. Language                                 : Arabic
  92. Forced                                   : No
  93. Encoded date                             : UTC 2023-01-01 17:28:21
  94. Tagged date                              : UTC 2023-01-01 17:28:24
  95. Text #4
  96. ID                                       : 6
  97. Format                                   : Timed Text
  98. Codec ID                                 : tx3g
  99. Duration                                 : 2 h 27 min
  100. Bit rate mode                            : Variable
  101. Bit rate                                 : 31 b/s
  102. Frame rate                               : 0.263 FPS
  103. Stream size                              : 33.1 KiB (0%)
  104. Title                                    : Chinese-Simplified
  105. Language                                 : Chinese (Simplied)
  106. Forced                                   : No
  107. Encoded date                             : UTC 2023-01-01 17:28:21
  108. Tagged date                              : UTC 2023-01-01 17:28:24
  109. Text #5
  110. ID                                       : 7
  111. Format                                   : Timed Text
  112. Codec ID                                 : tx3g
  113. Duration                                 : 2 h 27 min
  114. Bit rate mode                            : Variable
  115. Bit rate                                 : 30 b/s
  116. Frame rate                               : 0.241 FPS
  117. Stream size                              : 31.8 KiB (0%)
  118. Title                                    : Chinese-Traditional
  119. Language                                 : Chinese (Traditional)
  120. Forced                                   : No
  121. Encoded date                             : UTC 2023-01-01 17:28:21
  122. Tagged date                              : UTC 2023-01-01 17:28:24
  123. Text #6
  124. ID                                       : 8
  125. Format                                   : Timed Text
  126. Codec ID                                 : tx3g
  127. Duration                                 : 2 h 27 min
  128. Bit rate mode                            : Variable
  129. Bit rate                                 : 26 b/s
  130. Frame rate                               : 0.234 FPS
  131. Stream size                              : 27.7 KiB (0%)
  132. Title                                    : Croatian
  133. Language                                 : Croatian
  134. Forced                                   : No
  135. Encoded date                             : UTC 2023-01-01 17:28:21
  136. Tagged date                              : UTC 2023-01-01 17:28:24
  137. Text #7
  138. ID                                       : 9
  139. Format                                   : Timed Text
  140. Codec ID                                 : tx3g
  141. Duration                                 : 2 h 20 min
  142. Bit rate mode                            : Variable
  143. Bit rate                                 : 44 b/s
  144. Frame rate                               : 0.319 FPS
  145. Stream size                              : 45.6 KiB (0%)
  146. Title                                    : Czech
  147. Language                                 : Czech
  148. Forced                                   : No
  149. Encoded date                             : UTC 2023-01-01 17:28:21
  150. Tagged date                              : UTC 2023-01-01 17:28:24
  151. Text #8
  152. ID                                       : 10
  153. Format                                   : Timed Text
  154. Codec ID                                 : tx3g
  155. Duration                                 : 2 h 27 min
  156. Bit rate mode                            : Variable
  157. Bit rate                                 : 27 b/s
  158. Frame rate                               : 0.233 FPS
  159. Stream size                              : 29.3 KiB (0%)
  160. Title                                    : Czech
  161. Language                                 : Czech
  162. Forced                                   : No
  163. Encoded date                             : UTC 2023-01-01 17:28:21
  164. Tagged date                              : UTC 2023-01-01 17:28:24
  165. Text #9
  166. ID                                       : 11
  167. Format                                   : Timed Text
  168. Codec ID                                 : tx3g
  169. Duration                                 : 2 h 26 min
  170. Bit rate mode                            : Variable
  171. Bit rate                                 : 27 b/s
  172. Frame rate                               : 0.228 FPS
  173. Stream size                              : 29.0 KiB (0%)
  174. Title                                    : Danish
  175. Language                                 : Danish
  176. Forced                                   : No
  177. Encoded date                             : UTC 2023-01-01 17:28:21
  178. Tagged date                              : UTC 2023-01-01 17:28:24
  179. Text #10
  180. ID                                       : 12
  181. Format                                   : Timed Text
  182. Codec ID                                 : tx3g
  183. Duration                                 : 2 h 27 min
  184. Bit rate mode                            : Variable
  185. Bit rate                                 : 26 b/s
  186. Frame rate                               : 0.216 FPS
  187. Stream size                              : 28.0 KiB (0%)
  188. Title                                    : Dutch
  189. Language                                 : Dutch
  190. Forced                                   : No
  191. Encoded date                             : UTC 2023-01-01 17:28:21
  192. Tagged date                              : UTC 2023-01-01 17:28:24
  193. Text #11
  194. ID                                       : 13
  195. Format                                   : Timed Text
  196. Codec ID                                 : tx3g
  197. Duration                                 : 2 h 27 min
  198. Bit rate mode                            : Variable
  199. Bit rate                                 : 30 b/s
  200. Frame rate                               : 0.239 FPS
  201. Stream size                              : 32.5 KiB (0%)
  202. Title                                    : Filipino
  203. Language                                 : fil
  204. Forced                                   : No
  205. Encoded date                             : UTC 2023-01-01 17:28:21
  206. Tagged date                              : UTC 2023-01-01 17:28:24
  207. Text #12
  208. ID                                       : 14
  209. Format                                   : Timed Text
  210. Codec ID                                 : tx3g
  211. Duration                                 : 2 h 27 min
  212. Bit rate mode                            : Variable
  213. Bit rate                                 : 25 b/s
  214. Frame rate                               : 0.198 FPS
  215. Stream size                              : 27.0 KiB (0%)
  216. Title                                    : Finnish
  217. Language                                 : Finnish
  218. Forced                                   : No
  219. Encoded date                             : UTC 2023-01-01 17:28:21
  220. Tagged date                              : UTC 2023-01-01 17:28:24
  221. Text #13
  222. ID                                       : 15
  223. Format                                   : Timed Text
  224. Codec ID                                 : tx3g
  225. Duration                                 : 2 h 27 min
  226. Bit rate mode                            : Variable
  227. Bit rate                                 : 27 b/s
  228. Frame rate                               : 0.221 FPS
  229. Stream size                              : 29.5 KiB (0%)
  230. Title                                    : French
  231. Language                                 : French
  232. Forced                                   : No
  233. Encoded date                             : UTC 2023-01-01 17:28:22
  234. Tagged date                              : UTC 2023-01-01 17:28:24
  235. Text #14
  236. ID                                       : 16
  237. Format                                   : Timed Text
  238. Codec ID                                 : tx3g
  239. Duration                                 : 2 h 20 min
  240. Bit rate mode                            : Variable
  241. Bit rate                                 : 43 b/s
  242. Frame rate                               : 0.318 FPS
  243. Stream size                              : 43.9 KiB (0%)
  244. Title                                    : German
  245. Language                                 : German
  246. Forced                                   : No
  247. Encoded date                             : UTC 2023-01-01 17:28:22
  248. Tagged date                              : UTC 2023-01-01 17:28:24
  249. Text #15
  250. ID                                       : 17
  251. Format                                   : Timed Text
  252. Codec ID                                 : tx3g
  253. Duration                                 : 2 h 13 min
  254. Bit rate mode                            : Variable
  255. Bit rate                                 : 1 b/s
  256. Frame rate                               : 0.013 FPS
  257. Stream size                              : 1.34 KiB (0%)
  258. Title                                    : German
  259. Language                                 : German
  260. Forced                                   : No
  261. Encoded date                             : UTC 2023-01-01 17:28:22
  262. Tagged date                              : UTC 2023-01-01 17:28:24
  263. Text #16
  264. ID                                       : 18
  265. Format                                   : Timed Text
  266. Codec ID                                 : tx3g
  267. Duration                                 : 2 h 26 min
  268. Bit rate mode                            : Variable
  269. Bit rate                                 : 45 b/s
  270. Frame rate                               : 0.242 FPS
  271. Stream size                              : 48.7 KiB (0%)
  272. Title                                    : Greek
  273. Language                                 : Greek
  274. Forced                                   : No
  275. Encoded date                             : UTC 2023-01-01 17:28:22
  276. Tagged date                              : UTC 2023-01-01 17:28:24
  277. Text #17
  278. ID                                       : 19
  279. Format                                   : Timed Text
  280. Codec ID                                 : tx3g
  281. Duration                                 : 2 h 27 min
  282. Bit rate mode                            : Variable
  283. Bit rate                                 : 43 b/s
  284. Frame rate                               : 0.239 FPS
  285. Stream size                              : 46.4 KiB (0%)
  286. Title                                    : Hebrew
  287. Language                                 : Hebrew
  288. Forced                                   : No
  289. Encoded date                             : UTC 2023-01-01 17:28:22
  290. Tagged date                              : UTC 2023-01-01 17:28:24
  291. Text #18
  292. ID                                       : 20
  293. Format                                   : Timed Text
  294. Codec ID                                 : tx3g
  295. Duration                                 : 2 h 27 min
  296. Bit rate mode                            : Variable
  297. Bit rate                                 : 29 b/s
  298. Frame rate                               : 0.231 FPS
  299. Stream size                              : 31.2 KiB (0%)
  300. Title                                    : Hungarian
  301. Language                                 : Hungarian
  302. Forced                                   : No
  303. Encoded date                             : UTC 2023-01-01 17:28:22
  304. Tagged date                              : UTC 2023-01-01 17:28:24
  305. Text #19
  306. ID                                       : 21
  307. Format                                   : Timed Text
  308. Codec ID                                 : tx3g
  309. Duration                                 : 2 h 27 min
  310. Bit rate mode                            : Variable
  311. Bit rate                                 : 29 b/s
  312. Frame rate                               : 0.239 FPS
  313. Stream size                              : 30.8 KiB (0%)
  314. Title                                    : Indonesian
  315. Language                                 : Indonesian
  316. Forced                                   : No
  317. Encoded date                             : UTC 2023-01-01 17:28:22
  318. Tagged date                              : UTC 2023-01-01 17:28:24
  319. Text #20
  320. ID                                       : 22
  321. Format                                   : Timed Text
  322. Codec ID                                 : tx3g
  323. Duration                                 : 2 h 27 min
  324. Bit rate mode                            : Variable
  325. Bit rate                                 : 27 b/s
  326. Frame rate                               : 0.234 FPS
  327. Stream size                              : 29.5 KiB (0%)
  328. Title                                    : Italian
  329. Language                                 : Italian
  330. Forced                                   : No
  331. Encoded date                             : UTC 2023-01-01 17:28:22
  332. Tagged date                              : UTC 2023-01-01 17:28:24
  333. Text #21
  334. ID                                       : 23
  335. Format                                   : Timed Text
  336. Codec ID                                 : tx3g
  337. Duration                                 : 2 h 27 min
  338. Bit rate mode                            : Variable
  339. Bit rate                                 : 28 b/s
  340. Frame rate                               : 0.216 FPS
  341. Stream size                              : 30.2 KiB (0%)
  342. Title                                    : Japanese
  343. Language                                 : Japanese
  344. Forced                                   : No
  345. Encoded date                             : UTC 2023-01-01 17:28:22
  346. Tagged date                              : UTC 2023-01-01 17:28:24
  347. Text #22
  348. ID                                       : 24
  349. Format                                   : Timed Text
  350. Codec ID                                 : tx3g
  351. Duration                                 : 2 h 26 min
  352. Bit rate mode                            : Variable
  353. Bit rate                                 : 35 b/s
  354. Frame rate                               : 0.240 FPS
  355. Stream size                              : 37.8 KiB (0%)
  356. Title                                    : Korean
  357. Language                                 : Korean
  358. Forced                                   : No
  359. Encoded date                             : UTC 2023-01-01 17:28:22
  360. Tagged date                              : UTC 2023-01-01 17:28:24
  361. Text #23
  362. ID                                       : 25
  363. Format                                   : Timed Text
  364. Codec ID                                 : tx3g
  365. Duration                                 : 2 h 27 min
  366. Bit rate mode                            : Variable
  367. Bit rate                                 : 27 b/s
  368. Frame rate                               : 0.239 FPS
  369. Stream size                              : 29.4 KiB (0%)
  370. Title                                    : Malay
  371. Language                                 : Malay
  372. Forced                                   : No
  373. Encoded date                             : UTC 2023-01-01 17:28:22
  374. Tagged date                              : UTC 2023-01-01 17:28:24
  375. Text #24
  376. ID                                       : 26
  377. Format                                   : Timed Text
  378. Codec ID                                 : tx3g
  379. Duration                                 : 2 h 27 min
  380. Bit rate mode                            : Variable
  381. Bit rate                                 : 26 b/s
  382. Frame rate                               : 0.237 FPS
  383. Stream size                              : 28.5 KiB (0%)
  384. Title                                    : Norwegian
  385. Language                                 : Norwegian Bokmal
  386. Forced                                   : No
  387. Encoded date                             : UTC 2023-01-01 17:28:22
  388. Tagged date                              : UTC 2023-01-01 17:28:24
  389. Text #25
  390. ID                                       : 27
  391. Format                                   : Timed Text
  392. Codec ID                                 : tx3g
  393. Duration                                 : 2 h 27 min
  394. Bit rate mode                            : Variable
  395. Bit rate                                 : 24 b/s
  396. Frame rate                               : 0.215 FPS
  397. Stream size                              : 26.1 KiB (0%)
  398. Title                                    : Polish
  399. Language                                 : Polish
  400. Forced                                   : No
  401. Encoded date                             : UTC 2023-01-01 17:28:22
  402. Tagged date                              : UTC 2023-01-01 17:28:24
  403. Text #26
  404. ID                                       : 28
  405. Format                                   : Timed Text
  406. Codec ID                                 : tx3g
  407. Duration                                 : 2 h 27 min
  408. Bit rate mode                            : Variable
  409. Bit rate                                 : 28 b/s
  410. Frame rate                               : 0.235 FPS
  411. Stream size                              : 30.4 KiB (0%)
  412. Title                                    : Portuguese
  413. Language                                 : Portuguese
  414. Forced                                   : No
  415. Encoded date                             : UTC 2023-01-01 17:28:23
  416. Tagged date                              : UTC 2023-01-01 17:28:24
  417. Text #27
  418. ID                                       : 29
  419. Format                                   : Timed Text
  420. Codec ID                                 : tx3g
  421. Duration                                 : 2 h 27 min
  422. Bit rate mode                            : Variable
  423. Bit rate                                 : 29 b/s
  424. Frame rate                               : 0.237 FPS
  425. Stream size                              : 31.3 KiB (0%)
  426. Title                                    : Portuguese
  427. Language                                 : Portuguese
  428. Forced                                   : No
  429. Encoded date                             : UTC 2023-01-01 17:28:23
  430. Tagged date                              : UTC 2023-01-01 17:28:24
  431. Text #28
  432. ID                                       : 30
  433. Format                                   : Timed Text
  434. Codec ID                                 : tx3g
  435. Duration                                 : 2 h 26 min
  436. Bit rate mode                            : Variable
  437. Bit rate                                 : 32 b/s
  438. Frame rate                               : 0.230 FPS
  439. Stream size                              : 34.9 KiB (0%)
  440. Title                                    : Romanian
  441. Language                                 : Romanian
  442. Forced                                   : No
  443. Encoded date                             : UTC 2023-01-01 17:28:23
  444. Tagged date                              : UTC 2023-01-01 17:28:24
  445. Text #29
  446. ID                                       : 31
  447. Format                                   : Timed Text
  448. Codec ID                                 : tx3g
  449. Duration                                 : 2 h 27 min
  450. Bit rate mode                            : Variable
  451. Bit rate                                 : 42 b/s
  452. Frame rate                               : 0.233 FPS
  453. Stream size                              : 45.4 KiB (0%)
  454. Title                                    : Russian
  455. Language                                 : Russian
  456. Forced                                   : No
  457. Encoded date                             : UTC 2023-01-01 17:28:23
  458. Tagged date                              : UTC 2023-01-01 17:28:24
  459. Text #30
  460. ID                                       : 32
  461. Format                                   : Timed Text
  462. Codec ID                                 : tx3g
  463. Duration                                 : 2 h 27 min
  464. Bit rate mode                            : Variable
  465. Bit rate                                 : 29 b/s
  466. Frame rate                               : 0.238 FPS
  467. Stream size                              : 31.7 KiB (0%)
  468. Title                                    : Spanish-Basque
  469. Language                                 : Basque
  470. Forced                                   : No
  471. Encoded date                             : UTC 2023-01-01 17:28:23
  472. Tagged date                              : UTC 2023-01-01 17:28:24
  473. Text #31
  474. ID                                       : 33
  475. Format                                   : Timed Text
  476. Codec ID                                 : tx3g
  477. Duration                                 : 2 h 27 min
  478. Bit rate mode                            : Variable
  479. Bit rate                                 : 27 b/s
  480. Frame rate                               : 0.238 FPS
  481. Stream size                              : 28.9 KiB (0%)
  482. Title                                    : Spanish-Catalan
  483. Language                                 : Catalan
  484. Forced                                   : No
  485. Encoded date                             : UTC 2023-01-01 17:28:23
  486. Tagged date                              : UTC 2023-01-01 17:28:24
  487. Text #32
  488. ID                                       : 34
  489. Format                                   : Timed Text
  490. Codec ID                                 : tx3g
  491. Duration                                 : 2 h 27 min
  492. Bit rate mode                            : Variable
  493. Bit rate                                 : 29 b/s
  494. Frame rate                               : 0.236 FPS
  495. Stream size                              : 31.5 KiB (0%)
  496. Title                                    : Spanish-EU
  497. Language                                 : Spanish
  498. Forced                                   : No
  499. Encoded date                             : UTC 2023-01-01 17:28:23
  500. Tagged date                              : UTC 2023-01-01 17:28:24
  501. Text #33
  502. ID                                       : 35
  503. Format                                   : Timed Text
  504. Codec ID                                 : tx3g
  505. Duration                                 : 2 h 20 min
  506. Bit rate mode                            : Variable
  507. Bit rate                                 : 38 b/s
  508. Frame rate                               : 0.308 FPS
  509. Stream size                              : 39.1 KiB (0%)
  510. Title                                    : Spanish-EU
  511. Language                                 : Spanish
  512. Forced                                   : No
  513. Encoded date                             : UTC 2023-01-01 17:28:23
  514. Tagged date                              : UTC 2023-01-01 17:28:24
  515. Text #34
  516. ID                                       : 36
  517. Format                                   : Timed Text
  518. Codec ID                                 : tx3g
  519. Duration                                 : 2 h 27 min
  520. Bit rate mode                            : Variable
  521. Bit rate                                 : 28 b/s
  522. Frame rate                               : 0.229 FPS
  523. Stream size                              : 30.3 KiB (0%)
  524. Title                                    : Spanish-EU
  525. Language                                 : Spanish
  526. Forced                                   : No
  527. Encoded date                             : UTC 2023-01-01 17:28:23
  528. Tagged date                              : UTC 2023-01-01 17:28:24
  529. Text #35
  530. ID                                       : 37
  531. Format                                   : Timed Text
  532. Codec ID                                 : tx3g
  533. Duration                                 : 2 h 27 min
  534. Bit rate mode                            : Variable
  535. Bit rate                                 : 27 b/s
  536. Frame rate                               : 0.237 FPS
  537. Stream size                              : 29.2 KiB (0%)
  538. Title                                    : Spanish-Galician
  539. Language                                 : Galician
  540. Forced                                   : No
  541. Encoded date                             : UTC 2023-01-01 17:28:23
  542. Tagged date                              : UTC 2023-01-01 17:28:24
  543. Text #36
  544. ID                                       : 38
  545. Format                                   : Timed Text
  546. Codec ID                                 : tx3g
  547. Duration                                 : 2 h 26 min
  548. Bit rate mode                            : Variable
  549. Bit rate                                 : 28 b/s
  550. Frame rate                               : 0.209 FPS
  551. Stream size                              : 30.4 KiB (0%)
  552. Title                                    : Swedish
  553. Language                                 : Swedish
  554. Forced                                   : No
  555. Encoded date                             : UTC 2023-01-01 17:28:23
  556. Tagged date                              : UTC 2023-01-01 17:28:24
  557. Text #37
  558. ID                                       : 39
  559. Format                                   : Timed Text
  560. Codec ID                                 : tx3g
  561. Duration                                 : 2 h 27 min
  562. Bit rate mode                            : Variable
  563. Bit rate                                 : 69 b/s
  564. Frame rate                               : 0.240 FPS
  565. Stream size                              : 74.6 KiB (0%)
  566. Title                                    : Thai
  567. Language                                 : Thai
  568. Forced                                   : No
  569. Encoded date                             : UTC 2023-01-01 17:28:23
  570. Tagged date                              : UTC 2023-01-01 17:28:24
  571. Text #38
  572. ID                                       : 40
  573. Format                                   : Timed Text
  574. Codec ID                                 : tx3g
  575. Duration                                 : 2 h 27 min
  576. Bit rate mode                            : Variable
  577. Bit rate                                 : 50 b/s
  578. Frame rate                               : 0.384 FPS
  579. Stream size                              : 54.3 KiB (0%)
  580. Title                                    : Turkish
  581. Language                                 : Turkish
  582. Forced                                   : No
  583. Encoded date                             : UTC 2023-01-01 17:28:23
  584. Tagged date                              : UTC 2023-01-01 17:28:24
  585. Text #39
  586. ID                                       : 41
  587. Format                                   : Timed Text
  588. Codec ID                                 : tx3g
  589. Duration                                 : 2 h 27 min
  590. Bit rate mode                            : Variable
  591. Bit rate                                 : 28 b/s
  592. Frame rate                               : 0.231 FPS
  593. Stream size                              : 29.9 KiB (0%)
  594. Title                                    : Turkish
  595. Language                                 : Turkish
  596. Forced                                   : No
  597. Encoded date                             : UTC 2023-01-01 17:28:24
  598. Tagged date                              : UTC 2023-01-01 17:28:24
  599. Text #40
  600. ID                                       : 42
  601. Format                                   : Timed Text
  602. Codec ID                                 : tx3g
  603. Duration                                 : 2 h 27 min
  604. Bit rate mode                            : Variable
  605. Bit rate                                 : 43 b/s
  606. Frame rate                               : 0.235 FPS
  607. Stream size                              : 46.6 KiB (0%)
  608. Title                                    : Ukrainian
  609. Language                                 : Ukrainian
  610. Forced                                   : No
  611. Encoded date                             : UTC 2023-01-01 17:28:24
  612. Tagged date                              : UTC 2023-01-01 17:28:24
  613. Text #41
  614. ID                                       : 43
  615. Format                                   : Timed Text
  616. Codec ID                                 : tx3g
  617. Duration                                 : 2 h 27 min
  618. Bit rate mode                            : Variable
  619. Bit rate                                 : 38 b/s
  620. Frame rate                               : 0.240 FPS
  621. Stream size                              : 40.8 KiB (0%)
  622. Title                                    : Vietnamese
  623. Language                                 : Vietnamese
  624. Forced                                   : No
  625. Encoded date                             : UTC 2023-01-01 17:28:24
  626. Tagged date                              : UTC 2023-01-01 17:28:24
复制代码











西线无战事[中笔墨幕].All.Quiet.on.the.Western.Front.2022.GERMAN.2160p.NF.WEB-DL.DDP5.1.Atmos.DV.MP4.x265-DVSUX 14.00GB

All.Quiet.on.the.Western.Front.2022.GERMAN.2160p.NF.WEB-DL.DDP5.1.Atmos.DV.MP4.x.torrent

18.19 KB, 下载次数: 61, 下载积分: 蓝光币 -2

回复

使用道具 举报

蓝光币
5
发表于 2023-9-26 05:25:13 | 显示全部楼层
感谢分享!!
回复

使用道具 举报

蓝光币
0
发表于 2023-11-20 18:28:21 | 显示全部楼层
感谢分享!!
回复

使用道具 举报

懒得打字嘛,点击右侧快捷回复 【右侧内容,后台自定义】
您需要登录后才可以回帖 登录 | 立即加入

本版积分规则

Copyright © 2024 Comsenz Inc. Powered by 蓝光电影网

本站内容由用户自主分享和转载自互联网,转载目的在于传递更多信息,并不代表本网赞同其观点和对其真实性负责。

如有侵权、违反国家法律政策行为,请联系我们,我们会第一时间及时清除和处理!

举报反馈邮箱:4k1080.com@gmail.com

快速回复 返回顶部 返回列表