找回密码

查看: 1445|回复: 0

[2160p-WEB] 上帝的笔误.Gods.Crooked.Lines.2022.SPANISH.2160p.NF.WEB-DL.DDP5.1.DV.MKV.x265-COPiUM 20.22GB

[复制链接]
蓝光币
1848
发表于 2023-1-2 14:57:28 | 显示全部楼层 |阅读模式


◎标  题 天主的笔误
◎译  名 God's Crooked Lines
◎片  名 Los renglones torcidos de Dios
◎年  代 2022
◎产  地 西班牙
◎类  别 悬疑
◎语  言 西班牙语
◎上映日期 2022-10-06(西班牙)
◎IMDb评分 7/10 (8551人评价)
◎IMDb链接 https://www.imdb.com/title/tt13229894/
◎豆瓣评分 7.6/10 (1504人评价)
◎豆瓣链接 https://movie.douban.com/subject/35358584/
◎片  长 154分钟
◎导  演 奥里奥尔·保罗 Oriol Paulo
◎编  剧 Torcuato Luca de Tena Torcuato Luca de Tena
       奥里奥尔·保罗 Oriol Paulo
       拉拉·森迪姆 Lara Sendim
◎演  员 巴巴拉·莱涅 Bárbara Lennie
       爱德华·费尔南德斯 Eduard Fernández
       洛雷托·莫利昂 Loreto Mauleón
       哈维尔·贝尔特兰 Javier Beltrán
       巴勃罗·德尔基 Pablo Derqui
       费德里科·阿瓜多 Federico Aguado
       阿德尔法·卡尔沃 Adelfa Calvo
       达芬斯·巴尔杜兹 Dafnis Balduz
       大卫·塞尔瓦斯 David Selvas
       路易斯·索莱尔 Lluís Soler
       比森特·贝尔加拉 Vicente Vergara
       Txell Aixendri  Txell Aixendri
       Joan Crosas Joan Crosas
◎简  介
  Alice作为私人观察员伪装成偏执病人进入一家神经病医院来收集关于一个内部职员古怪灭亡案件的证据。不外她在医院的“疗养”时代所碰到的工作超乎了设想,而她的明智告诉她这一切背后必有文章。一段完全陌生又布满豪情的故事行将展现在她眼前。本电影改编自Torcuato Luca de Tena同名小说。
  1. Video
  2. ID                                       : 1
  3. Format                                   : HEVC
  4. Format/Info                              : High Efficiency Video Coding
  5. Format profile                           : Main 10@L5@Main
  6. HDR format                               : Dolby Vision, Version 1.0, dvhe.05.06, BL+RPU
  7. Codec ID                                 : V_MPEGH/ISO/HEVC
  8. Duration                                 : 2 h 35 min
  9. Bit rate                                 : 18.0 Mb/s
  10. Width                                    : 3 840 pixels
  11. Height                                   : 2 160 pixels
  12. Display aspect ratio                     : 16:9
  13. Frame rate mode                          : Constant
  14. Frame rate                               : 24.000 FPS
  15. Color space                              : YUV
  16. Chroma subsampling                       : 4:2:0
  17. Bit depth                                : 10 bits
  18. Bits/(Pixel*Frame)                       : 0.090
  19. Stream size                              : 19.5 GiB (97%)
  20. Language                                 : Spanish (ES)
  21. Default                                  : Yes
  22. Forced                                   : No
  23. Color range                              : Full
  24. Audio
  25. ID                                       : 2
  26. Format                                   : E-AC-3
  27. Format/Info                              : Enhanced AC-3
  28. Commercial name                          : Dolby Digital Plus
  29. Codec ID                                 : A_EAC3
  30. Duration                                 : 2 h 35 min
  31. Bit rate mode                            : Constant
  32. Bit rate                                 : 640 kb/s
  33. Channel(s)                               : 6 channels
  34. Channel layout                           : L R C LFE Ls Rs
  35. Sampling rate                            : 48.0 kHz
  36. Frame rate                               : 31.250 FPS (1536 SPF)
  37. Compression mode                         : Lossy
  38. Stream size                              : 711 MiB (3%)
  39. Language                                 : Spanish (ES)
  40. Service kind                             : Complete Main
  41. Default                                  : Yes
  42. Forced                                   : No
  43. Text #1
  44. ID                                       : 3
  45. Format                                   : UTF-8
  46. Codec ID                                 : S_TEXT/UTF8
  47. Codec ID/Info                            : UTF-8 Plain Text
  48. Duration                                 : 2 h 26 min
  49. Bit rate                                 : 61 b/s
  50. Frame rate                               : 0.209 FPS
  51. Count of elements                        : 1840
  52. Stream size                              : 65.6 KiB (0%)
  53. Language                                 : Spanish (ES)
  54. Default                                  : No
  55. Forced                                   : No
  56. Text #2
  57. ID                                       : 4
  58. Format                                   : UTF-8
  59. Codec ID                                 : S_TEXT/UTF8
  60. Codec ID/Info                            : UTF-8 Plain Text
  61. Duration                                 : 2 h 28 min
  62. Bit rate                                 : 69 b/s
  63. Frame rate                               : 0.244 FPS
  64. Count of elements                        : 2177
  65. Stream size                              : 75.3 KiB (0%)
  66. Title                                    : SDH
  67. Language                                 : Spanish (ES)
  68. Default                                  : No
  69. Forced                                   : No
  70. Text #3
  71. ID                                       : 5
  72. Format                                   : UTF-8
  73. Codec ID                                 : S_TEXT/UTF8
  74. Codec ID/Info                            : UTF-8 Plain Text
  75. Duration                                 : 2 h 27 min
  76. Bit rate                                 : 94 b/s
  77. Frame rate                               : 0.201 FPS
  78. Count of elements                        : 1781
  79. Stream size                              : 103 KiB (0%)
  80. Language                                 : Arabic
  81. Default                                  : No
  82. Forced                                   : No
  83. Text #4
  84. ID                                       : 6
  85. Format                                   : UTF-8
  86. Codec ID                                 : S_TEXT/UTF8
  87. Codec ID/Info                            : UTF-8 Plain Text
  88. Duration                                 : 2 h 33 min
  89. Bit rate                                 : 48 b/s
  90. Frame rate                               : 0.184 FPS
  91. Count of elements                        : 1703
  92. Stream size                              : 54.9 KiB (0%)
  93. Language                                 : Czech
  94. Default                                  : No
  95. Forced                                   : No
  96. Text #5
  97. ID                                       : 7
  98. Format                                   : UTF-8
  99. Codec ID                                 : S_TEXT/UTF8
  100. Codec ID/Info                            : UTF-8 Plain Text
  101. Duration                                 : 2 h 33 min
  102. Bit rate                                 : 50 b/s
  103. Frame rate                               : 0.172 FPS
  104. Count of elements                        : 1593
  105. Stream size                              : 57.1 KiB (0%)
  106. Language                                 : Danish
  107. Default                                  : No
  108. Forced                                   : No
  109. Text #6
  110. ID                                       : 8
  111. Format                                   : UTF-8
  112. Codec ID                                 : S_TEXT/UTF8
  113. Codec ID/Info                            : UTF-8 Plain Text
  114. Duration                                 : 2 h 33 min
  115. Bit rate                                 : 87 b/s
  116. Frame rate                               : 0.188 FPS
  117. Count of elements                        : 1731
  118. Stream size                              : 97.7 KiB (0%)
  119. Language                                 : Greek
  120. Default                                  : No
  121. Forced                                   : No
  122. Text #7
  123. ID                                       : 9
  124. Format                                   : UTF-8
  125. Codec ID                                 : S_TEXT/UTF8
  126. Codec ID/Info                            : UTF-8 Plain Text
  127. Duration                                 : 2 h 33 min
  128. Bit rate                                 : 53 b/s
  129. Frame rate                               : 0.189 FPS
  130. Count of elements                        : 1735
  131. Stream size                              : 60.5 KiB (0%)
  132. Language                                 : English
  133. Default                                  : No
  134. Forced                                   : No
  135. Text #8
  136. ID                                       : 10
  137. Format                                   : UTF-8
  138. Codec ID                                 : S_TEXT/UTF8
  139. Codec ID/Info                            : UTF-8 Plain Text
  140. Duration                                 : 2 h 34 min
  141. Bit rate                                 : 77 b/s
  142. Frame rate                               : 0.274 FPS
  143. Count of elements                        : 2536
  144. Stream size                              : 87.8 KiB (0%)
  145. Title                                    : SDH
  146. Language                                 : English
  147. Default                                  : No
  148. Forced                                   : No
  149. Text #9
  150. ID                                       : 11
  151. Format                                   : UTF-8
  152. Codec ID                                 : S_TEXT/UTF8
  153. Codec ID/Info                            : UTF-8 Plain Text
  154. Duration                                 : 2 h 33 min
  155. Bit rate                                 : 51 b/s
  156. Frame rate                               : 0.169 FPS
  157. Count of elements                        : 1559
  158. Stream size                              : 57.8 KiB (0%)
  159. Language                                 : Finnish
  160. Default                                  : No
  161. Forced                                   : No
  162. Text #10
  163. ID                                       : 12
  164. Format                                   : UTF-8
  165. Codec ID                                 : S_TEXT/UTF8
  166. Codec ID/Info                            : UTF-8 Plain Text
  167. Duration                                 : 2 h 33 min
  168. Bit rate                                 : 49 b/s
  169. Frame rate                               : 0.188 FPS
  170. Count of elements                        : 1741
  171. Stream size                              : 55.5 KiB (0%)
  172. Language                                 : fil
  173. Default                                  : No
  174. Forced                                   : No
  175. Text #11
  176. ID                                       : 13
  177. Format                                   : UTF-8
  178. Codec ID                                 : S_TEXT/UTF8
  179. Codec ID/Info                            : UTF-8 Plain Text
  180. Duration                                 : 2 h 33 min
  181. Bit rate                                 : 48 b/s
  182. Frame rate                               : 0.181 FPS
  183. Count of elements                        : 1673
  184. Stream size                              : 55.0 KiB (0%)
  185. Language                                 : French
  186. Default                                  : No
  187. Forced                                   : No
  188. Text #12
  189. ID                                       : 14
  190. Format                                   : UTF-8
  191. Codec ID                                 : S_TEXT/UTF8
  192. Codec ID/Info                            : UTF-8 Plain Text
  193. Duration                                 : 2 h 33 min
  194. Bit rate                                 : 79 b/s
  195. Frame rate                               : 0.194 FPS
  196. Count of elements                        : 1788
  197. Stream size                              : 89.7 KiB (0%)
  198. Language                                 : Hebrew
  199. Default                                  : No
  200. Forced                                   : No
  201. Text #13
  202. ID                                       : 15
  203. Format                                   : UTF-8
  204. Codec ID                                 : S_TEXT/UTF8
  205. Codec ID/Info                            : UTF-8 Plain Text
  206. Duration                                 : 2 h 33 min
  207. Bit rate                                 : 45 b/s
  208. Frame rate                               : 0.178 FPS
  209. Count of elements                        : 1648
  210. Stream size                              : 51.4 KiB (0%)
  211. Language                                 : Croatian
  212. Default                                  : No
  213. Forced                                   : No
  214. Text #14
  215. ID                                       : 16
  216. Format                                   : UTF-8
  217. Codec ID                                 : S_TEXT/UTF8
  218. Codec ID/Info                            : UTF-8 Plain Text
  219. Duration                                 : 2 h 33 min
  220. Bit rate                                 : 51 b/s
  221. Frame rate                               : 0.186 FPS
  222. Count of elements                        : 1719
  223. Stream size                              : 58.5 KiB (0%)
  224. Language                                 : Hungarian
  225. Default                                  : No
  226. Forced                                   : No
  227. Text #15
  228. ID                                       : 17
  229. Format                                   : UTF-8
  230. Codec ID                                 : S_TEXT/UTF8
  231. Codec ID/Info                            : UTF-8 Plain Text
  232. Duration                                 : 2 h 33 min
  233. Bit rate                                 : 50 b/s
  234. Frame rate                               : 0.186 FPS
  235. Count of elements                        : 1714
  236. Stream size                              : 56.6 KiB (0%)
  237. Language                                 : Indonesian
  238. Default                                  : No
  239. Forced                                   : No
  240. Text #16
  241. ID                                       : 18
  242. Format                                   : UTF-8
  243. Codec ID                                 : S_TEXT/UTF8
  244. Codec ID/Info                            : UTF-8 Plain Text
  245. Duration                                 : 2 h 33 min
  246. Bit rate                                 : 52 b/s
  247. Frame rate                               : 0.191 FPS
  248. Count of elements                        : 1755
  249. Stream size                              : 58.7 KiB (0%)
  250. Language                                 : Italian
  251. Default                                  : No
  252. Forced                                   : No
  253. Text #17
  254. ID                                       : 19
  255. Format                                   : UTF-8
  256. Codec ID                                 : S_TEXT/UTF8
  257. Codec ID/Info                            : UTF-8 Plain Text
  258. Duration                                 : 2 h 33 min
  259. Bit rate                                 : 49 b/s
  260. Frame rate                               : 0.200 FPS
  261. Count of elements                        : 1838
  262. Stream size                              : 55.7 KiB (0%)
  263. Language                                 : Japanese
  264. Default                                  : No
  265. Forced                                   : No
  266. Text #18
  267. ID                                       : 20
  268. Format                                   : UTF-8
  269. Codec ID                                 : S_TEXT/UTF8
  270. Codec ID/Info                            : UTF-8 Plain Text
  271. Duration                                 : 2 h 34 min
  272. Bit rate                                 : 68 b/s
  273. Frame rate                               : 0.198 FPS
  274. Count of elements                        : 1832
  275. Stream size                              : 77.4 KiB (0%)
  276. Language                                 : Korean
  277. Default                                  : No
  278. Forced                                   : No
  279. Text #19
  280. ID                                       : 21
  281. Format                                   : UTF-8
  282. Codec ID                                 : S_TEXT/UTF8
  283. Codec ID/Info                            : UTF-8 Plain Text
  284. Duration                                 : 2 h 33 min
  285. Bit rate                                 : 51 b/s
  286. Frame rate                               : 0.182 FPS
  287. Count of elements                        : 1681
  288. Stream size                              : 58.3 KiB (0%)
  289. Language                                 : Malay
  290. Default                                  : No
  291. Forced                                   : No
  292. Text #20
  293. ID                                       : 22
  294. Format                                   : UTF-8
  295. Codec ID                                 : S_TEXT/UTF8
  296. Codec ID/Info                            : UTF-8 Plain Text
  297. Duration                                 : 2 h 27 min
  298. Bit rate                                 : 51 b/s
  299. Frame rate                               : 0.193 FPS
  300. Count of elements                        : 1710
  301. Stream size                              : 56.0 KiB (0%)
  302. Language                                 : Norwegian Bokmal
  303. Default                                  : No
  304. Forced                                   : No
  305. Text #21
  306. ID                                       : 23
  307. Format                                   : UTF-8
  308. Codec ID                                 : S_TEXT/UTF8
  309. Codec ID/Info                            : UTF-8 Plain Text
  310. Duration                                 : 2 h 33 min
  311. Bit rate                                 : 51 b/s
  312. Frame rate                               : 0.179 FPS
  313. Count of elements                        : 1658
  314. Stream size                              : 58.2 KiB (0%)
  315. Language                                 : Dutch
  316. Default                                  : No
  317. Forced                                   : No
  318. Text #22
  319. ID                                       : 24
  320. Format                                   : UTF-8
  321. Codec ID                                 : S_TEXT/UTF8
  322. Codec ID/Info                            : UTF-8 Plain Text
  323. Duration                                 : 2 h 33 min
  324. Bit rate                                 : 46 b/s
  325. Frame rate                               : 0.189 FPS
  326. Count of elements                        : 1734
  327. Stream size                              : 52.2 KiB (0%)
  328. Language                                 : Polish
  329. Default                                  : No
  330. Forced                                   : No
  331. Text #23
  332. ID                                       : 25
  333. Format                                   : UTF-8
  334. Codec ID                                 : S_TEXT/UTF8
  335. Codec ID/Info                            : UTF-8 Plain Text
  336. Duration                                 : 2 h 33 min
  337. Bit rate                                 : 51 b/s
  338. Frame rate                               : 0.192 FPS
  339. Count of elements                        : 1776
  340. Stream size                              : 58.5 KiB (0%)
  341. Title                                    : Brazilian
  342. Language                                 : Portuguese (BR)
  343. Default                                  : No
  344. Forced                                   : No
  345. Text #24
  346. ID                                       : 26
  347. Format                                   : UTF-8
  348. Codec ID                                 : S_TEXT/UTF8
  349. Codec ID/Info                            : UTF-8 Plain Text
  350. Duration                                 : 2 h 33 min
  351. Bit rate                                 : 51 b/s
  352. Frame rate                               : 0.190 FPS
  353. Count of elements                        : 1753
  354. Stream size                              : 58.0 KiB (0%)
  355. Language                                 : Portuguese (PT)
  356. Default                                  : No
  357. Forced                                   : No
  358. Text #25
  359. ID                                       : 27
  360. Format                                   : UTF-8
  361. Codec ID                                 : S_TEXT/UTF8
  362. Codec ID/Info                            : UTF-8 Plain Text
  363. Duration                                 : 2 h 33 min
  364. Bit rate                                 : 57 b/s
  365. Frame rate                               : 0.192 FPS
  366. Count of elements                        : 1770
  367. Stream size                              : 65.1 KiB (0%)
  368. Language                                 : Romanian
  369. Default                                  : No
  370. Forced                                   : No
  371. Text #26
  372. ID                                       : 28
  373. Format                                   : UTF-8
  374. Codec ID                                 : S_TEXT/UTF8
  375. Codec ID/Info                            : UTF-8 Plain Text
  376. Duration                                 : 2 h 33 min
  377. Bit rate                                 : 81 b/s
  378. Frame rate                               : 0.190 FPS
  379. Count of elements                        : 1744
  380. Stream size                              : 91.9 KiB (0%)
  381. Language                                 : Russian
  382. Default                                  : No
  383. Forced                                   : No
  384. Text #27
  385. ID                                       : 29
  386. Format                                   : UTF-8
  387. Codec ID                                 : S_TEXT/UTF8
  388. Codec ID/Info                            : UTF-8 Plain Text
  389. Duration                                 : 2 h 33 min
  390. Bit rate                                 : 49 b/s
  391. Frame rate                               : 0.172 FPS
  392. Count of elements                        : 1587
  393. Stream size                              : 56.3 KiB (0%)
  394. Language                                 : Swedish
  395. Default                                  : No
  396. Forced                                   : No
  397. Text #28
  398. ID                                       : 30
  399. Format                                   : UTF-8
  400. Codec ID                                 : S_TEXT/UTF8
  401. Codec ID/Info                            : UTF-8 Plain Text
  402. Duration                                 : 2 h 33 min
  403. Bit rate                                 : 139 b/s
  404. Frame rate                               : 0.193 FPS
  405. Count of elements                        : 1787
  406. Stream size                              : 158 KiB (0%)
  407. Language                                 : Thai
  408. Default                                  : No
  409. Forced                                   : No
  410. Text #29
  411. ID                                       : 31
  412. Format                                   : UTF-8
  413. Codec ID                                 : S_TEXT/UTF8
  414. Codec ID/Info                            : UTF-8 Plain Text
  415. Duration                                 : 2 h 33 min
  416. Bit rate                                 : 51 b/s
  417. Frame rate                               : 0.182 FPS
  418. Count of elements                        : 1680
  419. Stream size                              : 58.3 KiB (0%)
  420. Language                                 : Turkish
  421. Default                                  : No
  422. Forced                                   : No
  423. Text #30
  424. ID                                       : 32
  425. Format                                   : UTF-8
  426. Codec ID                                 : S_TEXT/UTF8
  427. Codec ID/Info                            : UTF-8 Plain Text
  428. Duration                                 : 2 h 33 min
  429. Bit rate                                 : 83 b/s
  430. Frame rate                               : 0.176 FPS
  431. Count of elements                        : 1629
  432. Stream size                              : 93.8 KiB (0%)
  433. Language                                 : Ukrainian
  434. Default                                  : No
  435. Forced                                   : No
  436. Text #31
  437. ID                                       : 33
  438. Format                                   : UTF-8
  439. Codec ID                                 : S_TEXT/UTF8
  440. Codec ID/Info                            : UTF-8 Plain Text
  441. Duration                                 : 2 h 33 min
  442. Bit rate                                 : 73 b/s
  443. Frame rate                               : 0.175 FPS
  444. Count of elements                        : 1613
  445. Stream size                              : 82.8 KiB (0%)
  446. Language                                 : Vietnamese
  447. Default                                  : No
  448. Forced                                   : No
  449. Menu
  450. 02:28:40.000                             : en:End Credits
复制代码











回复

使用道具 举报

懒得打字嘛,点击右侧快捷回复 【右侧内容,后台自定义】
您需要登录后才可以回帖 登录 | 立即加入

本版积分规则

Copyright © 2024 Comsenz Inc. Powered by 蓝光电影网

本站内容由用户自主分享和转载自互联网,转载目的在于传递更多信息,并不代表本网赞同其观点和对其真实性负责。

如有侵权、违反国家法律政策行为,请联系我们,我们会第一时间及时清除和处理!

举报反馈邮箱:4k1080.com@gmail.com

快速回复 返回顶部 返回列表