找回密码

查看: 1266|回复: 1

[2160p-WEB] 上帝的笔误.Gods.Crooked.Lines.2022.SPANISH.2160p.NF.WEB-DL.DDP5.1.DV.MP4.x265-DVSUX 20.22GB

[复制链接]
蓝光币
1840
发表于 2023-1-2 14:57:28 | 显示全部楼层 |阅读模式


◎标  题 天主的笔误
◎译  名 God's Crooked Lines
◎片  名 Los renglones torcidos de Dios
◎年  代 2022
◎产  地 西班牙
◎类  别 悬疑
◎语  言 西班牙语
◎上映日期 2022-10-06(西班牙)
◎IMDb评分 7/10 (8551人评价)
◎IMDb链接 https://www.imdb.com/title/tt13229894/
◎豆瓣评分 7.6/10 (1504人评价)
◎豆瓣链接 https://movie.douban.com/subject/35358584/
◎片  长 154分钟
◎导  演 奥里奥尔·保罗 Oriol Paulo
◎编  剧 Torcuato Luca de Tena Torcuato Luca de Tena
       奥里奥尔·保罗 Oriol Paulo
       拉拉·森迪姆 Lara Sendim
◎演  员 巴巴拉·莱涅 Bárbara Lennie
       爱德华·费尔南德斯 Eduard Fernández
       洛雷托·莫利昂 Loreto Mauleón
       哈维尔·贝尔特兰 Javier Beltrán
       巴勃罗·德尔基 Pablo Derqui
       费德里科·阿瓜多 Federico Aguado
       阿德尔法·卡尔沃 Adelfa Calvo
       达芬斯·巴尔杜兹 Dafnis Balduz
       大卫·塞尔瓦斯 David Selvas
       路易斯·索莱尔 Lluís Soler
       比森特·贝尔加拉 Vicente Vergara
       Txell Aixendri  Txell Aixendri
       Joan Crosas Joan Crosas
◎简  介
  Alice作为私人观察员伪装成偏执病人进入一家神经病医院来收集关于一个内部职员古怪灭亡案件的证据。不外她在医院的“疗养”时代所碰到的工作超乎了设想,而她的明智告诉她这一切背后必有文章。一段完全陌生又布满豪情的故事行将展现在她眼前。本电影改编自Torcuato Luca de Tena同名小说。
  1. Video
  2. ID                                       : 1
  3. Format                                   : HEVC
  4. Format/Info                              : High Efficiency Video Coding
  5. Format profile                           : Main 10@L5@Main
  6. HDR format                               : Dolby Vision, Version 1.0, dvhe.05.06, BL+RPU
  7. Codec ID                                 : dvhe
  8. Codec ID/Info                            : High Efficiency Video Coding with Dolby Vision
  9. Duration                                 : 2 h 35 min
  10. Bit rate                                 : 18.0 Mb/s
  11. Width                                    : 3 840 pixels
  12. Height                                   : 2 160 pixels
  13. Display aspect ratio                     : 16:9
  14. Frame rate mode                          : Constant
  15. Frame rate                               : 24.000 FPS
  16. Color space                              : YUV
  17. Chroma subsampling                       : 4:2:0
  18. Bit depth                                : 10 bits
  19. Bits/(Pixel*Frame)                       : 0.090
  20. Stream size                              : 19.5 GiB (97%)
  21. Default                                  : Yes
  22. Alternate group                          : 1
  23. Encoded date                             : UTC 2023-01-01 16:32:03
  24. Tagged date                              : UTC 2023-01-01 16:36:12
  25. Color range                              : Full
  26. Codec configuration box                  : hvcC+dvcC
  27. Audio
  28. ID                                       : 2
  29. Format                                   : E-AC-3
  30. Format/Info                              : Enhanced AC-3
  31. Commercial name                          : Dolby Digital Plus
  32. Codec ID                                 : ec-3
  33. Duration                                 : 2 h 35 min
  34. Bit rate mode                            : Constant
  35. Bit rate                                 : 640 kb/s
  36. Maximum bit rate                         : 676 kb/s
  37. Channel(s)                               : 6 channels
  38. Channel layout                           : L R C LFE Ls Rs
  39. Sampling rate                            : 48.0 kHz
  40. Frame rate                               : 31.250 FPS (1536 SPF)
  41. Compression mode                         : Lossy
  42. Stream size                              : 711 MiB (3%)
  43. Title                                    : English
  44. Language                                 : English
  45. Service kind                             : Complete Main
  46. Default                                  : Yes
  47. Alternate group                          : 1
  48. Tagged date                              : UTC 2023-01-01 16:36:12
  49. Text #1
  50. ID                                       : 3
  51. Format                                   : Timed Text
  52. Codec ID                                 : tx3g
  53. Duration                                 : 2 h 34 min
  54. Bit rate mode                            : Variable
  55. Bit rate                                 : 61 b/s
  56. Frame rate                               : 0.375 FPS
  57. Stream size                              : 68.8 KiB (0%)
  58. Title                                    : English
  59. Language                                 : English
  60. Forced                                   : No
  61. Encoded date                             : UTC 2023-01-01 16:36:10
  62. Tagged date                              : UTC 2023-01-01 16:36:12
  63. Text #2
  64. ID                                       : 4
  65. Format                                   : Timed Text
  66. Codec ID                                 : tx3g
  67. Duration                                 : 2 h 34 min
  68. Bit rate mode                            : Variable
  69. Bit rate                                 : 89 b/s
  70. Frame rate                               : 0.548 FPS
  71. Stream size                              : 100 KiB (0%)
  72. Title                                    : English
  73. Language                                 : English
  74. Forced                                   : No
  75. Encoded date                             : UTC 2023-01-01 16:36:10
  76. Tagged date                              : UTC 2023-01-01 16:36:12
  77. Text #3
  78. ID                                       : 5
  79. Format                                   : Timed Text
  80. Codec ID                                 : tx3g
  81. Duration                                 : 2 h 28 min
  82. Bit rate mode                            : Variable
  83. Bit rate                                 : 101 b/s
  84. Frame rate                               : 0.401 FPS
  85. Stream size                              : 109 KiB (0%)
  86. Title                                    : Arabic
  87. Language                                 : Arabic
  88. Forced                                   : No
  89. Encoded date                             : UTC 2023-01-01 16:36:10
  90. Tagged date                              : UTC 2023-01-01 16:36:12
  91. Text #4
  92. ID                                       : 6
  93. Format                                   : Timed Text
  94. Codec ID                                 : tx3g
  95. Duration                                 : 2 h 34 min
  96. Bit rate mode                            : Variable
  97. Bit rate                                 : 52 b/s
  98. Frame rate                               : 0.356 FPS
  99. Stream size                              : 59.1 KiB (0%)
  100. Title                                    : Croatian
  101. Language                                 : Croatian
  102. Forced                                   : No
  103. Encoded date                             : UTC 2023-01-01 16:36:10
  104. Tagged date                              : UTC 2023-01-01 16:36:12
  105. Text #5
  106. ID                                       : 7
  107. Format                                   : Timed Text
  108. Codec ID                                 : tx3g
  109. Duration                                 : 2 h 34 min
  110. Bit rate mode                            : Variable
  111. Bit rate                                 : 56 b/s
  112. Frame rate                               : 0.368 FPS
  113. Stream size                              : 63.0 KiB (0%)
  114. Title                                    : Czech
  115. Language                                 : Czech
  116. Forced                                   : No
  117. Encoded date                             : UTC 2023-01-01 16:36:10
  118. Tagged date                              : UTC 2023-01-01 16:36:12
  119. Text #6
  120. ID                                       : 8
  121. Format                                   : Timed Text
  122. Codec ID                                 : tx3g
  123. Duration                                 : 2 h 34 min
  124. Bit rate mode                            : Variable
  125. Bit rate                                 : 57 b/s
  126. Frame rate                               : 0.344 FPS
  127. Stream size                              : 64.5 KiB (0%)
  128. Title                                    : Danish
  129. Language                                 : Danish
  130. Forced                                   : No
  131. Encoded date                             : UTC 2023-01-01 16:36:10
  132. Tagged date                              : UTC 2023-01-01 16:36:12
  133. Text #7
  134. ID                                       : 9
  135. Format                                   : Timed Text
  136. Codec ID                                 : tx3g
  137. Duration                                 : 2 h 34 min
  138. Bit rate mode                            : Variable
  139. Bit rate                                 : 57 b/s
  140. Frame rate                               : 0.358 FPS
  141. Stream size                              : 64.0 KiB (0%)
  142. Title                                    : Dutch
  143. Language                                 : Dutch
  144. Forced                                   : No
  145. Encoded date                             : UTC 2023-01-01 16:36:10
  146. Tagged date                              : UTC 2023-01-01 16:36:12
  147. Text #8
  148. ID                                       : 10
  149. Format                                   : Timed Text
  150. Codec ID                                 : tx3g
  151. Duration                                 : 2 h 34 min
  152. Bit rate mode                            : Variable
  153. Bit rate                                 : 57 b/s
  154. Frame rate                               : 0.376 FPS
  155. Stream size                              : 64.1 KiB (0%)
  156. Title                                    : Filipino
  157. Language                                 : fil
  158. Forced                                   : No
  159. Encoded date                             : UTC 2023-01-01 16:36:10
  160. Tagged date                              : UTC 2023-01-01 16:36:12
  161. Text #9
  162. ID                                       : 11
  163. Format                                   : Timed Text
  164. Codec ID                                 : tx3g
  165. Duration                                 : 2 h 34 min
  166. Bit rate mode                            : Variable
  167. Bit rate                                 : 58 b/s
  168. Frame rate                               : 0.337 FPS
  169. Stream size                              : 65.1 KiB (0%)
  170. Title                                    : Finnish
  171. Language                                 : Finnish
  172. Forced                                   : No
  173. Encoded date                             : UTC 2023-01-01 16:36:10
  174. Tagged date                              : UTC 2023-01-01 16:36:12
  175. Text #10
  176. ID                                       : 12
  177. Format                                   : Timed Text
  178. Codec ID                                 : tx3g
  179. Duration                                 : 2 h 34 min
  180. Bit rate mode                            : Variable
  181. Bit rate                                 : 56 b/s
  182. Frame rate                               : 0.362 FPS
  183. Stream size                              : 62.9 KiB (0%)
  184. Title                                    : French
  185. Language                                 : French
  186. Forced                                   : No
  187. Encoded date                             : UTC 2023-01-01 16:36:10
  188. Tagged date                              : UTC 2023-01-01 16:36:12
  189. Text #11
  190. ID                                       : 13
  191. Format                                   : Timed Text
  192. Codec ID                                 : tx3g
  193. Duration                                 : 2 h 34 min
  194. Bit rate mode                            : Variable
  195. Bit rate                                 : 94 b/s
  196. Frame rate                               : 0.374 FPS
  197. Stream size                              : 106 KiB (0%)
  198. Title                                    : Greek
  199. Language                                 : Greek
  200. Forced                                   : No
  201. Encoded date                             : UTC 2023-01-01 16:36:11
  202. Tagged date                              : UTC 2023-01-01 16:36:12
  203. Text #12
  204. ID                                       : 14
  205. Format                                   : Timed Text
  206. Codec ID                                 : tx3g
  207. Duration                                 : 2 h 34 min
  208. Bit rate mode                            : Variable
  209. Bit rate                                 : 85 b/s
  210. Frame rate                               : 0.387 FPS
  211. Stream size                              : 96.3 KiB (0%)
  212. Title                                    : Hebrew
  213. Language                                 : Hebrew
  214. Forced                                   : No
  215. Encoded date                             : UTC 2023-01-01 16:36:11
  216. Tagged date                              : UTC 2023-01-01 16:36:12
  217. Text #13
  218. ID                                       : 15
  219. Format                                   : Timed Text
  220. Codec ID                                 : tx3g
  221. Duration                                 : 2 h 34 min
  222. Bit rate mode                            : Variable
  223. Bit rate                                 : 59 b/s
  224. Frame rate                               : 0.372 FPS
  225. Stream size                              : 66.8 KiB (0%)
  226. Title                                    : Hungarian
  227. Language                                 : Hungarian
  228. Forced                                   : No
  229. Encoded date                             : UTC 2023-01-01 16:36:11
  230. Tagged date                              : UTC 2023-01-01 16:36:12
  231. Text #14
  232. ID                                       : 16
  233. Format                                   : Timed Text
  234. Codec ID                                 : tx3g
  235. Duration                                 : 2 h 34 min
  236. Bit rate mode                            : Variable
  237. Bit rate                                 : 57 b/s
  238. Frame rate                               : 0.371 FPS
  239. Stream size                              : 64.7 KiB (0%)
  240. Title                                    : Indonesian
  241. Language                                 : Indonesian
  242. Forced                                   : No
  243. Encoded date                             : UTC 2023-01-01 16:36:11
  244. Tagged date                              : UTC 2023-01-01 16:36:12
  245. Text #15
  246. ID                                       : 17
  247. Format                                   : Timed Text
  248. Codec ID                                 : tx3g
  249. Duration                                 : 2 h 34 min
  250. Bit rate mode                            : Variable
  251. Bit rate                                 : 59 b/s
  252. Frame rate                               : 0.379 FPS
  253. Stream size                              : 66.9 KiB (0%)
  254. Title                                    : Italian
  255. Language                                 : Italian
  256. Forced                                   : No
  257. Encoded date                             : UTC 2023-01-01 16:36:11
  258. Tagged date                              : UTC 2023-01-01 16:36:12
  259. Text #16
  260. ID                                       : 18
  261. Format                                   : Timed Text
  262. Codec ID                                 : tx3g
  263. Duration                                 : 2 h 34 min
  264. Bit rate mode                            : Variable
  265. Bit rate                                 : 55 b/s
  266. Frame rate                               : 0.395 FPS
  267. Stream size                              : 62.4 KiB (0%)
  268. Title                                    : Japanese
  269. Language                                 : Japanese
  270. Forced                                   : No
  271. Encoded date                             : UTC 2023-01-01 16:36:11
  272. Tagged date                              : UTC 2023-01-01 16:36:12
  273. Text #17
  274. ID                                       : 19
  275. Format                                   : Timed Text
  276. Codec ID                                 : tx3g
  277. Duration                                 : 2 h 34 min
  278. Bit rate mode                            : Variable
  279. Bit rate                                 : 74 b/s
  280. Frame rate                               : 0.396 FPS
  281. Stream size                              : 83.8 KiB (0%)
  282. Title                                    : Korean
  283. Language                                 : Korean
  284. Forced                                   : No
  285. Encoded date                             : UTC 2023-01-01 16:36:11
  286. Tagged date                              : UTC 2023-01-01 16:36:12
  287. Text #18
  288. ID                                       : 20
  289. Format                                   : Timed Text
  290. Codec ID                                 : tx3g
  291. Duration                                 : 2 h 34 min
  292. Bit rate mode                            : Variable
  293. Bit rate                                 : 59 b/s
  294. Frame rate                               : 0.363 FPS
  295. Stream size                              : 66.3 KiB (0%)
  296. Title                                    : Malay
  297. Language                                 : Malay
  298. Forced                                   : No
  299. Encoded date                             : UTC 2023-01-01 16:36:11
  300. Tagged date                              : UTC 2023-01-01 16:36:12
  301. Text #19
  302. ID                                       : 21
  303. Format                                   : Timed Text
  304. Codec ID                                 : tx3g
  305. Duration                                 : 2 h 28 min
  306. Bit rate mode                            : Variable
  307. Bit rate                                 : 59 b/s
  308. Frame rate                               : 0.385 FPS
  309. Stream size                              : 63.9 KiB (0%)
  310. Title                                    : Norwegian
  311. Language                                 : Norwegian Bokmal
  312. Forced                                   : No
  313. Encoded date                             : UTC 2023-01-01 16:36:11
  314. Tagged date                              : UTC 2023-01-01 16:36:12
  315. Text #20
  316. ID                                       : 22
  317. Format                                   : Timed Text
  318. Codec ID                                 : tx3g
  319. Duration                                 : 2 h 34 min
  320. Bit rate mode                            : Variable
  321. Bit rate                                 : 53 b/s
  322. Frame rate                               : 0.375 FPS
  323. Stream size                              : 60.4 KiB (0%)
  324. Title                                    : Polish
  325. Language                                 : Polish
  326. Forced                                   : No
  327. Encoded date                             : UTC 2023-01-01 16:36:11
  328. Tagged date                              : UTC 2023-01-01 16:36:12
  329. Text #21
  330. ID                                       : 23
  331. Format                                   : Timed Text
  332. Codec ID                                 : tx3g
  333. Duration                                 : 2 h 34 min
  334. Bit rate mode                            : Variable
  335. Bit rate                                 : 59 b/s
  336. Frame rate                               : 0.379 FPS
  337. Stream size                              : 66.4 KiB (0%)
  338. Title                                    : Portuguese
  339. Language                                 : Portuguese
  340. Forced                                   : No
  341. Encoded date                             : UTC 2023-01-01 16:36:11
  342. Tagged date                              : UTC 2023-01-01 16:36:12
  343. Text #22
  344. ID                                       : 24
  345. Format                                   : Timed Text
  346. Codec ID                                 : tx3g
  347. Duration                                 : 2 h 34 min
  348. Bit rate mode                            : Variable
  349. Bit rate                                 : 59 b/s
  350. Frame rate                               : 0.384 FPS
  351. Stream size                              : 67.0 KiB (0%)
  352. Title                                    : Portuguese-BR
  353. Language                                 : Portuguese (BR)
  354. Forced                                   : No
  355. Encoded date                             : UTC 2023-01-01 16:36:11
  356. Tagged date                              : UTC 2023-01-01 16:36:12
  357. Text #23
  358. ID                                       : 25
  359. Format                                   : Timed Text
  360. Codec ID                                 : tx3g
  361. Duration                                 : 2 h 34 min
  362. Bit rate mode                            : Variable
  363. Bit rate                                 : 65 b/s
  364. Frame rate                               : 0.383 FPS
  365. Stream size                              : 73.4 KiB (0%)
  366. Title                                    : Romanian
  367. Language                                 : Romanian
  368. Forced                                   : No
  369. Encoded date                             : UTC 2023-01-01 16:36:12
  370. Tagged date                              : UTC 2023-01-01 16:36:12
  371. Text #24
  372. ID                                       : 26
  373. Format                                   : Timed Text
  374. Codec ID                                 : tx3g
  375. Duration                                 : 2 h 34 min
  376. Bit rate mode                            : Variable
  377. Bit rate                                 : 89 b/s
  378. Frame rate                               : 0.377 FPS
  379. Stream size                              : 100 KiB (0%)
  380. Title                                    : Russian
  381. Language                                 : Russian
  382. Forced                                   : No
  383. Encoded date                             : UTC 2023-01-01 16:36:12
  384. Tagged date                              : UTC 2023-01-01 16:36:12
  385. Text #25
  386. ID                                       : 27
  387. Format                                   : Timed Text
  388. Codec ID                                 : tx3g
  389. Duration                                 : 2 h 28 min
  390. Bit rate mode                            : Variable
  391. Bit rate                                 : 68 b/s
  392. Frame rate                               : 0.414 FPS
  393. Stream size                              : 74.2 KiB (0%)
  394. Title                                    : Spanish-EU
  395. Language                                 : Spanish
  396. Forced                                   : No
  397. Encoded date                             : UTC 2023-01-01 16:36:12
  398. Tagged date                              : UTC 2023-01-01 16:36:12
  399. Text #26
  400. ID                                       : 28
  401. Format                                   : Timed Text
  402. Codec ID                                 : tx3g
  403. Duration                                 : 2 h 28 min
  404. Bit rate mode                            : Variable
  405. Bit rate                                 : 78 b/s
  406. Frame rate                               : 0.489 FPS
  407. Stream size                              : 85.2 KiB (0%)
  408. Title                                    : Spanish-EU
  409. Language                                 : Spanish
  410. Forced                                   : No
  411. Encoded date                             : UTC 2023-01-01 16:36:12
  412. Tagged date                              : UTC 2023-01-01 16:36:12
  413. Text #27
  414. ID                                       : 29
  415. Format                                   : Timed Text
  416. Codec ID                                 : tx3g
  417. Duration                                 : 2 h 34 min
  418. Bit rate mode                            : Variable
  419. Bit rate                                 : 56 b/s
  420. Frame rate                               : 0.343 FPS
  421. Stream size                              : 63.8 KiB (0%)
  422. Title                                    : Swedish
  423. Language                                 : Swedish
  424. Forced                                   : No
  425. Encoded date                             : UTC 2023-01-01 16:36:12
  426. Tagged date                              : UTC 2023-01-01 16:36:12
  427. Text #28
  428. ID                                       : 30
  429. Format                                   : Timed Text
  430. Codec ID                                 : tx3g
  431. Duration                                 : 2 h 34 min
  432. Bit rate mode                            : Variable
  433. Bit rate                                 : 146 b/s
  434. Frame rate                               : 0.386 FPS
  435. Stream size                              : 164 KiB (0%)
  436. Title                                    : Thai
  437. Language                                 : Thai
  438. Forced                                   : No
  439. Encoded date                             : UTC 2023-01-01 16:36:12
  440. Tagged date                              : UTC 2023-01-01 16:36:12
  441. Text #29
  442. ID                                       : 31
  443. Format                                   : Timed Text
  444. Codec ID                                 : tx3g
  445. Duration                                 : 2 h 34 min
  446. Bit rate mode                            : Variable
  447. Bit rate                                 : 59 b/s
  448. Frame rate                               : 0.363 FPS
  449. Stream size                              : 66.2 KiB (0%)
  450. Title                                    : Turkish
  451. Language                                 : Turkish
  452. Forced                                   : No
  453. Encoded date                             : UTC 2023-01-01 16:36:12
  454. Tagged date                              : UTC 2023-01-01 16:36:12
  455. Text #30
  456. ID                                       : 32
  457. Format                                   : Timed Text
  458. Codec ID                                 : tx3g
  459. Duration                                 : 2 h 34 min
  460. Bit rate mode                            : Variable
  461. Bit rate                                 : 90 b/s
  462. Frame rate                               : 0.352 FPS
  463. Stream size                              : 101 KiB (0%)
  464. Title                                    : Ukrainian
  465. Language                                 : Ukrainian
  466. Forced                                   : No
  467. Encoded date                             : UTC 2023-01-01 16:36:12
  468. Tagged date                              : UTC 2023-01-01 16:36:12
  469. Text #31
  470. ID                                       : 33
  471. Format                                   : Timed Text
  472. Codec ID                                 : tx3g
  473. Duration                                 : 2 h 34 min
  474. Bit rate mode                            : Variable
  475. Bit rate                                 : 80 b/s
  476. Frame rate                               : 0.349 FPS
  477. Stream size                              : 90.4 KiB (0%)
  478. Title                                    : Vietnamese
  479. Language                                 : Vietnamese
  480. Forced                                   : No
  481. Encoded date                             : UTC 2023-01-01 16:36:12
  482. Tagged date                              : UTC 2023-01-01 16:36:12
复制代码











回复

使用道具 举报

头像被屏蔽
蓝光币
223
发表于 2023-6-25 20:58:44 | 显示全部楼层
提示: 该帖被管理员或版主屏蔽
回复

使用道具 举报

懒得打字嘛,点击右侧快捷回复 【右侧内容,后台自定义】
您需要登录后才可以回帖 登录 | 立即加入

本版积分规则

Copyright © 2024 Comsenz Inc. Powered by 蓝光电影网

本站内容由用户自主分享和转载自互联网,转载目的在于传递更多信息,并不代表本网赞同其观点和对其真实性负责。

如有侵权、违反国家法律政策行为,请联系我们,我们会第一时间及时清除和处理!

举报反馈邮箱:4k1080.com@gmail.com

快速回复 返回顶部 返回列表