找回密码

查看: 1409|回复: 0

[2160p-WEB] 上帝的笔误.Gods.Crooked.Lines.2022.SPANISH.2160p.NF.WEB-DL.x265.10bit.HDR.DDP5.1-COPiUM 13.45GB

[复制链接]
蓝光币
1848
发表于 2023-1-2 14:57:29 | 显示全部楼层 |阅读模式


◎标  题 天主的笔误
◎译  名 God's Crooked Lines
◎片  名 Los renglones torcidos de Dios
◎年  代 2022
◎产  地 西班牙
◎类  别 悬疑
◎语  言 西班牙语
◎上映日期 2022-10-06(西班牙)
◎IMDb评分 7/10 (8551人评价)
◎IMDb链接 https://www.imdb.com/title/tt13229894/
◎豆瓣评分 7.6/10 (1504人评价)
◎豆瓣链接 https://movie.douban.com/subject/35358584/
◎片  长 154分钟
◎导  演 奥里奥尔·保罗 Oriol Paulo
◎编  剧 Torcuato Luca de Tena Torcuato Luca de Tena
       奥里奥尔·保罗 Oriol Paulo
       拉拉·森迪姆 Lara Sendim
◎演  员 巴巴拉·莱涅 Bárbara Lennie
       爱德华·费尔南德斯 Eduard Fernández
       洛雷托·莫利昂 Loreto Mauleón
       哈维尔·贝尔特兰 Javier Beltrán
       巴勃罗·德尔基 Pablo Derqui
       费德里科·阿瓜多 Federico Aguado
       阿德尔法·卡尔沃 Adelfa Calvo
       达芬斯·巴尔杜兹 Dafnis Balduz
       大卫·塞尔瓦斯 David Selvas
       路易斯·索莱尔 Lluís Soler
       比森特·贝尔加拉 Vicente Vergara
       Txell Aixendri  Txell Aixendri
       Joan Crosas Joan Crosas
◎简  介
  Alice作为私人观察员伪装成偏执病人进入一家神经病医院来收集关于一个内部职员古怪灭亡案件的证据。不外她在医院的“疗养”时代所碰到的工作超乎了设想,而她的明智告诉她这一切背后必有文章。一段完全陌生又布满豪情的故事行将展现在她眼前。本电影改编自Torcuato Luca de Tena同名小说。
  1. Video
  2. ID                                       : 1
  3. Format                                   : HEVC
  4. Format/Info                              : High Efficiency Video Coding
  5. Format profile                           : Main 10@L5@Main
  6. HDR format                               : Dolby Vision, Version 1.0, dvhe.08.06, BL+RPU, HDR10 compatible / SMPTE ST 2086, HDR10 compatible
  7. Codec ID                                 : V_MPEGH/ISO/HEVC
  8. Duration                                 : 2 h 34 min
  9. Bit rate                                 : 11.8 Mb/s
  10. Width                                    : 3 840 pixels
  11. Height                                   : 2 160 pixels
  12. Display aspect ratio                     : 16:9
  13. Frame rate mode                          : Constant
  14. Frame rate                               : 24.000 FPS
  15. Color space                              : YUV
  16. Chroma subsampling                       : 4:2:0 (Type 2)
  17. Bit depth                                : 10 bits
  18. Bits/(Pixel*Frame)                       : 0.059
  19. Stream size                              : 12.8 GiB (95%)
  20. Language                                 : Spanish (ES)
  21. Default                                  : Yes
  22. Forced                                   : No
  23. Color range                              : Limited
  24. Color primaries                          : BT.2020
  25. Transfer characteristics                 : PQ
  26. Matrix coefficients                      : BT.2020 non-constant
  27. Mastering display color primaries        : Display P3
  28. Mastering display luminance              : min: 0.0001 cd/m2, max: 1000 cd/m2
  29. Maximum Content Light Level              : 840 cd/m2
  30. Maximum Frame-Average Light Level        : 97 cd/m2
  31. Audio
  32. ID                                       : 2
  33. Format                                   : E-AC-3
  34. Format/Info                              : Enhanced AC-3
  35. Commercial name                          : Dolby Digital Plus
  36. Codec ID                                 : A_EAC3
  37. Duration                                 : 2 h 35 min
  38. Bit rate mode                            : Constant
  39. Bit rate                                 : 640 kb/s
  40. Channel(s)                               : 6 channels
  41. Channel layout                           : L R C LFE Ls Rs
  42. Sampling rate                            : 48.0 kHz
  43. Frame rate                               : 31.250 FPS (1536 SPF)
  44. Compression mode                         : Lossy
  45. Stream size                              : 711 MiB (5%)
  46. Language                                 : Spanish (ES)
  47. Service kind                             : Complete Main
  48. Default                                  : Yes
  49. Forced                                   : No
  50. Text #1
  51. ID                                       : 3
  52. Format                                   : UTF-8
  53. Codec ID                                 : S_TEXT/UTF8
  54. Codec ID/Info                            : UTF-8 Plain Text
  55. Duration                                 : 2 h 26 min
  56. Bit rate                                 : 61 b/s
  57. Frame rate                               : 0.209 FPS
  58. Count of elements                        : 1840
  59. Stream size                              : 65.6 KiB (0%)
  60. Language                                 : Spanish (ES)
  61. Default                                  : No
  62. Forced                                   : No
  63. Text #2
  64. ID                                       : 4
  65. Format                                   : UTF-8
  66. Codec ID                                 : S_TEXT/UTF8
  67. Codec ID/Info                            : UTF-8 Plain Text
  68. Duration                                 : 2 h 28 min
  69. Bit rate                                 : 69 b/s
  70. Frame rate                               : 0.244 FPS
  71. Count of elements                        : 2177
  72. Stream size                              : 75.3 KiB (0%)
  73. Title                                    : SDH
  74. Language                                 : Spanish (ES)
  75. Default                                  : No
  76. Forced                                   : No
  77. Text #3
  78. ID                                       : 5
  79. Format                                   : UTF-8
  80. Codec ID                                 : S_TEXT/UTF8
  81. Codec ID/Info                            : UTF-8 Plain Text
  82. Duration                                 : 2 h 27 min
  83. Bit rate                                 : 94 b/s
  84. Frame rate                               : 0.201 FPS
  85. Count of elements                        : 1781
  86. Stream size                              : 103 KiB (0%)
  87. Language                                 : Arabic
  88. Default                                  : No
  89. Forced                                   : No
  90. Text #4
  91. ID                                       : 6
  92. Format                                   : UTF-8
  93. Codec ID                                 : S_TEXT/UTF8
  94. Codec ID/Info                            : UTF-8 Plain Text
  95. Duration                                 : 2 h 33 min
  96. Bit rate                                 : 48 b/s
  97. Frame rate                               : 0.184 FPS
  98. Count of elements                        : 1703
  99. Stream size                              : 54.9 KiB (0%)
  100. Language                                 : Czech
  101. Default                                  : No
  102. Forced                                   : No
  103. Text #5
  104. ID                                       : 7
  105. Format                                   : UTF-8
  106. Codec ID                                 : S_TEXT/UTF8
  107. Codec ID/Info                            : UTF-8 Plain Text
  108. Duration                                 : 2 h 33 min
  109. Bit rate                                 : 50 b/s
  110. Frame rate                               : 0.172 FPS
  111. Count of elements                        : 1593
  112. Stream size                              : 57.1 KiB (0%)
  113. Language                                 : Danish
  114. Default                                  : No
  115. Forced                                   : No
  116. Text #6
  117. ID                                       : 8
  118. Format                                   : UTF-8
  119. Codec ID                                 : S_TEXT/UTF8
  120. Codec ID/Info                            : UTF-8 Plain Text
  121. Duration                                 : 2 h 33 min
  122. Bit rate                                 : 87 b/s
  123. Frame rate                               : 0.188 FPS
  124. Count of elements                        : 1731
  125. Stream size                              : 97.7 KiB (0%)
  126. Language                                 : Greek
  127. Default                                  : No
  128. Forced                                   : No
  129. Text #7
  130. ID                                       : 9
  131. Format                                   : UTF-8
  132. Codec ID                                 : S_TEXT/UTF8
  133. Codec ID/Info                            : UTF-8 Plain Text
  134. Duration                                 : 2 h 33 min
  135. Bit rate                                 : 53 b/s
  136. Frame rate                               : 0.189 FPS
  137. Count of elements                        : 1735
  138. Stream size                              : 60.5 KiB (0%)
  139. Language                                 : English
  140. Default                                  : No
  141. Forced                                   : No
  142. Text #8
  143. ID                                       : 10
  144. Format                                   : UTF-8
  145. Codec ID                                 : S_TEXT/UTF8
  146. Codec ID/Info                            : UTF-8 Plain Text
  147. Duration                                 : 2 h 34 min
  148. Bit rate                                 : 77 b/s
  149. Frame rate                               : 0.274 FPS
  150. Count of elements                        : 2536
  151. Stream size                              : 87.8 KiB (0%)
  152. Title                                    : SDH
  153. Language                                 : English
  154. Default                                  : No
  155. Forced                                   : No
  156. Text #9
  157. ID                                       : 11
  158. Format                                   : UTF-8
  159. Codec ID                                 : S_TEXT/UTF8
  160. Codec ID/Info                            : UTF-8 Plain Text
  161. Duration                                 : 2 h 33 min
  162. Bit rate                                 : 51 b/s
  163. Frame rate                               : 0.169 FPS
  164. Count of elements                        : 1559
  165. Stream size                              : 57.8 KiB (0%)
  166. Language                                 : Finnish
  167. Default                                  : No
  168. Forced                                   : No
  169. Text #10
  170. ID                                       : 12
  171. Format                                   : UTF-8
  172. Codec ID                                 : S_TEXT/UTF8
  173. Codec ID/Info                            : UTF-8 Plain Text
  174. Duration                                 : 2 h 33 min
  175. Bit rate                                 : 49 b/s
  176. Frame rate                               : 0.188 FPS
  177. Count of elements                        : 1741
  178. Stream size                              : 55.5 KiB (0%)
  179. Language                                 : fil
  180. Default                                  : No
  181. Forced                                   : No
  182. Text #11
  183. ID                                       : 13
  184. Format                                   : UTF-8
  185. Codec ID                                 : S_TEXT/UTF8
  186. Codec ID/Info                            : UTF-8 Plain Text
  187. Duration                                 : 2 h 33 min
  188. Bit rate                                 : 48 b/s
  189. Frame rate                               : 0.181 FPS
  190. Count of elements                        : 1673
  191. Stream size                              : 55.0 KiB (0%)
  192. Language                                 : French
  193. Default                                  : No
  194. Forced                                   : No
  195. Text #12
  196. ID                                       : 14
  197. Format                                   : UTF-8
  198. Codec ID                                 : S_TEXT/UTF8
  199. Codec ID/Info                            : UTF-8 Plain Text
  200. Duration                                 : 2 h 33 min
  201. Bit rate                                 : 79 b/s
  202. Frame rate                               : 0.194 FPS
  203. Count of elements                        : 1788
  204. Stream size                              : 89.7 KiB (0%)
  205. Language                                 : Hebrew
  206. Default                                  : No
  207. Forced                                   : No
  208. Text #13
  209. ID                                       : 15
  210. Format                                   : UTF-8
  211. Codec ID                                 : S_TEXT/UTF8
  212. Codec ID/Info                            : UTF-8 Plain Text
  213. Duration                                 : 2 h 33 min
  214. Bit rate                                 : 45 b/s
  215. Frame rate                               : 0.178 FPS
  216. Count of elements                        : 1648
  217. Stream size                              : 51.4 KiB (0%)
  218. Language                                 : Croatian
  219. Default                                  : No
  220. Forced                                   : No
  221. Text #14
  222. ID                                       : 16
  223. Format                                   : UTF-8
  224. Codec ID                                 : S_TEXT/UTF8
  225. Codec ID/Info                            : UTF-8 Plain Text
  226. Duration                                 : 2 h 33 min
  227. Bit rate                                 : 51 b/s
  228. Frame rate                               : 0.186 FPS
  229. Count of elements                        : 1719
  230. Stream size                              : 58.5 KiB (0%)
  231. Language                                 : Hungarian
  232. Default                                  : No
  233. Forced                                   : No
  234. Text #15
  235. ID                                       : 17
  236. Format                                   : UTF-8
  237. Codec ID                                 : S_TEXT/UTF8
  238. Codec ID/Info                            : UTF-8 Plain Text
  239. Duration                                 : 2 h 33 min
  240. Bit rate                                 : 50 b/s
  241. Frame rate                               : 0.186 FPS
  242. Count of elements                        : 1714
  243. Stream size                              : 56.6 KiB (0%)
  244. Language                                 : Indonesian
  245. Default                                  : No
  246. Forced                                   : No
  247. Text #16
  248. ID                                       : 18
  249. Format                                   : UTF-8
  250. Codec ID                                 : S_TEXT/UTF8
  251. Codec ID/Info                            : UTF-8 Plain Text
  252. Duration                                 : 2 h 33 min
  253. Bit rate                                 : 52 b/s
  254. Frame rate                               : 0.191 FPS
  255. Count of elements                        : 1755
  256. Stream size                              : 58.7 KiB (0%)
  257. Language                                 : Italian
  258. Default                                  : No
  259. Forced                                   : No
  260. Text #17
  261. ID                                       : 19
  262. Format                                   : UTF-8
  263. Codec ID                                 : S_TEXT/UTF8
  264. Codec ID/Info                            : UTF-8 Plain Text
  265. Duration                                 : 2 h 33 min
  266. Bit rate                                 : 49 b/s
  267. Frame rate                               : 0.200 FPS
  268. Count of elements                        : 1838
  269. Stream size                              : 55.7 KiB (0%)
  270. Language                                 : Japanese
  271. Default                                  : No
  272. Forced                                   : No
  273. Text #18
  274. ID                                       : 20
  275. Format                                   : UTF-8
  276. Codec ID                                 : S_TEXT/UTF8
  277. Codec ID/Info                            : UTF-8 Plain Text
  278. Duration                                 : 2 h 34 min
  279. Bit rate                                 : 68 b/s
  280. Frame rate                               : 0.198 FPS
  281. Count of elements                        : 1832
  282. Stream size                              : 77.4 KiB (0%)
  283. Language                                 : Korean
  284. Default                                  : No
  285. Forced                                   : No
  286. Text #19
  287. ID                                       : 21
  288. Format                                   : UTF-8
  289. Codec ID                                 : S_TEXT/UTF8
  290. Codec ID/Info                            : UTF-8 Plain Text
  291. Duration                                 : 2 h 33 min
  292. Bit rate                                 : 51 b/s
  293. Frame rate                               : 0.182 FPS
  294. Count of elements                        : 1681
  295. Stream size                              : 58.3 KiB (0%)
  296. Language                                 : Malay
  297. Default                                  : No
  298. Forced                                   : No
  299. Text #20
  300. ID                                       : 22
  301. Format                                   : UTF-8
  302. Codec ID                                 : S_TEXT/UTF8
  303. Codec ID/Info                            : UTF-8 Plain Text
  304. Duration                                 : 2 h 27 min
  305. Bit rate                                 : 51 b/s
  306. Frame rate                               : 0.193 FPS
  307. Count of elements                        : 1710
  308. Stream size                              : 56.0 KiB (0%)
  309. Language                                 : Norwegian Bokmal
  310. Default                                  : No
  311. Forced                                   : No
  312. Text #21
  313. ID                                       : 23
  314. Format                                   : UTF-8
  315. Codec ID                                 : S_TEXT/UTF8
  316. Codec ID/Info                            : UTF-8 Plain Text
  317. Duration                                 : 2 h 33 min
  318. Bit rate                                 : 51 b/s
  319. Frame rate                               : 0.179 FPS
  320. Count of elements                        : 1658
  321. Stream size                              : 58.2 KiB (0%)
  322. Language                                 : Dutch
  323. Default                                  : No
  324. Forced                                   : No
  325. Text #22
  326. ID                                       : 24
  327. Format                                   : UTF-8
  328. Codec ID                                 : S_TEXT/UTF8
  329. Codec ID/Info                            : UTF-8 Plain Text
  330. Duration                                 : 2 h 33 min
  331. Bit rate                                 : 46 b/s
  332. Frame rate                               : 0.189 FPS
  333. Count of elements                        : 1734
  334. Stream size                              : 52.2 KiB (0%)
  335. Language                                 : Polish
  336. Default                                  : No
  337. Forced                                   : No
  338. Text #23
  339. ID                                       : 25
  340. Format                                   : UTF-8
  341. Codec ID                                 : S_TEXT/UTF8
  342. Codec ID/Info                            : UTF-8 Plain Text
  343. Duration                                 : 2 h 33 min
  344. Bit rate                                 : 51 b/s
  345. Frame rate                               : 0.192 FPS
  346. Count of elements                        : 1776
  347. Stream size                              : 58.5 KiB (0%)
  348. Title                                    : Brazilian
  349. Language                                 : Portuguese (BR)
  350. Default                                  : No
  351. Forced                                   : No
  352. Text #24
  353. ID                                       : 26
  354. Format                                   : UTF-8
  355. Codec ID                                 : S_TEXT/UTF8
  356. Codec ID/Info                            : UTF-8 Plain Text
  357. Duration                                 : 2 h 33 min
  358. Bit rate                                 : 51 b/s
  359. Frame rate                               : 0.190 FPS
  360. Count of elements                        : 1753
  361. Stream size                              : 58.0 KiB (0%)
  362. Language                                 : Portuguese (PT)
  363. Default                                  : No
  364. Forced                                   : No
  365. Text #25
  366. ID                                       : 27
  367. Format                                   : UTF-8
  368. Codec ID                                 : S_TEXT/UTF8
  369. Codec ID/Info                            : UTF-8 Plain Text
  370. Duration                                 : 2 h 33 min
  371. Bit rate                                 : 57 b/s
  372. Frame rate                               : 0.192 FPS
  373. Count of elements                        : 1770
  374. Stream size                              : 65.1 KiB (0%)
  375. Language                                 : Romanian
  376. Default                                  : No
  377. Forced                                   : No
  378. Text #26
  379. ID                                       : 28
  380. Format                                   : UTF-8
  381. Codec ID                                 : S_TEXT/UTF8
  382. Codec ID/Info                            : UTF-8 Plain Text
  383. Duration                                 : 2 h 33 min
  384. Bit rate                                 : 81 b/s
  385. Frame rate                               : 0.190 FPS
  386. Count of elements                        : 1744
  387. Stream size                              : 91.9 KiB (0%)
  388. Language                                 : Russian
  389. Default                                  : No
  390. Forced                                   : No
  391. Text #27
  392. ID                                       : 29
  393. Format                                   : UTF-8
  394. Codec ID                                 : S_TEXT/UTF8
  395. Codec ID/Info                            : UTF-8 Plain Text
  396. Duration                                 : 2 h 33 min
  397. Bit rate                                 : 49 b/s
  398. Frame rate                               : 0.172 FPS
  399. Count of elements                        : 1587
  400. Stream size                              : 56.3 KiB (0%)
  401. Language                                 : Swedish
  402. Default                                  : No
  403. Forced                                   : No
  404. Text #28
  405. ID                                       : 30
  406. Format                                   : UTF-8
  407. Codec ID                                 : S_TEXT/UTF8
  408. Codec ID/Info                            : UTF-8 Plain Text
  409. Duration                                 : 2 h 33 min
  410. Bit rate                                 : 139 b/s
  411. Frame rate                               : 0.193 FPS
  412. Count of elements                        : 1787
  413. Stream size                              : 158 KiB (0%)
  414. Language                                 : Thai
  415. Default                                  : No
  416. Forced                                   : No
  417. Text #29
  418. ID                                       : 31
  419. Format                                   : UTF-8
  420. Codec ID                                 : S_TEXT/UTF8
  421. Codec ID/Info                            : UTF-8 Plain Text
  422. Duration                                 : 2 h 33 min
  423. Bit rate                                 : 51 b/s
  424. Frame rate                               : 0.182 FPS
  425. Count of elements                        : 1680
  426. Stream size                              : 58.3 KiB (0%)
  427. Language                                 : Turkish
  428. Default                                  : No
  429. Forced                                   : No
  430. Text #30
  431. ID                                       : 32
  432. Format                                   : UTF-8
  433. Codec ID                                 : S_TEXT/UTF8
  434. Codec ID/Info                            : UTF-8 Plain Text
  435. Duration                                 : 2 h 33 min
  436. Bit rate                                 : 83 b/s
  437. Frame rate                               : 0.176 FPS
  438. Count of elements                        : 1629
  439. Stream size                              : 93.8 KiB (0%)
  440. Language                                 : Ukrainian
  441. Default                                  : No
  442. Forced                                   : No
  443. Text #31
  444. ID                                       : 33
  445. Format                                   : UTF-8
  446. Codec ID                                 : S_TEXT/UTF8
  447. Codec ID/Info                            : UTF-8 Plain Text
  448. Duration                                 : 2 h 33 min
  449. Bit rate                                 : 73 b/s
  450. Frame rate                               : 0.175 FPS
  451. Count of elements                        : 1613
  452. Stream size                              : 82.8 KiB (0%)
  453. Language                                 : Vietnamese
  454. Default                                  : No
  455. Forced                                   : No
  456. Menu
  457. 02:28:40.000                             : en:End Credits
复制代码











回复

使用道具 举报

懒得打字嘛,点击右侧快捷回复 【右侧内容,后台自定义】
您需要登录后才可以回帖 登录 | 立即加入

本版积分规则

Copyright © 2024 Comsenz Inc. Powered by 蓝光电影网

本站内容由用户自主分享和转载自互联网,转载目的在于传递更多信息,并不代表本网赞同其观点和对其真实性负责。

如有侵权、违反国家法律政策行为,请联系我们,我们会第一时间及时清除和处理!

举报反馈邮箱:4k1080.com@gmail.com

快速回复 返回顶部 返回列表