找回密码

查看: 1205|回复: 0

[2160p-WEB] 上帝的笔误.Gods.Crooked.Lines.2022.SPANISH.2160p.NF.WEB-DL.x265.10bit.SDR.DDP5.1-COPiUM 13.68GB

[复制链接]
蓝光币
1840
发表于 2023-1-2 14:57:29 | 显示全部楼层 |阅读模式


◎标  题 天主的笔误
◎译  名 God's Crooked Lines
◎片  名 Los renglones torcidos de Dios
◎年  代 2022
◎产  地 西班牙
◎类  别 悬疑
◎语  言 西班牙语
◎上映日期 2022-10-06(西班牙)
◎IMDb评分 7/10 (8551人评价)
◎IMDb链接 https://www.imdb.com/title/tt13229894/
◎豆瓣评分 7.6/10 (1504人评价)
◎豆瓣链接 https://movie.douban.com/subject/35358584/
◎片  长 154分钟
◎导  演 奥里奥尔·保罗 Oriol Paulo
◎编  剧 Torcuato Luca de Tena Torcuato Luca de Tena
       奥里奥尔·保罗 Oriol Paulo
       拉拉·森迪姆 Lara Sendim
◎演  员 巴巴拉·莱涅 Bárbara Lennie
       爱德华·费尔南德斯 Eduard Fernández
       洛雷托·莫利昂 Loreto Mauleón
       哈维尔·贝尔特兰 Javier Beltrán
       巴勃罗·德尔基 Pablo Derqui
       费德里科·阿瓜多 Federico Aguado
       阿德尔法·卡尔沃 Adelfa Calvo
       达芬斯·巴尔杜兹 Dafnis Balduz
       大卫·塞尔瓦斯 David Selvas
       路易斯·索莱尔 Lluís Soler
       比森特·贝尔加拉 Vicente Vergara
       Txell Aixendri  Txell Aixendri
       Joan Crosas Joan Crosas
◎简  介
  Alice作为私人观察员伪装成偏执病人进入一家神经病医院来收集关于一个内部职员古怪灭亡案件的证据。不外她在医院的“疗养”时代所碰到的工作超乎了设想,而她的明智告诉她这一切背后必有文章。一段完全陌生又布满豪情的故事行将展现在她眼前。本电影改编自Torcuato Luca de Tena同名小说。
  1. Video
  2. ID                                       : 1
  3. Format                                   : HEVC
  4. Format/Info                              : High Efficiency Video Coding
  5. Format profile                           : Main 10@L5@Main
  6. Codec ID                                 : V_MPEGH/ISO/HEVC
  7. Duration                                 : 2 h 35 min
  8. Bit rate                                 : 12.0 Mb/s
  9. Width                                    : 3 840 pixels
  10. Height                                   : 2 160 pixels
  11. Display aspect ratio                     : 16:9
  12. Frame rate mode                          : Constant
  13. Frame rate                               : 24.000 FPS
  14. Color space                              : YUV
  15. Chroma subsampling                       : 4:2:0
  16. Bit depth                                : 10 bits
  17. Bits/(Pixel*Frame)                       : 0.060
  18. Stream size                              : 13.0 GiB (95%)
  19. Language                                 : Spanish (ES)
  20. Default                                  : Yes
  21. Forced                                   : No
  22. Color range                              : Limited
  23. Color primaries                          : BT.709
  24. Transfer characteristics                 : BT.709
  25. Matrix coefficients                      : BT.709
  26. Audio
  27. ID                                       : 2
  28. Format                                   : E-AC-3
  29. Format/Info                              : Enhanced AC-3
  30. Commercial name                          : Dolby Digital Plus
  31. Codec ID                                 : A_EAC3
  32. Duration                                 : 2 h 35 min
  33. Bit rate mode                            : Constant
  34. Bit rate                                 : 640 kb/s
  35. Channel(s)                               : 6 channels
  36. Channel layout                           : L R C LFE Ls Rs
  37. Sampling rate                            : 48.0 kHz
  38. Frame rate                               : 31.250 FPS (1536 SPF)
  39. Compression mode                         : Lossy
  40. Stream size                              : 711 MiB (5%)
  41. Language                                 : Spanish (ES)
  42. Service kind                             : Complete Main
  43. Default                                  : Yes
  44. Forced                                   : No
  45. Text #1
  46. ID                                       : 3
  47. Format                                   : UTF-8
  48. Codec ID                                 : S_TEXT/UTF8
  49. Codec ID/Info                            : UTF-8 Plain Text
  50. Duration                                 : 2 h 26 min
  51. Bit rate                                 : 61 b/s
  52. Frame rate                               : 0.209 FPS
  53. Count of elements                        : 1840
  54. Stream size                              : 65.6 KiB (0%)
  55. Language                                 : Spanish (ES)
  56. Default                                  : No
  57. Forced                                   : No
  58. Text #2
  59. ID                                       : 4
  60. Format                                   : UTF-8
  61. Codec ID                                 : S_TEXT/UTF8
  62. Codec ID/Info                            : UTF-8 Plain Text
  63. Duration                                 : 2 h 28 min
  64. Bit rate                                 : 69 b/s
  65. Frame rate                               : 0.244 FPS
  66. Count of elements                        : 2177
  67. Stream size                              : 75.3 KiB (0%)
  68. Title                                    : SDH
  69. Language                                 : Spanish (ES)
  70. Default                                  : No
  71. Forced                                   : No
  72. Text #3
  73. ID                                       : 5
  74. Format                                   : UTF-8
  75. Codec ID                                 : S_TEXT/UTF8
  76. Codec ID/Info                            : UTF-8 Plain Text
  77. Duration                                 : 2 h 27 min
  78. Bit rate                                 : 94 b/s
  79. Frame rate                               : 0.201 FPS
  80. Count of elements                        : 1781
  81. Stream size                              : 103 KiB (0%)
  82. Language                                 : Arabic
  83. Default                                  : No
  84. Forced                                   : No
  85. Text #4
  86. ID                                       : 6
  87. Format                                   : UTF-8
  88. Codec ID                                 : S_TEXT/UTF8
  89. Codec ID/Info                            : UTF-8 Plain Text
  90. Duration                                 : 2 h 33 min
  91. Bit rate                                 : 48 b/s
  92. Frame rate                               : 0.184 FPS
  93. Count of elements                        : 1703
  94. Stream size                              : 54.9 KiB (0%)
  95. Language                                 : Czech
  96. Default                                  : No
  97. Forced                                   : No
  98. Text #5
  99. ID                                       : 7
  100. Format                                   : UTF-8
  101. Codec ID                                 : S_TEXT/UTF8
  102. Codec ID/Info                            : UTF-8 Plain Text
  103. Duration                                 : 2 h 33 min
  104. Bit rate                                 : 50 b/s
  105. Frame rate                               : 0.172 FPS
  106. Count of elements                        : 1593
  107. Stream size                              : 57.1 KiB (0%)
  108. Language                                 : Danish
  109. Default                                  : No
  110. Forced                                   : No
  111. Text #6
  112. ID                                       : 8
  113. Format                                   : UTF-8
  114. Codec ID                                 : S_TEXT/UTF8
  115. Codec ID/Info                            : UTF-8 Plain Text
  116. Duration                                 : 2 h 33 min
  117. Bit rate                                 : 87 b/s
  118. Frame rate                               : 0.188 FPS
  119. Count of elements                        : 1731
  120. Stream size                              : 97.7 KiB (0%)
  121. Language                                 : Greek
  122. Default                                  : No
  123. Forced                                   : No
  124. Text #7
  125. ID                                       : 9
  126. Format                                   : UTF-8
  127. Codec ID                                 : S_TEXT/UTF8
  128. Codec ID/Info                            : UTF-8 Plain Text
  129. Duration                                 : 2 h 33 min
  130. Bit rate                                 : 53 b/s
  131. Frame rate                               : 0.189 FPS
  132. Count of elements                        : 1735
  133. Stream size                              : 60.5 KiB (0%)
  134. Language                                 : English
  135. Default                                  : No
  136. Forced                                   : No
  137. Text #8
  138. ID                                       : 10
  139. Format                                   : UTF-8
  140. Codec ID                                 : S_TEXT/UTF8
  141. Codec ID/Info                            : UTF-8 Plain Text
  142. Duration                                 : 2 h 34 min
  143. Bit rate                                 : 77 b/s
  144. Frame rate                               : 0.274 FPS
  145. Count of elements                        : 2536
  146. Stream size                              : 87.8 KiB (0%)
  147. Title                                    : SDH
  148. Language                                 : English
  149. Default                                  : No
  150. Forced                                   : No
  151. Text #9
  152. ID                                       : 11
  153. Format                                   : UTF-8
  154. Codec ID                                 : S_TEXT/UTF8
  155. Codec ID/Info                            : UTF-8 Plain Text
  156. Duration                                 : 2 h 33 min
  157. Bit rate                                 : 51 b/s
  158. Frame rate                               : 0.169 FPS
  159. Count of elements                        : 1559
  160. Stream size                              : 57.8 KiB (0%)
  161. Language                                 : Finnish
  162. Default                                  : No
  163. Forced                                   : No
  164. Text #10
  165. ID                                       : 12
  166. Format                                   : UTF-8
  167. Codec ID                                 : S_TEXT/UTF8
  168. Codec ID/Info                            : UTF-8 Plain Text
  169. Duration                                 : 2 h 33 min
  170. Bit rate                                 : 49 b/s
  171. Frame rate                               : 0.188 FPS
  172. Count of elements                        : 1741
  173. Stream size                              : 55.5 KiB (0%)
  174. Language                                 : fil
  175. Default                                  : No
  176. Forced                                   : No
  177. Text #11
  178. ID                                       : 13
  179. Format                                   : UTF-8
  180. Codec ID                                 : S_TEXT/UTF8
  181. Codec ID/Info                            : UTF-8 Plain Text
  182. Duration                                 : 2 h 33 min
  183. Bit rate                                 : 48 b/s
  184. Frame rate                               : 0.181 FPS
  185. Count of elements                        : 1673
  186. Stream size                              : 55.0 KiB (0%)
  187. Language                                 : French
  188. Default                                  : No
  189. Forced                                   : No
  190. Text #12
  191. ID                                       : 14
  192. Format                                   : UTF-8
  193. Codec ID                                 : S_TEXT/UTF8
  194. Codec ID/Info                            : UTF-8 Plain Text
  195. Duration                                 : 2 h 33 min
  196. Bit rate                                 : 79 b/s
  197. Frame rate                               : 0.194 FPS
  198. Count of elements                        : 1788
  199. Stream size                              : 89.7 KiB (0%)
  200. Language                                 : Hebrew
  201. Default                                  : No
  202. Forced                                   : No
  203. Text #13
  204. ID                                       : 15
  205. Format                                   : UTF-8
  206. Codec ID                                 : S_TEXT/UTF8
  207. Codec ID/Info                            : UTF-8 Plain Text
  208. Duration                                 : 2 h 33 min
  209. Bit rate                                 : 45 b/s
  210. Frame rate                               : 0.178 FPS
  211. Count of elements                        : 1648
  212. Stream size                              : 51.4 KiB (0%)
  213. Language                                 : Croatian
  214. Default                                  : No
  215. Forced                                   : No
  216. Text #14
  217. ID                                       : 16
  218. Format                                   : UTF-8
  219. Codec ID                                 : S_TEXT/UTF8
  220. Codec ID/Info                            : UTF-8 Plain Text
  221. Duration                                 : 2 h 33 min
  222. Bit rate                                 : 51 b/s
  223. Frame rate                               : 0.186 FPS
  224. Count of elements                        : 1719
  225. Stream size                              : 58.5 KiB (0%)
  226. Language                                 : Hungarian
  227. Default                                  : No
  228. Forced                                   : No
  229. Text #15
  230. ID                                       : 17
  231. Format                                   : UTF-8
  232. Codec ID                                 : S_TEXT/UTF8
  233. Codec ID/Info                            : UTF-8 Plain Text
  234. Duration                                 : 2 h 33 min
  235. Bit rate                                 : 50 b/s
  236. Frame rate                               : 0.186 FPS
  237. Count of elements                        : 1714
  238. Stream size                              : 56.6 KiB (0%)
  239. Language                                 : Indonesian
  240. Default                                  : No
  241. Forced                                   : No
  242. Text #16
  243. ID                                       : 18
  244. Format                                   : UTF-8
  245. Codec ID                                 : S_TEXT/UTF8
  246. Codec ID/Info                            : UTF-8 Plain Text
  247. Duration                                 : 2 h 33 min
  248. Bit rate                                 : 52 b/s
  249. Frame rate                               : 0.191 FPS
  250. Count of elements                        : 1755
  251. Stream size                              : 58.7 KiB (0%)
  252. Language                                 : Italian
  253. Default                                  : No
  254. Forced                                   : No
  255. Text #17
  256. ID                                       : 19
  257. Format                                   : UTF-8
  258. Codec ID                                 : S_TEXT/UTF8
  259. Codec ID/Info                            : UTF-8 Plain Text
  260. Duration                                 : 2 h 33 min
  261. Bit rate                                 : 49 b/s
  262. Frame rate                               : 0.200 FPS
  263. Count of elements                        : 1838
  264. Stream size                              : 55.7 KiB (0%)
  265. Language                                 : Japanese
  266. Default                                  : No
  267. Forced                                   : No
  268. Text #18
  269. ID                                       : 20
  270. Format                                   : UTF-8
  271. Codec ID                                 : S_TEXT/UTF8
  272. Codec ID/Info                            : UTF-8 Plain Text
  273. Duration                                 : 2 h 34 min
  274. Bit rate                                 : 68 b/s
  275. Frame rate                               : 0.198 FPS
  276. Count of elements                        : 1832
  277. Stream size                              : 77.4 KiB (0%)
  278. Language                                 : Korean
  279. Default                                  : No
  280. Forced                                   : No
  281. Text #19
  282. ID                                       : 21
  283. Format                                   : UTF-8
  284. Codec ID                                 : S_TEXT/UTF8
  285. Codec ID/Info                            : UTF-8 Plain Text
  286. Duration                                 : 2 h 33 min
  287. Bit rate                                 : 51 b/s
  288. Frame rate                               : 0.182 FPS
  289. Count of elements                        : 1681
  290. Stream size                              : 58.3 KiB (0%)
  291. Language                                 : Malay
  292. Default                                  : No
  293. Forced                                   : No
  294. Text #20
  295. ID                                       : 22
  296. Format                                   : UTF-8
  297. Codec ID                                 : S_TEXT/UTF8
  298. Codec ID/Info                            : UTF-8 Plain Text
  299. Duration                                 : 2 h 27 min
  300. Bit rate                                 : 51 b/s
  301. Frame rate                               : 0.193 FPS
  302. Count of elements                        : 1710
  303. Stream size                              : 56.0 KiB (0%)
  304. Language                                 : Norwegian Bokmal
  305. Default                                  : No
  306. Forced                                   : No
  307. Text #21
  308. ID                                       : 23
  309. Format                                   : UTF-8
  310. Codec ID                                 : S_TEXT/UTF8
  311. Codec ID/Info                            : UTF-8 Plain Text
  312. Duration                                 : 2 h 33 min
  313. Bit rate                                 : 51 b/s
  314. Frame rate                               : 0.179 FPS
  315. Count of elements                        : 1658
  316. Stream size                              : 58.2 KiB (0%)
  317. Language                                 : Dutch
  318. Default                                  : No
  319. Forced                                   : No
  320. Text #22
  321. ID                                       : 24
  322. Format                                   : UTF-8
  323. Codec ID                                 : S_TEXT/UTF8
  324. Codec ID/Info                            : UTF-8 Plain Text
  325. Duration                                 : 2 h 33 min
  326. Bit rate                                 : 46 b/s
  327. Frame rate                               : 0.189 FPS
  328. Count of elements                        : 1734
  329. Stream size                              : 52.2 KiB (0%)
  330. Language                                 : Polish
  331. Default                                  : No
  332. Forced                                   : No
  333. Text #23
  334. ID                                       : 25
  335. Format                                   : UTF-8
  336. Codec ID                                 : S_TEXT/UTF8
  337. Codec ID/Info                            : UTF-8 Plain Text
  338. Duration                                 : 2 h 33 min
  339. Bit rate                                 : 51 b/s
  340. Frame rate                               : 0.192 FPS
  341. Count of elements                        : 1776
  342. Stream size                              : 58.5 KiB (0%)
  343. Title                                    : Brazilian
  344. Language                                 : Portuguese (BR)
  345. Default                                  : No
  346. Forced                                   : No
  347. Text #24
  348. ID                                       : 26
  349. Format                                   : UTF-8
  350. Codec ID                                 : S_TEXT/UTF8
  351. Codec ID/Info                            : UTF-8 Plain Text
  352. Duration                                 : 2 h 33 min
  353. Bit rate                                 : 51 b/s
  354. Frame rate                               : 0.190 FPS
  355. Count of elements                        : 1753
  356. Stream size                              : 58.0 KiB (0%)
  357. Language                                 : Portuguese (PT)
  358. Default                                  : No
  359. Forced                                   : No
  360. Text #25
  361. ID                                       : 27
  362. Format                                   : UTF-8
  363. Codec ID                                 : S_TEXT/UTF8
  364. Codec ID/Info                            : UTF-8 Plain Text
  365. Duration                                 : 2 h 33 min
  366. Bit rate                                 : 57 b/s
  367. Frame rate                               : 0.192 FPS
  368. Count of elements                        : 1770
  369. Stream size                              : 65.1 KiB (0%)
  370. Language                                 : Romanian
  371. Default                                  : No
  372. Forced                                   : No
  373. Text #26
  374. ID                                       : 28
  375. Format                                   : UTF-8
  376. Codec ID                                 : S_TEXT/UTF8
  377. Codec ID/Info                            : UTF-8 Plain Text
  378. Duration                                 : 2 h 33 min
  379. Bit rate                                 : 81 b/s
  380. Frame rate                               : 0.190 FPS
  381. Count of elements                        : 1744
  382. Stream size                              : 91.9 KiB (0%)
  383. Language                                 : Russian
  384. Default                                  : No
  385. Forced                                   : No
  386. Text #27
  387. ID                                       : 29
  388. Format                                   : UTF-8
  389. Codec ID                                 : S_TEXT/UTF8
  390. Codec ID/Info                            : UTF-8 Plain Text
  391. Duration                                 : 2 h 33 min
  392. Bit rate                                 : 49 b/s
  393. Frame rate                               : 0.172 FPS
  394. Count of elements                        : 1587
  395. Stream size                              : 56.3 KiB (0%)
  396. Language                                 : Swedish
  397. Default                                  : No
  398. Forced                                   : No
  399. Text #28
  400. ID                                       : 30
  401. Format                                   : UTF-8
  402. Codec ID                                 : S_TEXT/UTF8
  403. Codec ID/Info                            : UTF-8 Plain Text
  404. Duration                                 : 2 h 33 min
  405. Bit rate                                 : 139 b/s
  406. Frame rate                               : 0.193 FPS
  407. Count of elements                        : 1787
  408. Stream size                              : 158 KiB (0%)
  409. Language                                 : Thai
  410. Default                                  : No
  411. Forced                                   : No
  412. Text #29
  413. ID                                       : 31
  414. Format                                   : UTF-8
  415. Codec ID                                 : S_TEXT/UTF8
  416. Codec ID/Info                            : UTF-8 Plain Text
  417. Duration                                 : 2 h 33 min
  418. Bit rate                                 : 51 b/s
  419. Frame rate                               : 0.182 FPS
  420. Count of elements                        : 1680
  421. Stream size                              : 58.3 KiB (0%)
  422. Language                                 : Turkish
  423. Default                                  : No
  424. Forced                                   : No
  425. Text #30
  426. ID                                       : 32
  427. Format                                   : UTF-8
  428. Codec ID                                 : S_TEXT/UTF8
  429. Codec ID/Info                            : UTF-8 Plain Text
  430. Duration                                 : 2 h 33 min
  431. Bit rate                                 : 83 b/s
  432. Frame rate                               : 0.176 FPS
  433. Count of elements                        : 1629
  434. Stream size                              : 93.8 KiB (0%)
  435. Language                                 : Ukrainian
  436. Default                                  : No
  437. Forced                                   : No
  438. Text #31
  439. ID                                       : 33
  440. Format                                   : UTF-8
  441. Codec ID                                 : S_TEXT/UTF8
  442. Codec ID/Info                            : UTF-8 Plain Text
  443. Duration                                 : 2 h 33 min
  444. Bit rate                                 : 73 b/s
  445. Frame rate                               : 0.175 FPS
  446. Count of elements                        : 1613
  447. Stream size                              : 82.8 KiB (0%)
  448. Language                                 : Vietnamese
  449. Default                                  : No
  450. Forced                                   : No
  451. Menu
  452. 02:28:40.000                             : en:End Credits
复制代码











回复

使用道具 举报

懒得打字嘛,点击右侧快捷回复 【右侧内容,后台自定义】
您需要登录后才可以回帖 登录 | 立即加入

本版积分规则

Copyright © 2024 Comsenz Inc. Powered by 蓝光电影网

本站内容由用户自主分享和转载自互联网,转载目的在于传递更多信息,并不代表本网赞同其观点和对其真实性负责。

如有侵权、违反国家法律政策行为,请联系我们,我们会第一时间及时清除和处理!

举报反馈邮箱:4k1080.com@gmail.com

快速回复 返回顶部 返回列表