找回密码

查看: 1429|回复: 0

[2160p-WEB] 初识与告别之间[中文字幕].Hello.Goodbye.and.Everything.in.Between.2022.2160p.NF.WEB-DL.x265.10bit.HDR.DDP5.1-dBBd 7.92GB

[复制链接]
蓝光币
1856
发表于 2023-1-2 14:57:29 | 显示全部楼层 |阅读模式


◎标  题 初识与离别之间
◎译  名 你好,再会和其间的一切 / 散聚之间(港)
◎片  名 Hello, Goodbye and Everything in Between
◎年  代 2022
◎产  地 美国
◎类  别 笑剧 / 恋爱
◎语  言 英语
◎上映日期 2022-07-06(美国收集)
◎IMDb评分 5.1/10 (3178人评价)
◎IMDb链接 https://www.imdb.com/title/tt4181158/
◎豆瓣评分 5.7/10 (691人评价)
◎豆瓣链接 https://movie.douban.com/subject/35202864/
◎片  长 82分钟
◎编  剧 本·约克·琼斯 Ben York Jones
◎演  员 塔莉娅·莱德 Talia Ryder
       乔丹·费舍 Jordan Fisher
       朱莉娅·本森 Julia Benson
       莎拉·格雷 Sarah Grey
       帕特里克·萨邦圭 Patrick Sabongui
       尼科·希拉加 Nico Hiraga
       艾米丽·国内 Emily Haine
       詹妮弗·罗伯逊 Jennifer Robertson
◎简  介
  克莱尔(塔莉娅·莱德饰)和艾丹(乔丹·费舍饰)约定在上大学前分手,并在分手前一晚停止了一场有纪念意义的约会。两人回首了一路走过的日子,包括第一次碰头、亲吻和争持,并起头认真思考是继续在一路,还是就此各奔前程?《初识与离别之间》是一部出色的浪漫笑剧,由热门系列《致一切我曾爱过的男孩》的制片人打造,改编自珍妮弗·E·史姑娘的畅销小说。
  1. Video
  2. ID                                       : 1
  3. Format                                   : HEVC
  4. Format/Info                              : High Efficiency Video Coding
  5. Format profile                           : Main 10@L5@Main
  6. HDR format                               : Dolby Vision, Version 1.0, dvhe.08.06, BL+RPU, HDR10 compatible / SMPTE ST 2086, HDR10 compatible
  7. Codec ID                                 : V_MPEGH/ISO/HEVC
  8. Duration                                 : 1 h 22 min
  9. Bit rate                                 : 12.9 Mb/s
  10. Width                                    : 3 840 pixels
  11. Height                                   : 2 160 pixels
  12. Display aspect ratio                     : 16:9
  13. Frame rate mode                          : Constant
  14. Frame rate                               : 23.976 (24000/1001) FPS
  15. Color space                              : YUV
  16. Chroma subsampling                       : 4:2:0 (Type 2)
  17. Bit depth                                : 10 bits
  18. Bits/(Pixel*Frame)                       : 0.065
  19. Stream size                              : 7.47 GiB (94%)
  20. Default                                  : Yes
  21. Forced                                   : No
  22. Color range                              : Limited
  23. Color primaries                          : BT.2020
  24. Transfer characteristics                 : PQ
  25. Matrix coefficients                      : BT.2020 non-constant
  26. Mastering display color primaries        : Display P3
  27. Mastering display luminance              : min: 0.0001 cd/m2, max: 1000 cd/m2
  28. Maximum Content Light Level              : 1018 cd/m2
  29. Maximum Frame-Average Light Level        : 97 cd/m2
  30. Audio
  31. ID                                       : 2
  32. Format                                   : E-AC-3 JOC
  33. Format/Info                              : Enhanced AC-3 with Joint Object Coding
  34. Commercial name                          : Dolby Digital Plus with Dolby Atmos
  35. Codec ID                                 : A_EAC3
  36. Duration                                 : 1 h 24 min
  37. Bit rate mode                            : Constant
  38. Bit rate                                 : 768 kb/s
  39. Channel(s)                               : 6 channels
  40. Channel layout                           : L R C LFE Ls Rs
  41. Sampling rate                            : 48.0 kHz
  42. Frame rate                               : 31.250 FPS (1536 SPF)
  43. Compression mode                         : Lossy
  44. Stream size                              : 464 MiB (6%)
  45. Language                                 : English
  46. Service kind                             : Complete Main
  47. Default                                  : Yes
  48. Forced                                   : No
  49. Complexity index                         : 16
  50. Number of dynamic objects                : 15
  51. Bed channel count                        : 1 channel
  52. Bed channel configuration                : LFE
  53. Text #1
  54. ID                                       : 3
  55. Format                                   : UTF-8
  56. Codec ID                                 : S_TEXT/UTF8
  57. Codec ID/Info                            : UTF-8 Plain Text
  58. Duration                                 : 1 h 22 min
  59. Bit rate                                 : 92 b/s
  60. Frame rate                               : 0.306 FPS
  61. Count of elements                        : 1507
  62. Stream size                              : 55.9 KiB (0%)
  63. Title                                    : SDH
  64. Language                                 : English
  65. Default                                  : No
  66. Forced                                   : No
  67. Text #2
  68. ID                                       : 4
  69. Format                                   : UTF-8
  70. Codec ID                                 : S_TEXT/UTF8
  71. Codec ID/Info                            : UTF-8 Plain Text
  72. Duration                                 : 1 h 21 min
  73. Bit rate                                 : 100 b/s
  74. Frame rate                               : 0.227 FPS
  75. Count of elements                        : 1112
  76. Stream size                              : 60.0 KiB (0%)
  77. Language                                 : Arabic
  78. Default                                  : No
  79. Forced                                   : No
  80. Text #3
  81. ID                                       : 5
  82. Format                                   : UTF-8
  83. Codec ID                                 : S_TEXT/UTF8
  84. Codec ID/Info                            : UTF-8 Plain Text
  85. Duration                                 : 1 h 21 min
  86. Bit rate                                 : 51 b/s
  87. Frame rate                               : 0.223 FPS
  88. Count of elements                        : 1094
  89. Stream size                              : 30.7 KiB (0%)
  90. Language                                 : Czech
  91. Default                                  : No
  92. Forced                                   : No
  93. Text #4
  94. ID                                       : 6
  95. Format                                   : UTF-8
  96. Codec ID                                 : S_TEXT/UTF8
  97. Codec ID/Info                            : UTF-8 Plain Text
  98. Duration                                 : 1 h 21 min
  99. Bit rate                                 : 50 b/s
  100. Frame rate                               : 0.204 FPS
  101. Count of elements                        : 1002
  102. Stream size                              : 30.3 KiB (0%)
  103. Language                                 : Danish
  104. Default                                  : No
  105. Forced                                   : No
  106. Text #5
  107. ID                                       : 7
  108. Format                                   : UTF-8
  109. Codec ID                                 : S_TEXT/UTF8
  110. Codec ID/Info                            : UTF-8 Plain Text
  111. Duration                                 : 1 h 21 min
  112. Bit rate                                 : 52 b/s
  113. Frame rate                               : 0.223 FPS
  114. Count of elements                        : 1092
  115. Stream size                              : 31.7 KiB (0%)
  116. Language                                 : German
  117. Default                                  : No
  118. Forced                                   : No
  119. Text #6
  120. ID                                       : 8
  121. Format                                   : UTF-8
  122. Codec ID                                 : S_TEXT/UTF8
  123. Codec ID/Info                            : UTF-8 Plain Text
  124. Duration                                 : 1 h 21 min
  125. Bit rate                                 : 87 b/s
  126. Frame rate                               : 0.237 FPS
  127. Count of elements                        : 1163
  128. Stream size                              : 52.4 KiB (0%)
  129. Language                                 : Greek
  130. Default                                  : No
  131. Forced                                   : No
  132. Text #7
  133. ID                                       : 9
  134. Format                                   : UTF-8
  135. Codec ID                                 : S_TEXT/UTF8
  136. Codec ID/Info                            : UTF-8 Plain Text
  137. Duration                                 : 1 h 22 min
  138. Bit rate                                 : 65 b/s
  139. Frame rate                               : 0.259 FPS
  140. Count of elements                        : 1283
  141. Stream size                              : 39.4 KiB (0%)
  142. Title                                    : SDH
  143. Language                                 : Spanish
  144. Default                                  : No
  145. Forced                                   : No
  146. Text #8
  147. ID                                       : 10
  148. Format                                   : UTF-8
  149. Codec ID                                 : S_TEXT/UTF8
  150. Codec ID/Info                            : UTF-8 Plain Text
  151. Duration                                 : 1 h 21 min
  152. Bit rate                                 : 53 b/s
  153. Frame rate                               : 0.225 FPS
  154. Count of elements                        : 1103
  155. Stream size                              : 32.0 KiB (0%)
  156. Language                                 : Spanish
  157. Default                                  : No
  158. Forced                                   : No
  159. Text #9
  160. ID                                       : 11
  161. Format                                   : UTF-8
  162. Codec ID                                 : S_TEXT/UTF8
  163. Codec ID/Info                            : UTF-8 Plain Text
  164. Duration                                 : 1 h 21 min
  165. Bit rate                                 : 58 b/s
  166. Frame rate                               : 0.235 FPS
  167. Count of elements                        : 1153
  168. Stream size                              : 35.3 KiB (0%)
  169. Language                                 : Spanish
  170. Default                                  : No
  171. Forced                                   : No
  172. Text #10
  173. ID                                       : 12
  174. Format                                   : UTF-8
  175. Codec ID                                 : S_TEXT/UTF8
  176. Codec ID/Info                            : UTF-8 Plain Text
  177. Duration                                 : 1 h 21 min
  178. Bit rate                                 : 54 b/s
  179. Frame rate                               : 0.224 FPS
  180. Count of elements                        : 1098
  181. Stream size                              : 32.3 KiB (0%)
  182. Title                                    : Europe
  183. Language                                 : Spanish (150)
  184. Default                                  : No
  185. Forced                                   : No
  186. Text #11
  187. ID                                       : 13
  188. Format                                   : UTF-8
  189. Codec ID                                 : S_TEXT/UTF8
  190. Codec ID/Info                            : UTF-8 Plain Text
  191. Duration                                 : 1 h 21 min
  192. Bit rate                                 : 46 b/s
  193. Frame rate                               : 0.191 FPS
  194. Count of elements                        : 937
  195. Stream size                              : 28.1 KiB (0%)
  196. Language                                 : Finnish
  197. Default                                  : No
  198. Forced                                   : No
  199. Text #12
  200. ID                                       : 14
  201. Format                                   : UTF-8
  202. Codec ID                                 : S_TEXT/UTF8
  203. Codec ID/Info                            : UTF-8 Plain Text
  204. Duration                                 : 1 h 21 min
  205. Bit rate                                 : 53 b/s
  206. Frame rate                               : 0.226 FPS
  207. Count of elements                        : 1110
  208. Stream size                              : 31.9 KiB (0%)
  209. Language                                 : fil
  210. Default                                  : No
  211. Forced                                   : No
  212. Text #13
  213. ID                                       : 15
  214. Format                                   : UTF-8
  215. Codec ID                                 : S_TEXT/UTF8
  216. Codec ID/Info                            : UTF-8 Plain Text
  217. Duration                                 : 1 h 21 min
  218. Bit rate                                 : 51 b/s
  219. Frame rate                               : 0.223 FPS
  220. Count of elements                        : 1094
  221. Stream size                              : 31.0 KiB (0%)
  222. Language                                 : French
  223. Default                                  : No
  224. Forced                                   : No
  225. Text #14
  226. ID                                       : 16
  227. Format                                   : UTF-8
  228. Codec ID                                 : S_TEXT/UTF8
  229. Codec ID/Info                            : UTF-8 Plain Text
  230. Duration                                 : 1 h 21 min
  231. Bit rate                                 : 91 b/s
  232. Frame rate                               : 0.225 FPS
  233. Count of elements                        : 1102
  234. Stream size                              : 54.9 KiB (0%)
  235. Language                                 : Hebrew
  236. Default                                  : No
  237. Forced                                   : No
  238. Text #15
  239. ID                                       : 17
  240. Format                                   : UTF-8
  241. Codec ID                                 : S_TEXT/UTF8
  242. Codec ID/Info                            : UTF-8 Plain Text
  243. Duration                                 : 1 h 21 min
  244. Bit rate                                 : 49 b/s
  245. Frame rate                               : 0.222 FPS
  246. Count of elements                        : 1086
  247. Stream size                              : 29.6 KiB (0%)
  248. Language                                 : Croatian
  249. Default                                  : No
  250. Forced                                   : No
  251. Text #16
  252. ID                                       : 18
  253. Format                                   : UTF-8
  254. Codec ID                                 : S_TEXT/UTF8
  255. Codec ID/Info                            : UTF-8 Plain Text
  256. Duration                                 : 1 h 21 min
  257. Bit rate                                 : 53 b/s
  258. Frame rate                               : 0.221 FPS
  259. Count of elements                        : 1083
  260. Stream size                              : 32.0 KiB (0%)
  261. Language                                 : Hungarian
  262. Default                                  : No
  263. Forced                                   : No
  264. Text #17
  265. ID                                       : 19
  266. Format                                   : UTF-8
  267. Codec ID                                 : S_TEXT/UTF8
  268. Codec ID/Info                            : UTF-8 Plain Text
  269. Duration                                 : 1 h 21 min
  270. Bit rate                                 : 57 b/s
  271. Frame rate                               : 0.225 FPS
  272. Count of elements                        : 1101
  273. Stream size                              : 34.4 KiB (0%)
  274. Language                                 : Indonesian
  275. Default                                  : No
  276. Forced                                   : No
  277. Text #18
  278. ID                                       : 20
  279. Format                                   : UTF-8
  280. Codec ID                                 : S_TEXT/UTF8
  281. Codec ID/Info                            : UTF-8 Plain Text
  282. Duration                                 : 1 h 21 min
  283. Bit rate                                 : 51 b/s
  284. Frame rate                               : 0.212 FPS
  285. Count of elements                        : 1039
  286. Stream size                              : 30.9 KiB (0%)
  287. Language                                 : Italian
  288. Default                                  : No
  289. Forced                                   : No
  290. Text #19
  291. ID                                       : 21
  292. Format                                   : UTF-8
  293. Codec ID                                 : S_TEXT/UTF8
  294. Codec ID/Info                            : UTF-8 Plain Text
  295. Duration                                 : 1 h 21 min
  296. Bit rate                                 : 48 b/s
  297. Frame rate                               : 0.233 FPS
  298. Count of elements                        : 1141
  299. Stream size                              : 28.9 KiB (0%)
  300. Language                                 : Japanese
  301. Default                                  : No
  302. Forced                                   : No
  303. Text #20
  304. ID                                       : 22
  305. Format                                   : UTF-8
  306. Codec ID                                 : S_TEXT/UTF8
  307. Codec ID/Info                            : UTF-8 Plain Text
  308. Duration                                 : 1 h 21 min
  309. Bit rate                                 : 74 b/s
  310. Frame rate                               : 0.227 FPS
  311. Count of elements                        : 1115
  312. Stream size                              : 44.7 KiB (0%)
  313. Language                                 : Korean
  314. Default                                  : No
  315. Forced                                   : No
  316. Text #21
  317. ID                                       : 23
  318. Format                                   : UTF-8
  319. Codec ID                                 : S_TEXT/UTF8
  320. Codec ID/Info                            : UTF-8 Plain Text
  321. Duration                                 : 1 h 21 min
  322. Bit rate                                 : 50 b/s
  323. Frame rate                               : 0.225 FPS
  324. Count of elements                        : 1102
  325. Stream size                              : 30.3 KiB (0%)
  326. Language                                 : Malay
  327. Default                                  : No
  328. Forced                                   : No
  329. Text #22
  330. ID                                       : 24
  331. Format                                   : UTF-8
  332. Codec ID                                 : S_TEXT/UTF8
  333. Codec ID/Info                            : UTF-8 Plain Text
  334. Duration                                 : 1 h 21 min
  335. Bit rate                                 : 52 b/s
  336. Frame rate                               : 0.220 FPS
  337. Count of elements                        : 1079
  338. Stream size                              : 31.6 KiB (0%)
  339. Language                                 : Norwegian Bokmal
  340. Default                                  : No
  341. Forced                                   : No
  342. Text #23
  343. ID                                       : 25
  344. Format                                   : UTF-8
  345. Codec ID                                 : S_TEXT/UTF8
  346. Codec ID/Info                            : UTF-8 Plain Text
  347. Duration                                 : 1 h 21 min
  348. Bit rate                                 : 47 b/s
  349. Frame rate                               : 0.190 FPS
  350. Count of elements                        : 931
  351. Stream size                              : 28.7 KiB (0%)
  352. Language                                 : Dutch
  353. Default                                  : No
  354. Forced                                   : No
  355. Text #24
  356. ID                                       : 26
  357. Format                                   : UTF-8
  358. Codec ID                                 : S_TEXT/UTF8
  359. Codec ID/Info                            : UTF-8 Plain Text
  360. Duration                                 : 1 h 21 min
  361. Bit rate                                 : 51 b/s
  362. Frame rate                               : 0.220 FPS
  363. Count of elements                        : 1080
  364. Stream size                              : 30.8 KiB (0%)
  365. Language                                 : Polish
  366. Default                                  : No
  367. Forced                                   : No
  368. Text #25
  369. ID                                       : 27
  370. Format                                   : UTF-8
  371. Codec ID                                 : S_TEXT/UTF8
  372. Codec ID/Info                            : UTF-8 Plain Text
  373. Duration                                 : 1 h 21 min
  374. Bit rate                                 : 54 b/s
  375. Frame rate                               : 0.219 FPS
  376. Count of elements                        : 1074
  377. Stream size                              : 32.7 KiB (0%)
  378. Language                                 : Portuguese
  379. Default                                  : No
  380. Forced                                   : No
  381. Text #26
  382. ID                                       : 28
  383. Format                                   : UTF-8
  384. Codec ID                                 : S_TEXT/UTF8
  385. Codec ID/Info                            : UTF-8 Plain Text
  386. Duration                                 : 1 h 16 min
  387. Bit rate                                 : 81 b/s
  388. Frame rate                               : 0.294 FPS
  389. Count of elements                        : 1348
  390. Stream size                              : 45.4 KiB (0%)
  391. Title                                    : Brazil (SDH)
  392. Language                                 : Portuguese (BR)
  393. Default                                  : No
  394. Forced                                   : No
  395. Text #27
  396. ID                                       : 29
  397. Format                                   : UTF-8
  398. Codec ID                                 : S_TEXT/UTF8
  399. Codec ID/Info                            : UTF-8 Plain Text
  400. Duration                                 : 1 h 21 min
  401. Bit rate                                 : 53 b/s
  402. Frame rate                               : 0.226 FPS
  403. Count of elements                        : 1107
  404. Stream size                              : 32.0 KiB (0%)
  405. Title                                    : Brazil
  406. Language                                 : Portuguese (BR)
  407. Default                                  : No
  408. Forced                                   : No
  409. Text #28
  410. ID                                       : 30
  411. Format                                   : UTF-8
  412. Codec ID                                 : S_TEXT/UTF8
  413. Codec ID/Info                            : UTF-8 Plain Text
  414. Duration                                 : 1 h 15 min
  415. Bit rate                                 : 70 b/s
  416. Frame rate                               : 0.257 FPS
  417. Count of elements                        : 1164
  418. Stream size                              : 39.2 KiB (0%)
  419. Title                                    : Brazil
  420. Language                                 : Portuguese (BR)
  421. Default                                  : No
  422. Forced                                   : No
  423. Text #29
  424. ID                                       : 31
  425. Format                                   : UTF-8
  426. Codec ID                                 : S_TEXT/UTF8
  427. Codec ID/Info                            : UTF-8 Plain Text
  428. Duration                                 : 1 h 21 min
  429. Bit rate                                 : 60 b/s
  430. Frame rate                               : 0.216 FPS
  431. Count of elements                        : 1058
  432. Stream size                              : 35.9 KiB (0%)
  433. Language                                 : Romanian
  434. Default                                  : No
  435. Forced                                   : No
  436. Text #30
  437. ID                                       : 32
  438. Format                                   : UTF-8
  439. Codec ID                                 : S_TEXT/UTF8
  440. Codec ID/Info                            : UTF-8 Plain Text
  441. Duration                                 : 1 h 21 min
  442. Bit rate                                 : 90 b/s
  443. Frame rate                               : 0.222 FPS
  444. Count of elements                        : 1090
  445. Stream size                              : 54.3 KiB (0%)
  446. Language                                 : Russian
  447. Default                                  : No
  448. Forced                                   : No
  449. Text #31
  450. ID                                       : 33
  451. Format                                   : UTF-8
  452. Codec ID                                 : S_TEXT/UTF8
  453. Codec ID/Info                            : UTF-8 Plain Text
  454. Duration                                 : 1 h 21 min
  455. Bit rate                                 : 55 b/s
  456. Frame rate                               : 0.188 FPS
  457. Count of elements                        : 924
  458. Stream size                              : 33.0 KiB (0%)
  459. Language                                 : Swedish
  460. Default                                  : No
  461. Forced                                   : No
  462. Text #32
  463. ID                                       : 34
  464. Format                                   : UTF-8
  465. Codec ID                                 : S_TEXT/UTF8
  466. Codec ID/Info                            : UTF-8 Plain Text
  467. Duration                                 : 1 h 21 min
  468. Bit rate                                 : 148 b/s
  469. Frame rate                               : 0.226 FPS
  470. Count of elements                        : 1109
  471. Stream size                              : 88.9 KiB (0%)
  472. Language                                 : Thai
  473. Default                                  : No
  474. Forced                                   : No
  475. Text #33
  476. ID                                       : 35
  477. Format                                   : UTF-8
  478. Codec ID                                 : S_TEXT/UTF8
  479. Codec ID/Info                            : UTF-8 Plain Text
  480. Duration                                 : 1 h 21 min
  481. Bit rate                                 : 53 b/s
  482. Frame rate                               : 0.225 FPS
  483. Count of elements                        : 1102
  484. Stream size                              : 32.2 KiB (0%)
  485. Language                                 : Turkish
  486. Default                                  : No
  487. Forced                                   : No
  488. Text #34
  489. ID                                       : 36
  490. Format                                   : UTF-8
  491. Codec ID                                 : S_TEXT/UTF8
  492. Codec ID/Info                            : UTF-8 Plain Text
  493. Duration                                 : 1 h 21 min
  494. Bit rate                                 : 87 b/s
  495. Frame rate                               : 0.226 FPS
  496. Count of elements                        : 1109
  497. Stream size                              : 52.5 KiB (0%)
  498. Language                                 : Ukrainian
  499. Default                                  : No
  500. Forced                                   : No
  501. Text #35
  502. ID                                       : 37
  503. Format                                   : UTF-8
  504. Codec ID                                 : S_TEXT/UTF8
  505. Codec ID/Info                            : UTF-8 Plain Text
  506. Duration                                 : 1 h 21 min
  507. Bit rate                                 : 81 b/s
  508. Frame rate                               : 0.203 FPS
  509. Count of elements                        : 996
  510. Stream size                              : 48.9 KiB (0%)
  511. Language                                 : Vietnamese
  512. Default                                  : No
  513. Forced                                   : No
  514. Text #36
  515. ID                                       : 38
  516. Format                                   : UTF-8
  517. Codec ID                                 : S_TEXT/UTF8
  518. Codec ID/Info                            : UTF-8 Plain Text
  519. Duration                                 : 1 h 21 min
  520. Bit rate                                 : 60 b/s
  521. Frame rate                               : 0.227 FPS
  522. Count of elements                        : 1111
  523. Stream size                              : 36.0 KiB (0%)
  524. Title                                    : Simplified
  525. Language                                 : Chinese (Simplied)
  526. Default                                  : No
  527. Forced                                   : No
  528. Text #37
  529. ID                                       : 39
  530. Format                                   : UTF-8
  531. Codec ID                                 : S_TEXT/UTF8
  532. Codec ID/Info                            : UTF-8 Plain Text
  533. Duration                                 : 1 h 21 min
  534. Bit rate                                 : 60 b/s
  535. Frame rate                               : 0.231 FPS
  536. Count of elements                        : 1130
  537. Stream size                              : 36.3 KiB (0%)
  538. Title                                    : Traditional
  539. Language                                 : Chinese (Traditional)
  540. Default                                  : No
  541. Forced                                   : No
复制代码











初识与离别之间[中笔墨幕].Hello.Goodbye.and.Everything.in.Between.2022.2160p.NF.WEB-DL.x265.10bit.HDR.DDP5.1-dBBd 7.92GB

Hello.Goodbye.and.Everything.in.Between.2022.2160p.NF.WEB-DL.x265.10bit.HDR.DDP5.torrent

20.52 KB, 下载次数: 4, 下载积分: 蓝光币 -2

回复

使用道具 举报

懒得打字嘛,点击右侧快捷回复 【右侧内容,后台自定义】
您需要登录后才可以回帖 登录 | 立即加入

本版积分规则

Copyright © 2024 Comsenz Inc. Powered by 蓝光电影网

本站内容由用户自主分享和转载自互联网,转载目的在于传递更多信息,并不代表本网赞同其观点和对其真实性负责。

如有侵权、违反国家法律政策行为,请联系我们,我们会第一时间及时清除和处理!

举报反馈邮箱:4k1080.com@gmail.com

快速回复 返回顶部 返回列表