找回密码

查看: 1416|回复: 1

[2160p-WEB] 终极拦截[中文字幕].Interceptor.2022.2160p.NF.WEB-DL.x265.10bit.HDR.DDP5.1.Atmos-BOUNTYTOOBIGTOIGNORE 10.60GB

[复制链接]
蓝光币
1840
发表于 2023-1-2 14:57:30 | 显示全部楼层 |阅读模式


◎标  题 终极阻挡
◎译  名 终极阻挡战(港 / 台)
◎片  名 Interceptor
◎年  代 2022
◎产  地 澳大利亚 / 美国
◎类  别 行动
◎语  言 英语
◎上映日期 2022-06-03(美国收集)
◎IMDb评分 4.6/10 (23990人评价)
◎IMDb链接 https://www.imdb.com/title/tt14174940/
◎豆瓣评分 4.9/10 (2174人评价)
◎豆瓣链接 https://movie.douban.com/subject/35389123/
◎片  长 98分钟
◎导  演 马修·赖利 Matthew Reilly
◎编  剧 马修·赖利 Matthew Reilly
       斯图尔特·贝亚蒂耶 Stuart Beattie
◎演  员 埃尔莎·帕塔奇 Elsa Pataky
       卢克·布雷西 Luke Bracey
       亚伦·格伦尼 Aaron Glenane
       Zoe Carides Zoe Carides
       瑞斯·穆尔东 Rhys Muldoon
       蒂姆·王 Tim Wong
       史蒂夫·莫里斯 Steve Morris
       史蒂文·A·戴维斯 Steven A. Davis
       克里斯·海姆斯沃斯 Chris Hemsworth
       Liz Keogh Liz Keogh
◎简  介
  坚毅的杰洁·柯林斯上尉(埃尔莎·帕塔奇饰)履历了残暴的现实,在被迫调离五角大楼的胡想岗位后,被派遣负责承平洋中部一个孤立的核导弹阻挡基地。当结合打击同时威胁到基地自己时,柯林斯与蛊惑民气的亚历山大·凯塞尔(卢克·布雷西饰)狭路重逢,凯塞尔是一位前美国军工作报官员,意图实施一项难以设想的计划。时候仅剩下几分钟,柯林斯必须操纵她多年的战术练习和军事专业常识来决议她可以信赖谁,并阻止凯塞尔和他的奥秘雇佣兵完成其扭曲且可怕的使命。                                       
                                    《终极阻挡》由马修·赖利执导,马修·赖利和斯图尔特·贝亚蒂耶配合担任编剧。迈克尔·布恩担任制片人,监制团队包括马修·斯特里特、斯图尔特·贝亚蒂耶、克里斯·海姆斯沃斯、克里斯托弗·马普、罗伯特·斯拉维耶罗、凯茜·摩根和彼得·D·格雷夫斯。主演声势包括亚伦·格伦尼、梅恩·梅塔、瑞斯·穆尔东、贝琳达·琼卜维、马库斯·约翰逊、科林·弗瑞尔...
  1. Video
  2. ID                                       : 1
  3. Format                                   : HEVC
  4. Format/Info                              : High Efficiency Video Coding
  5. Format profile                           : Main 10@L5@Main
  6. HDR format                               : Dolby Vision, Version 1.0, dvhe.08.06, BL+RPU, HDR10 compatible / SMPTE ST 2086, HDR10 compatible
  7. Codec ID                                 : V_MPEGH/ISO/HEVC
  8. Duration                                 : 1 h 36 min
  9. Bit rate                                 : 14.9 Mb/s
  10. Width                                    : 3 840 pixels
  11. Height                                   : 2 160 pixels
  12. Display aspect ratio                     : 16:9
  13. Frame rate mode                          : Constant
  14. Frame rate                               : 24.000 FPS
  15. Color space                              : YUV
  16. Chroma subsampling                       : 4:2:0 (Type 2)
  17. Bit depth                                : 10 bits
  18. Bits/(Pixel*Frame)                       : 0.075
  19. Stream size                              : 10.1 GiB (95%)
  20. Language                                 : English
  21. Default                                  : Yes
  22. Forced                                   : No
  23. Color range                              : Limited
  24. Color primaries                          : BT.2020
  25. Transfer characteristics                 : PQ
  26. Matrix coefficients                      : BT.2020 non-constant
  27. Mastering display color primaries        : Display P3
  28. Mastering display luminance              : min: 0.0001 cd/m2, max: 1000 cd/m2
  29. Maximum Content Light Level              : 1382 cd/m2
  30. Maximum Frame-Average Light Level        : 385 cd/m2
  31. Audio
  32. ID                                       : 2
  33. Format                                   : E-AC-3 JOC
  34. Format/Info                              : Enhanced AC-3 with Joint Object Coding
  35. Commercial name                          : Dolby Digital Plus with Dolby Atmos
  36. Codec ID                                 : A_EAC3
  37. Duration                                 : 1 h 38 min
  38. Bit rate mode                            : Constant
  39. Bit rate                                 : 768 kb/s
  40. Channel(s)                               : 6 channels
  41. Channel layout                           : L R C LFE Ls Rs
  42. Sampling rate                            : 48.0 kHz
  43. Frame rate                               : 31.250 FPS (1536 SPF)
  44. Compression mode                         : Lossy
  45. Stream size                              : 542 MiB (5%)
  46. Language                                 : English
  47. Service kind                             : Complete Main
  48. Default                                  : Yes
  49. Forced                                   : No
  50. Complexity index                         : 16
  51. Number of dynamic objects                : 15
  52. Bed channel count                        : 1 channel
  53. Bed channel configuration                : LFE
  54. Text #1
  55. ID                                       : 3
  56. Format                                   : UTF-8
  57. Codec ID                                 : S_TEXT/UTF8
  58. Codec ID/Info                            : UTF-8 Plain Text
  59. Duration                                 : 1 h 16 min
  60. Bit rate                                 : 0 b/s
  61. Frame rate                               : 0.002 FPS
  62. Count of elements                        : 7
  63. Stream size                              : 294 Bytes (0%)
  64. Title                                    : Forced
  65. Language                                 : English
  66. Default                                  : Yes
  67. Forced                                   : Yes
  68. Text #2
  69. ID                                       : 4
  70. Format                                   : UTF-8
  71. Codec ID                                 : S_TEXT/UTF8
  72. Codec ID/Info                            : UTF-8 Plain Text
  73. Duration                                 : 1 h 29 min
  74. Bit rate                                 : 54 b/s
  75. Frame rate                               : 0.200 FPS
  76. Count of elements                        : 1078
  77. Stream size                              : 35.5 KiB (0%)
  78. Language                                 : English
  79. Default                                  : No
  80. Forced                                   : No
  81. Text #3
  82. ID                                       : 5
  83. Format                                   : UTF-8
  84. Codec ID                                 : S_TEXT/UTF8
  85. Codec ID/Info                            : UTF-8 Plain Text
  86. Duration                                 : 1 h 32 min
  87. Bit rate                                 : 66 b/s
  88. Frame rate                               : 0.292 FPS
  89. Count of elements                        : 1617
  90. Stream size                              : 45.0 KiB (0%)
  91. Title                                    : SDH
  92. Language                                 : English
  93. Default                                  : No
  94. Forced                                   : No
  95. Text #4
  96. ID                                       : 6
  97. Format                                   : UTF-8
  98. Codec ID                                 : S_TEXT/UTF8
  99. Codec ID/Info                            : UTF-8 Plain Text
  100. Duration                                 : 1 h 36 min
  101. Bit rate                                 : 82 b/s
  102. Frame rate                               : 0.192 FPS
  103. Count of elements                        : 1112
  104. Stream size                              : 58.2 KiB (0%)
  105. Language                                 : Arabic
  106. Default                                  : No
  107. Forced                                   : No
  108. Text #5
  109. ID                                       : 7
  110. Format                                   : UTF-8
  111. Codec ID                                 : S_TEXT/UTF8
  112. Codec ID/Info                            : UTF-8 Plain Text
  113. Duration                                 : 1 h 36 min
  114. Bit rate                                 : 46 b/s
  115. Frame rate                               : 0.167 FPS
  116. Count of elements                        : 964
  117. Stream size                              : 33.0 KiB (0%)
  118. Language                                 : Catalan
  119. Default                                  : No
  120. Forced                                   : No
  121. Text #6
  122. ID                                       : 8
  123. Format                                   : UTF-8
  124. Codec ID                                 : S_TEXT/UTF8
  125. Codec ID/Info                            : UTF-8 Plain Text
  126. Duration                                 : 1 h 36 min
  127. Bit rate                                 : 48 b/s
  128. Frame rate                               : 0.190 FPS
  129. Count of elements                        : 1100
  130. Stream size                              : 34.3 KiB (0%)
  131. Language                                 : Czech
  132. Default                                  : No
  133. Forced                                   : No
  134. Text #7
  135. ID                                       : 9
  136. Format                                   : UTF-8
  137. Codec ID                                 : S_TEXT/UTF8
  138. Codec ID/Info                            : UTF-8 Plain Text
  139. Duration                                 : 1 h 36 min
  140. Bit rate                                 : 48 b/s
  141. Frame rate                               : 0.175 FPS
  142. Count of elements                        : 1011
  143. Stream size                              : 33.9 KiB (0%)
  144. Language                                 : Danish
  145. Default                                  : No
  146. Forced                                   : No
  147. Text #8
  148. ID                                       : 10
  149. Format                                   : UTF-8
  150. Codec ID                                 : S_TEXT/UTF8
  151. Codec ID/Info                            : UTF-8 Plain Text
  152. Duration                                 : 1 h 36 min
  153. Bit rate                                 : 50 b/s
  154. Frame rate                               : 0.177 FPS
  155. Count of elements                        : 1021
  156. Stream size                              : 35.4 KiB (0%)
  157. Language                                 : German
  158. Default                                  : No
  159. Forced                                   : No
  160. Text #9
  161. ID                                       : 11
  162. Format                                   : UTF-8
  163. Codec ID                                 : S_TEXT/UTF8
  164. Codec ID/Info                            : UTF-8 Plain Text
  165. Duration                                 : 1 h 36 min
  166. Bit rate                                 : 82 b/s
  167. Frame rate                               : 0.191 FPS
  168. Count of elements                        : 1105
  169. Stream size                              : 58.2 KiB (0%)
  170. Language                                 : Greek
  171. Default                                  : No
  172. Forced                                   : No
  173. Text #10
  174. ID                                       : 12
  175. Format                                   : UTF-8
  176. Codec ID                                 : S_TEXT/UTF8
  177. Codec ID/Info                            : UTF-8 Plain Text
  178. Duration                                 : 1 h 30 min
  179. Bit rate                                 : 57 b/s
  180. Frame rate                               : 0.209 FPS
  181. Count of elements                        : 1129
  182. Stream size                              : 38.0 KiB (0%)
  183. Title                                    : Latin American
  184. Language                                 : Spanish (Latin America)
  185. Default                                  : No
  186. Forced                                   : No
  187. Text #11
  188. ID                                       : 13
  189. Format                                   : UTF-8
  190. Codec ID                                 : S_TEXT/UTF8
  191. Codec ID/Info                            : UTF-8 Plain Text
  192. Duration                                 : 1 h 36 min
  193. Bit rate                                 : 47 b/s
  194. Frame rate                               : 0.195 FPS
  195. Count of elements                        : 1127
  196. Stream size                              : 33.7 KiB (0%)
  197. Title                                    : Latin American
  198. Language                                 : Spanish (Latin America)
  199. Default                                  : No
  200. Forced                                   : No
  201. Text #12
  202. ID                                       : 14
  203. Format                                   : UTF-8
  204. Codec ID                                 : S_TEXT/UTF8
  205. Codec ID/Info                            : UTF-8 Plain Text
  206. Duration                                 : 1 h 36 min
  207. Bit rate                                 : 45 b/s
  208. Frame rate                               : 0.183 FPS
  209. Count of elements                        : 1056
  210. Stream size                              : 32.3 KiB (0%)
  211. Language                                 : Spanish (ES)
  212. Default                                  : No
  213. Forced                                   : No
  214. Text #13
  215. ID                                       : 15
  216. Format                                   : UTF-8
  217. Codec ID                                 : S_TEXT/UTF8
  218. Codec ID/Info                            : UTF-8 Plain Text
  219. Duration                                 : 1 h 36 min
  220. Bit rate                                 : 46 b/s
  221. Frame rate                               : 0.192 FPS
  222. Count of elements                        : 1110
  223. Stream size                              : 32.8 KiB (0%)
  224. Language                                 : Basque
  225. Default                                  : No
  226. Forced                                   : No
  227. Text #14
  228. ID                                       : 16
  229. Format                                   : UTF-8
  230. Codec ID                                 : S_TEXT/UTF8
  231. Codec ID/Info                            : UTF-8 Plain Text
  232. Duration                                 : 1 h 36 min
  233. Bit rate                                 : 42 b/s
  234. Frame rate                               : 0.159 FPS
  235. Count of elements                        : 920
  236. Stream size                              : 29.7 KiB (0%)
  237. Language                                 : Finnish
  238. Default                                  : No
  239. Forced                                   : No
  240. Text #15
  241. ID                                       : 17
  242. Format                                   : UTF-8
  243. Codec ID                                 : S_TEXT/UTF8
  244. Codec ID/Info                            : UTF-8 Plain Text
  245. Duration                                 : 1 h 36 min
  246. Bit rate                                 : 51 b/s
  247. Frame rate                               : 0.188 FPS
  248. Count of elements                        : 1084
  249. Stream size                              : 36.3 KiB (0%)
  250. Language                                 : fil
  251. Default                                  : No
  252. Forced                                   : No
  253. Text #16
  254. ID                                       : 18
  255. Format                                   : UTF-8
  256. Codec ID                                 : S_TEXT/UTF8
  257. Codec ID/Info                            : UTF-8 Plain Text
  258. Duration                                 : 1 h 36 min
  259. Bit rate                                 : 48 b/s
  260. Frame rate                               : 0.173 FPS
  261. Count of elements                        : 1002
  262. Stream size                              : 34.1 KiB (0%)
  263. Language                                 : French
  264. Default                                  : No
  265. Forced                                   : No
  266. Text #17
  267. ID                                       : 19
  268. Format                                   : UTF-8
  269. Codec ID                                 : S_TEXT/UTF8
  270. Codec ID/Info                            : UTF-8 Plain Text
  271. Duration                                 : 1 h 36 min
  272. Bit rate                                 : 46 b/s
  273. Frame rate                               : 0.192 FPS
  274. Count of elements                        : 1112
  275. Stream size                              : 32.6 KiB (0%)
  276. Language                                 : Galician
  277. Default                                  : No
  278. Forced                                   : No
  279. Text #18
  280. ID                                       : 20
  281. Format                                   : UTF-8
  282. Codec ID                                 : S_TEXT/UTF8
  283. Codec ID/Info                            : UTF-8 Plain Text
  284. Duration                                 : 1 h 36 min
  285. Bit rate                                 : 77 b/s
  286. Frame rate                               : 0.183 FPS
  287. Count of elements                        : 1060
  288. Stream size                              : 54.4 KiB (0%)
  289. Language                                 : Hebrew
  290. Default                                  : No
  291. Forced                                   : No
  292. Text #19
  293. ID                                       : 21
  294. Format                                   : UTF-8
  295. Codec ID                                 : S_TEXT/UTF8
  296. Codec ID/Info                            : UTF-8 Plain Text
  297. Duration                                 : 1 h 36 min
  298. Bit rate                                 : 44 b/s
  299. Frame rate                               : 0.182 FPS
  300. Count of elements                        : 1050
  301. Stream size                              : 31.4 KiB (0%)
  302. Language                                 : Croatian
  303. Default                                  : No
  304. Forced                                   : No
  305. Text #20
  306. ID                                       : 22
  307. Format                                   : UTF-8
  308. Codec ID                                 : S_TEXT/UTF8
  309. Codec ID/Info                            : UTF-8 Plain Text
  310. Duration                                 : 1 h 36 min
  311. Bit rate                                 : 49 b/s
  312. Frame rate                               : 0.185 FPS
  313. Count of elements                        : 1071
  314. Stream size                              : 34.9 KiB (0%)
  315. Language                                 : Hungarian
  316. Default                                  : No
  317. Forced                                   : No
  318. Text #21
  319. ID                                       : 23
  320. Format                                   : UTF-8
  321. Codec ID                                 : S_TEXT/UTF8
  322. Codec ID/Info                            : UTF-8 Plain Text
  323. Duration                                 : 1 h 36 min
  324. Bit rate                                 : 50 b/s
  325. Frame rate                               : 0.188 FPS
  326. Count of elements                        : 1088
  327. Stream size                              : 35.3 KiB (0%)
  328. Language                                 : Indonesian
  329. Default                                  : No
  330. Forced                                   : No
  331. Text #22
  332. ID                                       : 24
  333. Format                                   : UTF-8
  334. Codec ID                                 : S_TEXT/UTF8
  335. Codec ID/Info                            : UTF-8 Plain Text
  336. Duration                                 : 1 h 36 min
  337. Bit rate                                 : 47 b/s
  338. Frame rate                               : 0.184 FPS
  339. Count of elements                        : 1062
  340. Stream size                              : 33.2 KiB (0%)
  341. Language                                 : Italian
  342. Default                                  : No
  343. Forced                                   : No
  344. Text #23
  345. ID                                       : 25
  346. Format                                   : UTF-8
  347. Codec ID                                 : S_TEXT/UTF8
  348. Codec ID/Info                            : UTF-8 Plain Text
  349. Duration                                 : 1 h 36 min
  350. Bit rate                                 : 45 b/s
  351. Frame rate                               : 0.190 FPS
  352. Count of elements                        : 1101
  353. Stream size                              : 32.3 KiB (0%)
  354. Language                                 : Japanese
  355. Default                                  : No
  356. Forced                                   : No
  357. Text #24
  358. ID                                       : 26
  359. Format                                   : UTF-8
  360. Codec ID                                 : S_TEXT/UTF8
  361. Codec ID/Info                            : UTF-8 Plain Text
  362. Duration                                 : 1 h 36 min
  363. Bit rate                                 : 57 b/s
  364. Frame rate                               : 0.193 FPS
  365. Count of elements                        : 1114
  366. Stream size                              : 40.6 KiB (0%)
  367. Language                                 : Korean
  368. Default                                  : No
  369. Forced                                   : No
  370. Text #25
  371. ID                                       : 27
  372. Format                                   : UTF-8
  373. Codec ID                                 : S_TEXT/UTF8
  374. Codec ID/Info                            : UTF-8 Plain Text
  375. Duration                                 : 1 h 36 min
  376. Bit rate                                 : 48 b/s
  377. Frame rate                               : 0.190 FPS
  378. Count of elements                        : 1098
  379. Stream size                              : 33.8 KiB (0%)
  380. Language                                 : Malay
  381. Default                                  : No
  382. Forced                                   : No
  383. Text #26
  384. ID                                       : 28
  385. Format                                   : UTF-8
  386. Codec ID                                 : S_TEXT/UTF8
  387. Codec ID/Info                            : UTF-8 Plain Text
  388. Duration                                 : 1 h 36 min
  389. Bit rate                                 : 44 b/s
  390. Frame rate                               : 0.175 FPS
  391. Count of elements                        : 1009
  392. Stream size                              : 31.4 KiB (0%)
  393. Language                                 : Norwegian Bokmal
  394. Default                                  : No
  395. Forced                                   : No
  396. Text #27
  397. ID                                       : 29
  398. Format                                   : UTF-8
  399. Codec ID                                 : S_TEXT/UTF8
  400. Codec ID/Info                            : UTF-8 Plain Text
  401. Duration                                 : 1 h 36 min
  402. Bit rate                                 : 42 b/s
  403. Frame rate                               : 0.167 FPS
  404. Count of elements                        : 968
  405. Stream size                              : 30.3 KiB (0%)
  406. Language                                 : Dutch
  407. Default                                  : No
  408. Forced                                   : No
  409. Text #28
  410. ID                                       : 30
  411. Format                                   : UTF-8
  412. Codec ID                                 : S_TEXT/UTF8
  413. Codec ID/Info                            : UTF-8 Plain Text
  414. Duration                                 : 1 h 36 min
  415. Bit rate                                 : 43 b/s
  416. Frame rate                               : 0.184 FPS
  417. Count of elements                        : 1061
  418. Stream size                              : 30.6 KiB (0%)
  419. Language                                 : Polish
  420. Default                                  : No
  421. Forced                                   : No
  422. Text #29
  423. ID                                       : 31
  424. Format                                   : UTF-8
  425. Codec ID                                 : S_TEXT/UTF8
  426. Codec ID/Info                            : UTF-8 Plain Text
  427. Duration                                 : 1 h 30 min
  428. Bit rate                                 : 58 b/s
  429. Frame rate                               : 0.196 FPS
  430. Count of elements                        : 1060
  431. Stream size                              : 38.4 KiB (0%)
  432. Title                                    : Brazilian
  433. Language                                 : Portuguese (BR)
  434. Default                                  : No
  435. Forced                                   : No
  436. Text #30
  437. ID                                       : 32
  438. Format                                   : UTF-8
  439. Codec ID                                 : S_TEXT/UTF8
  440. Codec ID/Info                            : UTF-8 Plain Text
  441. Duration                                 : 1 h 36 min
  442. Bit rate                                 : 49 b/s
  443. Frame rate                               : 0.191 FPS
  444. Count of elements                        : 1104
  445. Stream size                              : 35.2 KiB (0%)
  446. Title                                    : Brazilian
  447. Language                                 : Portuguese (BR)
  448. Default                                  : No
  449. Forced                                   : No
  450. Text #31
  451. ID                                       : 33
  452. Format                                   : UTF-8
  453. Codec ID                                 : S_TEXT/UTF8
  454. Codec ID/Info                            : UTF-8 Plain Text
  455. Duration                                 : 1 h 36 min
  456. Bit rate                                 : 50 b/s
  457. Frame rate                               : 0.190 FPS
  458. Count of elements                        : 1099
  459. Stream size                              : 35.5 KiB (0%)
  460. Language                                 : Portuguese (PT)
  461. Default                                  : No
  462. Forced                                   : No
  463. Text #32
  464. ID                                       : 34
  465. Format                                   : UTF-8
  466. Codec ID                                 : S_TEXT/UTF8
  467. Codec ID/Info                            : UTF-8 Plain Text
  468. Duration                                 : 1 h 30 min
  469. Bit rate                                 : 56 b/s
  470. Frame rate                               : 0.176 FPS
  471. Count of elements                        : 952
  472. Stream size                              : 37.0 KiB (0%)
  473. Language                                 : Romanian
  474. Default                                  : No
  475. Forced                                   : No
  476. Text #33
  477. ID                                       : 35
  478. Format                                   : UTF-8
  479. Codec ID                                 : S_TEXT/UTF8
  480. Codec ID/Info                            : UTF-8 Plain Text
  481. Duration                                 : 1 h 36 min
  482. Bit rate                                 : 76 b/s
  483. Frame rate                               : 0.187 FPS
  484. Count of elements                        : 1081
  485. Stream size                              : 54.2 KiB (0%)
  486. Language                                 : Russian
  487. Default                                  : No
  488. Forced                                   : No
  489. Text #34
  490. ID                                       : 36
  491. Format                                   : UTF-8
  492. Codec ID                                 : S_TEXT/UTF8
  493. Codec ID/Info                            : UTF-8 Plain Text
  494. Duration                                 : 1 h 36 min
  495. Bit rate                                 : 48 b/s
  496. Frame rate                               : 0.159 FPS
  497. Count of elements                        : 917
  498. Stream size                              : 34.4 KiB (0%)
  499. Language                                 : Swedish
  500. Default                                  : No
  501. Forced                                   : No
  502. Text #35
  503. ID                                       : 37
  504. Format                                   : UTF-8
  505. Codec ID                                 : S_TEXT/UTF8
  506. Codec ID/Info                            : UTF-8 Plain Text
  507. Duration                                 : 1 h 36 min
  508. Bit rate                                 : 128 b/s
  509. Frame rate                               : 0.192 FPS
  510. Count of elements                        : 1110
  511. Stream size                              : 90.9 KiB (0%)
  512. Language                                 : Thai
  513. Default                                  : No
  514. Forced                                   : No
  515. Text #36
  516. ID                                       : 38
  517. Format                                   : UTF-8
  518. Codec ID                                 : S_TEXT/UTF8
  519. Codec ID/Info                            : UTF-8 Plain Text
  520. Duration                                 : 1 h 36 min
  521. Bit rate                                 : 49 b/s
  522. Frame rate                               : 0.154 FPS
  523. Count of elements                        : 888
  524. Stream size                              : 35.0 KiB (0%)
  525. Language                                 : Turkish
  526. Default                                  : No
  527. Forced                                   : No
  528. Text #37
  529. ID                                       : 39
  530. Format                                   : UTF-8
  531. Codec ID                                 : S_TEXT/UTF8
  532. Codec ID/Info                            : UTF-8 Plain Text
  533. Duration                                 : 1 h 36 min
  534. Bit rate                                 : 78 b/s
  535. Frame rate                               : 0.186 FPS
  536. Count of elements                        : 1074
  537. Stream size                              : 55.6 KiB (0%)
  538. Language                                 : Ukrainian
  539. Default                                  : No
  540. Forced                                   : No
  541. Text #38
  542. ID                                       : 40
  543. Format                                   : UTF-8
  544. Codec ID                                 : S_TEXT/UTF8
  545. Codec ID/Info                            : UTF-8 Plain Text
  546. Duration                                 : 1 h 36 min
  547. Bit rate                                 : 68 b/s
  548. Frame rate                               : 0.186 FPS
  549. Count of elements                        : 1076
  550. Stream size                              : 48.4 KiB (0%)
  551. Language                                 : Vietnamese
  552. Default                                  : No
  553. Forced                                   : No
  554. Text #39
  555. ID                                       : 41
  556. Format                                   : UTF-8
  557. Codec ID                                 : S_TEXT/UTF8
  558. Codec ID/Info                            : UTF-8 Plain Text
  559. Duration                                 : 1 h 36 min
  560. Bit rate                                 : 49 b/s
  561. Frame rate                               : 0.192 FPS
  562. Count of elements                        : 1112
  563. Stream size                              : 35.2 KiB (0%)
  564. Title                                    : Simplified
  565. Language                                 : Chinese (Simplied)
  566. Default                                  : No
  567. Forced                                   : No
  568. Text #40
  569. ID                                       : 42
  570. Format                                   : UTF-8
  571. Codec ID                                 : S_TEXT/UTF8
  572. Codec ID/Info                            : UTF-8 Plain Text
  573. Duration                                 : 1 h 36 min
  574. Bit rate                                 : 48 b/s
  575. Frame rate                               : 0.200 FPS
  576. Count of elements                        : 1156
  577. Stream size                              : 34.1 KiB (0%)
  578. Title                                    : Traditional
  579. Language                                 : Chinese (Traditional)
  580. Default                                  : No
  581. Forced                                   : No
  582. Menu
  583. 01:32:32.000                             : en:End Credits
复制代码











回复

使用道具 举报

蓝光币
259
发表于 2023-9-25 10:16:33 | 显示全部楼层
谢谢楼主
回复

使用道具 举报

懒得打字嘛,点击右侧快捷回复 【右侧内容,后台自定义】
您需要登录后才可以回帖 登录 | 立即加入

本版积分规则

Copyright © 2024 Comsenz Inc. Powered by 蓝光电影网

本站内容由用户自主分享和转载自互联网,转载目的在于传递更多信息,并不代表本网赞同其观点和对其真实性负责。

如有侵权、违反国家法律政策行为,请联系我们,我们会第一时间及时清除和处理!

举报反馈邮箱:4k1080.com@gmail.com

快速回复 返回顶部 返回列表