找回密码

查看: 1110|回复: 0

[2160p-WEB] 蓝调天后[中文字幕].Ma.Raineys.Black.Bottom.2020.2160p.NF.WEB-DL.DDP5.1.Atmos.DV.MP4.x265-DVSUX 12.97GB

[复制链接]
蓝光币
1840
发表于 2023-1-2 14:57:31 | 显示全部楼层 |阅读模式


◎标  题 蓝调天后
◎译  名 玛雷尼的黑臀舞 / 玛雷尼的扭摆舞 / 马雷尼的黑底
◎片  名 Ma Rainey's Black Bottom
◎年  代 2020
◎产  地 美国
◎类  别 剧情 / 音乐
◎语  言 英语
◎上映日期 2020-12-18(美国收集)
◎IMDb评分 6.9/10 (54226人评价)
◎IMDb链接 https://www.imdb.com/title/tt10514222/
◎豆瓣评分 6.5/10 (4714人评价)
◎豆瓣链接 https://movie.douban.com/subject/34439631/
◎片  长 94分钟
◎导  演 乔治·乌尔夫 George C. Wolfe
◎编  剧 鲁本·桑地亚哥-哈德森 Ruben Santiago-Hudson
       奥古斯特·威尔逊 August Wilson
◎演  员 维奥拉·戴维斯 Viola Davis
       查德维克·博斯曼 Chadwick Boseman
       科尔曼·多明戈 Colman Domingo
       格林·特鲁曼 Glynn Turman
       迈克尔·波茨 Michael Potts
       杰里米萨默斯 Jeremy Shamos
       约翰尼·科瓦内 Jonny Coyne
       泰勒·佩姬 Taylour Paige
       杜山·布朗 Dusan Brown
       约书亚·哈尔托 Joshua Harto
       奎因·范安特卫普 Quinn VanAntwerp
       克洛伊·戴维斯 Chloe Davis
       梅特·纳塔利奥 Mayte Natalio
       约翰娜·埃尔米纳·莫伊兹 Johanna Elmina Moise
       Onyxx Noel Onyxx Noel
       詹姆斯·西耶斯基 James Ciesielski
       威廉·卡尼亚 William Kania
       托比亚斯 A·施利斯勒 Tobias A. Schliessler
       马克·瑞克 Mark Ricker
       安·罗斯 Ann Roth
       塞尔吉奥·洛佩斯-里维拉 Sergio Lopez-Rivera
◎简  介
  20世纪20 年月,在芝加哥的一场午后录音中,乐队成员们正在期待开辟性的表演者、传奇的“蓝调之母”玛·雷尼(奥斯卡金像奖得主维奥拉·戴维斯饰),其间氛围变得愈发严重。录音停止到前期时,无畏又脾性火爆的玛和其白人掮客人及建造人就她的音乐控制权展开了一场意志的较劲。大志勃勃的小号手列维(查德维克·博斯曼饰)很是欣赏玛的女朋友,并决心在音乐行业中占有一席之地,当乐队在工作室幽闭的排演室中期待时,他促使乐手们爆出揭穿真相的故事,这将永久改变他们的生活。                                       
                                    《蓝调天后》按照两次普利策奖得主奥古斯特·威尔逊的戏剧改编而成,称道了蓝调的变化气力以及那些拒绝让社会偏见左右自己代价的艺术家。该电影由乔治·乌尔夫执导,鲁本·桑地亚哥-哈德森停止剧本改编,凭仗《藩篱》荣获奥斯卡奖提名的丹泽尔·华盛顿和托德·布莱克担任制片人。科尔曼·多明戈、格林·特鲁曼、迈克尔·波茨、泰勒·...
  1. Video
  2. ID                                       : 1
  3. Format                                   : HEVC
  4. Format/Info                              : High Efficiency Video Coding
  5. Format profile                           : Main 10@L5@Main
  6. HDR format                               : Dolby Vision, Version 1.0, dvhe.05.06, BL+RPU
  7. Codec ID                                 : dvhe
  8. Codec ID/Info                            : High Efficiency Video Coding with Dolby Vision
  9. Duration                                 : 1 h 34 min
  10. Bit rate                                 : 19.0 Mb/s
  11. Width                                    : 3 840 pixels
  12. Height                                   : 2 160 pixels
  13. Display aspect ratio                     : 16:9
  14. Frame rate mode                          : Constant
  15. Frame rate                               : 24.000 FPS
  16. Color space                              : YUV
  17. Chroma subsampling                       : 4:2:0
  18. Bit depth                                : 10 bits
  19. Bits/(Pixel*Frame)                       : 0.095
  20. Stream size                              : 12.5 GiB (96%)
  21. Default                                  : Yes
  22. Alternate group                          : 1
  23. Encoded date                             : UTC 2023-01-01 16:24:13
  24. Tagged date                              : UTC 2023-01-01 16:25:37
  25. Color range                              : Full
  26. Codec configuration box                  : hvcC+dvcC
  27. Audio
  28. ID                                       : 2
  29. Format                                   : E-AC-3 JOC
  30. Format/Info                              : Enhanced AC-3 with Joint Object Coding
  31. Commercial name                          : Dolby Digital Plus with Dolby Atmos
  32. Codec ID                                 : ec-3
  33. Duration                                 : 1 h 34 min
  34. Bit rate mode                            : Constant
  35. Bit rate                                 : 768 kb/s
  36. Maximum bit rate                         : 811 kb/s
  37. Channel(s)                               : 6 channels
  38. Channel layout                           : L R C LFE Ls Rs
  39. Sampling rate                            : 48.0 kHz
  40. Frame rate                               : 31.250 FPS (1536 SPF)
  41. Compression mode                         : Lossy
  42. Stream size                              : 517 MiB (4%)
  43. Title                                    : English
  44. Language                                 : English
  45. Service kind                             : Complete Main
  46. Default                                  : Yes
  47. Alternate group                          : 1
  48. Tagged date                              : UTC 2023-01-01 16:25:37
  49. Complexity index                         : Not present / 16
  50. Number of dynamic objects                : 15
  51. Bed channel count                        : 1 channel
  52. Bed channel configuration                : LFE
  53. Text #1
  54. ID                                       : 3
  55. Format                                   : Timed Text
  56. Codec ID                                 : tx3g
  57. Duration                                 : 1 h 24 min
  58. Bit rate mode                            : Variable
  59. Bit rate                                 : 100 b/s
  60. Frame rate                               : 0.543 FPS
  61. Stream size                              : 61.8 KiB (0%)
  62. Title                                    : English
  63. Language                                 : English
  64. Forced                                   : No
  65. Encoded date                             : UTC 2023-01-01 16:25:34
  66. Tagged date                              : UTC 2023-01-01 16:25:37
  67. Text #2
  68. ID                                       : 4
  69. Format                                   : Timed Text
  70. Codec ID                                 : tx3g
  71. Duration                                 : 1 h 27 min
  72. Bit rate mode                            : Variable
  73. Bit rate                                 : 112 b/s
  74. Frame rate                               : 0.609 FPS
  75. Stream size                              : 72.0 KiB (0%)
  76. Title                                    : English
  77. Language                                 : English
  78. Forced                                   : No
  79. Encoded date                             : UTC 2023-01-01 16:25:34
  80. Tagged date                              : UTC 2023-01-01 16:25:37
  81. Text #3
  82. ID                                       : 5
  83. Format                                   : Timed Text
  84. Codec ID                                 : tx3g
  85. Duration                                 : 1 h 33 min
  86. Bit rate mode                            : Variable
  87. Bit rate                                 : 119 b/s
  88. Frame rate                               : 0.463 FPS
  89. Stream size                              : 81.2 KiB (0%)
  90. Title                                    : Arabic
  91. Language                                 : Arabic
  92. Forced                                   : No
  93. Encoded date                             : UTC 2023-01-01 16:25:34
  94. Tagged date                              : UTC 2023-01-01 16:25:37
  95. Text #4
  96. ID                                       : 6
  97. Format                                   : Timed Text
  98. Codec ID                                 : tx3g
  99. Duration                                 : 1 h 33 min
  100. Bit rate mode                            : Variable
  101. Bit rate                                 : 85 b/s
  102. Frame rate                               : 0.463 FPS
  103. Stream size                              : 57.7 KiB (0%)
  104. Title                                    : Chinese-Simplified
  105. Language                                 : Chinese (Simplied)
  106. Forced                                   : No
  107. Encoded date                             : UTC 2023-01-01 16:25:34
  108. Tagged date                              : UTC 2023-01-01 16:25:37
  109. Text #5
  110. ID                                       : 7
  111. Format                                   : Timed Text
  112. Codec ID                                 : tx3g
  113. Duration                                 : 1 h 33 min
  114. Bit rate mode                            : Variable
  115. Bit rate                                 : 80 b/s
  116. Frame rate                               : 0.510 FPS
  117. Stream size                              : 54.8 KiB (0%)
  118. Title                                    : Chinese-Traditional
  119. Language                                 : Chinese (Traditional)
  120. Forced                                   : No
  121. Encoded date                             : UTC 2023-01-01 16:25:34
  122. Tagged date                              : UTC 2023-01-01 16:25:37
  123. Text #6
  124. ID                                       : 8
  125. Format                                   : Timed Text
  126. Codec ID                                 : tx3g
  127. Duration                                 : 1 h 33 min
  128. Bit rate mode                            : Variable
  129. Bit rate                                 : 67 b/s
  130. Frame rate                               : 0.434 FPS
  131. Stream size                              : 45.5 KiB (0%)
  132. Title                                    : Croatian
  133. Language                                 : Croatian
  134. Forced                                   : No
  135. Encoded date                             : UTC 2023-01-01 16:25:34
  136. Tagged date                              : UTC 2023-01-01 16:25:37
  137. Text #7
  138. ID                                       : 9
  139. Format                                   : Timed Text
  140. Codec ID                                 : tx3g
  141. Duration                                 : 1 h 33 min
  142. Bit rate mode                            : Variable
  143. Bit rate                                 : 71 b/s
  144. Frame rate                               : 0.446 FPS
  145. Stream size                              : 48.6 KiB (0%)
  146. Title                                    : Czech
  147. Language                                 : Czech
  148. Forced                                   : No
  149. Encoded date                             : UTC 2023-01-01 16:25:35
  150. Tagged date                              : UTC 2023-01-01 16:25:37
  151. Text #8
  152. ID                                       : 10
  153. Format                                   : Timed Text
  154. Codec ID                                 : tx3g
  155. Duration                                 : 1 h 33 min
  156. Bit rate mode                            : Variable
  157. Bit rate                                 : 70 b/s
  158. Frame rate                               : 0.412 FPS
  159. Stream size                              : 47.6 KiB (0%)
  160. Title                                    : Danish
  161. Language                                 : Danish
  162. Forced                                   : No
  163. Encoded date                             : UTC 2023-01-01 16:25:35
  164. Tagged date                              : UTC 2023-01-01 16:25:37
  165. Text #9
  166. ID                                       : 11
  167. Format                                   : Timed Text
  168. Codec ID                                 : tx3g
  169. Duration                                 : 1 h 33 min
  170. Bit rate mode                            : Variable
  171. Bit rate                                 : 69 b/s
  172. Frame rate                               : 0.391 FPS
  173. Stream size                              : 47.3 KiB (0%)
  174. Title                                    : Dutch
  175. Language                                 : Dutch
  176. Forced                                   : No
  177. Encoded date                             : UTC 2023-01-01 16:25:35
  178. Tagged date                              : UTC 2023-01-01 16:25:37
  179. Text #10
  180. ID                                       : 12
  181. Format                                   : Timed Text
  182. Codec ID                                 : tx3g
  183. Duration                                 : 1 h 33 min
  184. Bit rate mode                            : Variable
  185. Bit rate                                 : 65 b/s
  186. Frame rate                               : 0.422 FPS
  187. Stream size                              : 44.5 KiB (0%)
  188. Title                                    : Finnish
  189. Language                                 : Finnish
  190. Forced                                   : No
  191. Encoded date                             : UTC 2023-01-01 16:25:35
  192. Tagged date                              : UTC 2023-01-01 16:25:37
  193. Text #11
  194. ID                                       : 13
  195. Format                                   : Timed Text
  196. Codec ID                                 : tx3g
  197. Duration                                 : 1 h 33 min
  198. Bit rate mode                            : Variable
  199. Bit rate                                 : 71 b/s
  200. Frame rate                               : 0.443 FPS
  201. Stream size                              : 48.5 KiB (0%)
  202. Title                                    : French
  203. Language                                 : French
  204. Forced                                   : No
  205. Encoded date                             : UTC 2023-01-01 16:25:35
  206. Tagged date                              : UTC 2023-01-01 16:25:37
  207. Text #12
  208. ID                                       : 14
  209. Format                                   : Timed Text
  210. Codec ID                                 : tx3g
  211. Duration                                 : 1 h 33 min
  212. Bit rate mode                            : Variable
  213. Bit rate                                 : 73 b/s
  214. Frame rate                               : 0.424 FPS
  215. Stream size                              : 50.0 KiB (0%)
  216. Title                                    : German
  217. Language                                 : German
  218. Forced                                   : No
  219. Encoded date                             : UTC 2023-01-01 16:25:35
  220. Tagged date                              : UTC 2023-01-01 16:25:37
  221. Text #13
  222. ID                                       : 15
  223. Format                                   : Timed Text
  224. Codec ID                                 : tx3g
  225. Duration                                 : 1 h 33 min
  226. Bit rate mode                            : Variable
  227. Bit rate                                 : 120 b/s
  228. Frame rate                               : 0.442 FPS
  229. Stream size                              : 82.2 KiB (0%)
  230. Title                                    : Greek
  231. Language                                 : Greek
  232. Forced                                   : No
  233. Encoded date                             : UTC 2023-01-01 16:25:35
  234. Tagged date                              : UTC 2023-01-01 16:25:37
  235. Text #14
  236. ID                                       : 16
  237. Format                                   : Timed Text
  238. Codec ID                                 : tx3g
  239. Duration                                 : 1 h 33 min
  240. Bit rate mode                            : Variable
  241. Bit rate                                 : 119 b/s
  242. Frame rate                               : 0.451 FPS
  243. Stream size                              : 81.3 KiB (0%)
  244. Title                                    : Hebrew
  245. Language                                 : Hebrew
  246. Forced                                   : No
  247. Encoded date                             : UTC 2023-01-01 16:25:35
  248. Tagged date                              : UTC 2023-01-01 16:25:37
  249. Text #15
  250. ID                                       : 17
  251. Format                                   : Timed Text
  252. Codec ID                                 : tx3g
  253. Duration                                 : 1 h 33 min
  254. Bit rate mode                            : Variable
  255. Bit rate                                 : 73 b/s
  256. Frame rate                               : 0.451 FPS
  257. Stream size                              : 49.8 KiB (0%)
  258. Title                                    : Hungarian
  259. Language                                 : Hungarian
  260. Forced                                   : No
  261. Encoded date                             : UTC 2023-01-01 16:25:35
  262. Tagged date                              : UTC 2023-01-01 16:25:37
  263. Text #16
  264. ID                                       : 18
  265. Format                                   : Timed Text
  266. Codec ID                                 : tx3g
  267. Duration                                 : 1 h 33 min
  268. Bit rate mode                            : Variable
  269. Bit rate                                 : 75 b/s
  270. Frame rate                               : 0.461 FPS
  271. Stream size                              : 51.2 KiB (0%)
  272. Title                                    : Indonesian
  273. Language                                 : Indonesian
  274. Forced                                   : No
  275. Encoded date                             : UTC 2023-01-01 16:25:35
  276. Tagged date                              : UTC 2023-01-01 16:25:37
  277. Text #17
  278. ID                                       : 19
  279. Format                                   : Timed Text
  280. Codec ID                                 : tx3g
  281. Duration                                 : 1 h 33 min
  282. Bit rate mode                            : Variable
  283. Bit rate                                 : 72 b/s
  284. Frame rate                               : 0.461 FPS
  285. Stream size                              : 49.1 KiB (0%)
  286. Title                                    : Italian
  287. Language                                 : Italian
  288. Forced                                   : No
  289. Encoded date                             : UTC 2023-01-01 16:25:35
  290. Tagged date                              : UTC 2023-01-01 16:25:37
  291. Text #18
  292. ID                                       : 20
  293. Format                                   : Timed Text
  294. Codec ID                                 : tx3g
  295. Duration                                 : 1 h 33 min
  296. Bit rate mode                            : Variable
  297. Bit rate                                 : 67 b/s
  298. Frame rate                               : 0.389 FPS
  299. Stream size                              : 45.7 KiB (0%)
  300. Title                                    : Japanese
  301. Language                                 : Japanese
  302. Forced                                   : No
  303. Encoded date                             : UTC 2023-01-01 16:25:35
  304. Tagged date                              : UTC 2023-01-01 16:25:37
  305. Text #19
  306. ID                                       : 21
  307. Format                                   : Timed Text
  308. Codec ID                                 : tx3g
  309. Duration                                 : 1 h 33 min
  310. Bit rate mode                            : Variable
  311. Bit rate                                 : 95 b/s
  312. Frame rate                               : 0.465 FPS
  313. Stream size                              : 64.7 KiB (0%)
  314. Title                                    : Korean
  315. Language                                 : Korean
  316. Forced                                   : No
  317. Encoded date                             : UTC 2023-01-01 16:25:35
  318. Tagged date                              : UTC 2023-01-01 16:25:37
  319. Text #20
  320. ID                                       : 22
  321. Format                                   : Timed Text
  322. Codec ID                                 : tx3g
  323. Duration                                 : 1 h 33 min
  324. Bit rate mode                            : Variable
  325. Bit rate                                 : 72 b/s
  326. Frame rate                               : 0.459 FPS
  327. Stream size                              : 49.4 KiB (0%)
  328. Title                                    : Malay
  329. Language                                 : Malay
  330. Forced                                   : No
  331. Encoded date                             : UTC 2023-01-01 16:25:35
  332. Tagged date                              : UTC 2023-01-01 16:25:37
  333. Text #21
  334. ID                                       : 23
  335. Format                                   : Timed Text
  336. Codec ID                                 : tx3g
  337. Duration                                 : 1 h 33 min
  338. Bit rate mode                            : Variable
  339. Bit rate                                 : 70 b/s
  340. Frame rate                               : 0.415 FPS
  341. Stream size                              : 47.7 KiB (0%)
  342. Title                                    : Norwegian
  343. Language                                 : Norwegian Bokmal
  344. Forced                                   : No
  345. Encoded date                             : UTC 2023-01-01 16:25:35
  346. Tagged date                              : UTC 2023-01-01 16:25:37
  347. Text #22
  348. ID                                       : 24
  349. Format                                   : Timed Text
  350. Codec ID                                 : tx3g
  351. Duration                                 : 1 h 33 min
  352. Bit rate mode                            : Variable
  353. Bit rate                                 : 71 b/s
  354. Frame rate                               : 0.465 FPS
  355. Stream size                              : 48.2 KiB (0%)
  356. Title                                    : Polish
  357. Language                                 : Polish
  358. Forced                                   : No
  359. Encoded date                             : UTC 2023-01-01 16:25:35
  360. Tagged date                              : UTC 2023-01-01 16:25:37
  361. Text #23
  362. ID                                       : 25
  363. Format                                   : Timed Text
  364. Codec ID                                 : tx3g
  365. Duration                                 : 1 h 33 min
  366. Bit rate mode                            : Variable
  367. Bit rate                                 : 70 b/s
  368. Frame rate                               : 0.448 FPS
  369. Stream size                              : 48.0 KiB (0%)
  370. Title                                    : Portuguese
  371. Language                                 : Portuguese
  372. Forced                                   : No
  373. Encoded date                             : UTC 2023-01-01 16:25:36
  374. Tagged date                              : UTC 2023-01-01 16:25:37
  375. Text #24
  376. ID                                       : 26
  377. Format                                   : Timed Text
  378. Codec ID                                 : tx3g
  379. Duration                                 : 1 h 33 min
  380. Bit rate mode                            : Variable
  381. Bit rate                                 : 73 b/s
  382. Frame rate                               : 0.463 FPS
  383. Stream size                              : 50.1 KiB (0%)
  384. Title                                    : Portuguese-BR
  385. Language                                 : Portuguese (BR)
  386. Forced                                   : No
  387. Encoded date                             : UTC 2023-01-01 16:25:36
  388. Tagged date                              : UTC 2023-01-01 16:25:37
  389. Text #25
  390. ID                                       : 27
  391. Format                                   : Timed Text
  392. Codec ID                                 : tx3g
  393. Duration                                 : 1 h 33 min
  394. Bit rate mode                            : Variable
  395. Bit rate                                 : 83 b/s
  396. Frame rate                               : 0.411 FPS
  397. Stream size                              : 56.3 KiB (0%)
  398. Title                                    : Romanian
  399. Language                                 : Romanian
  400. Forced                                   : No
  401. Encoded date                             : UTC 2023-01-01 16:25:36
  402. Tagged date                              : UTC 2023-01-01 16:25:37
  403. Text #26
  404. ID                                       : 28
  405. Format                                   : Timed Text
  406. Codec ID                                 : tx3g
  407. Duration                                 : 1 h 33 min
  408. Bit rate mode                            : Variable
  409. Bit rate                                 : 119 b/s
  410. Frame rate                               : 0.453 FPS
  411. Stream size                              : 81.4 KiB (0%)
  412. Title                                    : Russian
  413. Language                                 : Russian
  414. Forced                                   : No
  415. Encoded date                             : UTC 2023-01-01 16:25:36
  416. Tagged date                              : UTC 2023-01-01 16:25:37
  417. Text #27
  418. ID                                       : 29
  419. Format                                   : Timed Text
  420. Codec ID                                 : tx3g
  421. Duration                                 : 1 h 33 min
  422. Bit rate mode                            : Variable
  423. Bit rate                                 : 73 b/s
  424. Frame rate                               : 0.441 FPS
  425. Stream size                              : 50.0 KiB (0%)
  426. Title                                    : Spanish
  427. Language                                 : Spanish (150)
  428. Forced                                   : No
  429. Encoded date                             : UTC 2023-01-01 16:25:36
  430. Tagged date                              : UTC 2023-01-01 16:25:37
  431. Text #28
  432. ID                                       : 30
  433. Format                                   : Timed Text
  434. Codec ID                                 : tx3g
  435. Duration                                 : 1 h 33 min
  436. Bit rate mode                            : Variable
  437. Bit rate                                 : 75 b/s
  438. Frame rate                               : 0.442 FPS
  439. Stream size                              : 51.0 KiB (0%)
  440. Title                                    : Spanish-EU
  441. Language                                 : Spanish
  442. Forced                                   : No
  443. Encoded date                             : UTC 2023-01-01 16:25:36
  444. Tagged date                              : UTC 2023-01-01 16:25:37
  445. Text #29
  446. ID                                       : 31
  447. Format                                   : Timed Text
  448. Codec ID                                 : tx3g
  449. Duration                                 : 1 h 33 min
  450. Bit rate mode                            : Variable
  451. Bit rate                                 : 72 b/s
  452. Frame rate                               : 0.393 FPS
  453. Stream size                              : 49.1 KiB (0%)
  454. Title                                    : Swedish
  455. Language                                 : Swedish
  456. Forced                                   : No
  457. Encoded date                             : UTC 2023-01-01 16:25:36
  458. Tagged date                              : UTC 2023-01-01 16:25:37
  459. Text #30
  460. ID                                       : 32
  461. Format                                   : Timed Text
  462. Codec ID                                 : tx3g
  463. Duration                                 : 1 h 33 min
  464. Bit rate mode                            : Variable
  465. Bit rate                                 : 186 b/s
  466. Frame rate                               : 0.463 FPS
  467. Stream size                              : 127 KiB (0%)
  468. Title                                    : Thai
  469. Language                                 : Thai
  470. Forced                                   : No
  471. Encoded date                             : UTC 2023-01-01 16:25:36
  472. Tagged date                              : UTC 2023-01-01 16:25:37
  473. Text #31
  474. ID                                       : 33
  475. Format                                   : Timed Text
  476. Codec ID                                 : tx3g
  477. Duration                                 : 1 h 33 min
  478. Bit rate mode                            : Variable
  479. Bit rate                                 : 74 b/s
  480. Frame rate                               : 0.462 FPS
  481. Stream size                              : 50.6 KiB (0%)
  482. Title                                    : Turkish
  483. Language                                 : Turkish
  484. Forced                                   : No
  485. Encoded date                             : UTC 2023-01-01 16:25:36
  486. Tagged date                              : UTC 2023-01-01 16:25:37
  487. Text #32
  488. ID                                       : 34
  489. Format                                   : Timed Text
  490. Codec ID                                 : tx3g
  491. Duration                                 : 1 h 33 min
  492. Bit rate mode                            : Variable
  493. Bit rate                                 : 119 b/s
  494. Frame rate                               : 0.460 FPS
  495. Stream size                              : 81.5 KiB (0%)
  496. Title                                    : Ukrainian
  497. Language                                 : Ukrainian
  498. Forced                                   : No
  499. Encoded date                             : UTC 2023-01-01 16:25:37
  500. Tagged date                              : UTC 2023-01-01 16:25:37
  501. Text #33
  502. ID                                       : 35
  503. Format                                   : Timed Text
  504. Codec ID                                 : tx3g
  505. Duration                                 : 1 h 33 min
  506. Bit rate mode                            : Variable
  507. Bit rate                                 : 101 b/s
  508. Frame rate                               : 0.462 FPS
  509. Stream size                              : 69.0 KiB (0%)
  510. Title                                    : Vietnamese
  511. Language                                 : Vietnamese
  512. Forced                                   : No
  513. Encoded date                             : UTC 2023-01-01 16:25:37
  514. Tagged date                              : UTC 2023-01-01 16:25:37
复制代码











回复

使用道具 举报

懒得打字嘛,点击右侧快捷回复 【右侧内容,后台自定义】
您需要登录后才可以回帖 登录 | 立即加入

本版积分规则

Copyright © 2024 Comsenz Inc. Powered by 蓝光电影网

本站内容由用户自主分享和转载自互联网,转载目的在于传递更多信息,并不代表本网赞同其观点和对其真实性负责。

如有侵权、违反国家法律政策行为,请联系我们,我们会第一时间及时清除和处理!

举报反馈邮箱:4k1080.com@gmail.com

快速回复 返回顶部 返回列表