找回密码

查看: 1263|回复: 0

[2160p-WEB] 思维笼[中文字幕].Mindcage.2022.2160p.WEB-DL.x265.10bit.SDR.DD5.1-KBOX 8.39GB

[复制链接]
蓝光币
1848
发表于 2023-1-2 14:57:32 | 显示全部楼层 |阅读模式


◎标  题 思维笼
◎片  名 Mindcage
◎年  代 2022
◎产  地 美国
◎类  别 惊悚
◎语  言 英语
◎上映日期 2022-12-16(美国)
◎IMDb评分 4.5/10 (1394人评价)
◎IMDb链接 https://www.imdb.com/title/tt14147224/
◎豆瓣评分 4.8/10 (231人评价)
◎豆瓣链接 https://movie.douban.com/subject/36066054/
◎片  长 96分钟
◎导  演 Mauro Borrelli Mauro Borrelli
◎编  剧 Arthur Reggie III Arthur Reggie III
◎演  员 约翰·马尔科维奇 John Malkovich
       马丁·劳伦斯 Martin Lawrence
       雅各布·格罗德尼克 Jacob Grodnik
       梅丽莎·罗斯伯格 Melissa Roxburgh
       艾登·特纳 Aiden Turner
       克里斯‧穆利纳克斯 Chris Mullinax
       里奇·蒙哥马利 Ritchie Montgomery
       Jeremy Turner Jeremy Turner
       卡桑德拉·加瓦 Cassandra Gava
◎简  介
  When a copycat strikes, two detectives ask a top serial killer for help.
  1. Video
  2. ID                                       : 1
  3. Format                                   : HEVC
  4. Format/Info                              : High Efficiency Video Coding
  5. Format profile                           : Main 10@L5@High
  6. Codec ID                                 : V_MPEGH/ISO/HEVC
  7. Duration                                 : 1 h 36 min
  8. Bit rate                                 : 12.1 Mb/s
  9. Width                                    : 3 824 pixels
  10. Height                                   : 1 592 pixels
  11. Display aspect ratio                     : 2.40:1
  12. Frame rate mode                          : Constant
  13. Frame rate                               : 23.976 (24000/1001) FPS
  14. Color space                              : YUV
  15. Chroma subsampling                       : 4:2:0
  16. Bit depth                                : 10 bits
  17. Bits/(Pixel*Frame)                       : 0.083
  18. Stream size                              : 8.13 GiB (97%)
  19. Default                                  : Yes
  20. Forced                                   : No
  21. Color range                              : Limited
  22. Color primaries                          : BT.709
  23. Transfer characteristics                 : BT.709
  24. Matrix coefficients                      : BT.709
  25. Audio
  26. ID                                       : 2
  27. Format                                   : AC-3
  28. Format/Info                              : Audio Coding 3
  29. Commercial name                          : Dolby Digital
  30. Codec ID                                 : A_AC3
  31. Duration                                 : 1 h 36 min
  32. Bit rate mode                            : Constant
  33. Bit rate                                 : 384 kb/s
  34. Channel(s)                               : 6 channels
  35. Channel layout                           : L R C LFE Ls Rs
  36. Sampling rate                            : 48.0 kHz
  37. Frame rate                               : 31.250 FPS (1536 SPF)
  38. Compression mode                         : Lossy
  39. Stream size                              : 265 MiB (3%)
  40. Language                                 : English
  41. Service kind                             : Complete Main
  42. Default                                  : Yes
  43. Forced                                   : No
  44. Text #1
  45. ID                                       : 3
  46. Format                                   : UTF-8
  47. Codec ID                                 : S_TEXT/UTF8
  48. Codec ID/Info                            : UTF-8 Plain Text
  49. Duration                                 : 1 h 34 min
  50. Bit rate                                 : 52 b/s
  51. Frame rate                               : 0.186 FPS
  52. Count of elements                        : 1058
  53. Stream size                              : 36.1 KiB (0%)
  54. Title                                    : English CC
  55. Language                                 : English
  56. Default                                  : No
  57. Forced                                   : No
  58. Text #2
  59. ID                                       : 4
  60. Format                                   : UTF-8
  61. Codec ID                                 : S_TEXT/UTF8
  62. Codec ID/Info                            : UTF-8 Plain Text
  63. Duration                                 : 1 h 30 min
  64. Bit rate                                 : 43 b/s
  65. Frame rate                               : 0.166 FPS
  66. Count of elements                        : 896
  67. Stream size                              : 28.8 KiB (0%)
  68. Title                                    : Chinese Mandarin Simplified
  69. Language                                 : Mandarin (Hans)
  70. Default                                  : No
  71. Forced                                   : No
  72. Text #3
  73. ID                                       : 5
  74. Format                                   : UTF-8
  75. Codec ID                                 : S_TEXT/UTF8
  76. Codec ID/Info                            : UTF-8 Plain Text
  77. Duration                                 : 1 h 29 min
  78. Bit rate                                 : 49 b/s
  79. Frame rate                               : 0.165 FPS
  80. Count of elements                        : 889
  81. Stream size                              : 32.4 KiB (0%)
  82. Title                                    : Danish
  83. Language                                 : Danish
  84. Default                                  : No
  85. Forced                                   : No
  86. Text #4
  87. ID                                       : 6
  88. Format                                   : UTF-8
  89. Codec ID                                 : S_TEXT/UTF8
  90. Codec ID/Info                            : UTF-8 Plain Text
  91. Duration                                 : 1 h 29 min
  92. Bit rate                                 : 48 b/s
  93. Frame rate                               : 0.165 FPS
  94. Count of elements                        : 886
  95. Stream size                              : 31.8 KiB (0%)
  96. Title                                    : Finnish
  97. Language                                 : Finnish
  98. Default                                  : No
  99. Forced                                   : No
  100. Text #5
  101. ID                                       : 7
  102. Format                                   : UTF-8
  103. Codec ID                                 : S_TEXT/UTF8
  104. Codec ID/Info                            : UTF-8 Plain Text
  105. Duration                                 : 1 h 33 min
  106. Bit rate                                 : 45 b/s
  107. Frame rate                               : 0.173 FPS
  108. Count of elements                        : 970
  109. Stream size                              : 31.2 KiB (0%)
  110. Title                                    : French European
  111. Language                                 : French (FR)
  112. Default                                  : No
  113. Forced                                   : No
  114. Text #6
  115. ID                                       : 8
  116. Format                                   : UTF-8
  117. Codec ID                                 : S_TEXT/UTF8
  118. Codec ID/Info                            : UTF-8 Plain Text
  119. Duration                                 : 1 h 30 min
  120. Bit rate                                 : 42 b/s
  121. Frame rate                               : 0.169 FPS
  122. Count of elements                        : 913
  123. Stream size                              : 28.3 KiB (0%)
  124. Title                                    : Japanese
  125. Language                                 : Japanese
  126. Default                                  : No
  127. Forced                                   : No
  128. Text #7
  129. ID                                       : 9
  130. Format                                   : UTF-8
  131. Codec ID                                 : S_TEXT/UTF8
  132. Codec ID/Info                            : UTF-8 Plain Text
  133. Duration                                 : 1 h 30 min
  134. Bit rate                                 : 50 b/s
  135. Frame rate                               : 0.166 FPS
  136. Count of elements                        : 896
  137. Stream size                              : 33.5 KiB (0%)
  138. Title                                    : Korean
  139. Language                                 : Korean
  140. Default                                  : No
  141. Forced                                   : No
  142. Text #8
  143. ID                                       : 10
  144. Format                                   : UTF-8
  145. Codec ID                                 : S_TEXT/UTF8
  146. Codec ID/Info                            : UTF-8 Plain Text
  147. Duration                                 : 1 h 30 min
  148. Bit rate                                 : 48 b/s
  149. Frame rate                               : 0.164 FPS
  150. Count of elements                        : 888
  151. Stream size                              : 32.1 KiB (0%)
  152. Title                                    : Norwegian
  153. Language                                 : Norwegian
  154. Default                                  : No
  155. Forced                                   : No
  156. Text #9
  157. ID                                       : 11
  158. Format                                   : UTF-8
  159. Codec ID                                 : S_TEXT/UTF8
  160. Codec ID/Info                            : UTF-8 Plain Text
  161. Duration                                 : 1 h 29 min
  162. Bit rate                                 : 50 b/s
  163. Frame rate                               : 0.165 FPS
  164. Count of elements                        : 888
  165. Stream size                              : 32.8 KiB (0%)
  166. Title                                    : Swedish
  167. Language                                 : Swedish
  168. Default                                  : No
  169. Forced                                   : No
  170. Text #10
  171. ID                                       : 12
  172. Format                                   : UTF-8
  173. Codec ID                                 : S_TEXT/UTF8
  174. Codec ID/Info                            : UTF-8 Plain Text
  175. Duration                                 : 1 h 30 min
  176. Bit rate                                 : 123 b/s
  177. Frame rate                               : 0.166 FPS
  178. Count of elements                        : 896
  179. Stream size                              : 81.6 KiB (0%)
  180. Title                                    : Thai
  181. Language                                 : Thai
  182. Default                                  : No
  183. Forced                                   : No
  184. Text #11
  185. ID                                       : 13
  186. Format                                   : UTF-8
  187. Codec ID                                 : S_TEXT/UTF8
  188. Codec ID/Info                            : UTF-8 Plain Text
  189. Duration                                 : 1 h 30 min
  190. Bit rate                                 : 66 b/s
  191. Frame rate                               : 0.165 FPS
  192. Count of elements                        : 891
  193. Stream size                              : 43.7 KiB (0%)
  194. Title                                    : Vietnamese
  195. Language                                 : Vietnamese
  196. Default                                  : No
  197. Forced                                   : No
  198. Menu
  199. 00:00:00.000                             : en:Chapter 01
  200. 00:05:08.933                             : en:Chapter 02
  201. 00:18:18.765                             : en:Chapter 03
  202. 00:32:00.795                             : en:Chapter 04
  203. 00:44:24.497                             : en:Chapter 05
  204. 00:59:46.252                             : en:Chapter 06
  205. 01:15:22.230                             : en:Chapter 07
  206. 01:25:07.982                             : en:Chapter 08
  207. 01:33:32.821                             : en:Chapter 09
复制代码











回复

使用道具 举报

懒得打字嘛,点击右侧快捷回复 【右侧内容,后台自定义】
您需要登录后才可以回帖 登录 | 立即加入

本版积分规则

Copyright © 2024 Comsenz Inc. Powered by 蓝光电影网

本站内容由用户自主分享和转载自互联网,转载目的在于传递更多信息,并不代表本网赞同其观点和对其真实性负责。

如有侵权、违反国家法律政策行为,请联系我们,我们会第一时间及时清除和处理!

举报反馈邮箱:4k1080.com@gmail.com

快速回复 返回顶部 返回列表