找回密码

查看: 1369|回复: 0

[2160p-WEB] 首尔大作战[中文字幕].Seoul.Vibe.2022.KOREAN.2160p.NF.WEB-DL.x265.10bit.HDR.DDP5.1.Atmos-XEBEC 16.34GB

[复制链接]
蓝光币
1848
发表于 2023-1-2 14:57:33 | 显示全部楼层 |阅读模式


◎标  题 首尔高文战
◎译  名 极速首尔(台) / 缓慢首尔 / Seoul Vibe
◎片  名 서울대작전
◎年  代 2022
◎产  地 韩国
◎类  别 剧情 / 笑剧 / 行动 / 犯罪
◎语  言 韩语
◎上映日期 2022-08-26(韩国收集)
◎IMDb评分 5.5/10 (1599人评价)
◎IMDb链接 https://www.imdb.com/title/tt13611770/
◎豆瓣评分 5.2/10 (7695人评价)
◎豆瓣链接 https://movie.douban.com/subject/35280912/
◎片  长 139分钟
◎导  演 文贤盛 Hyeon-seong Moon
◎演  员 刘亚仁 Ah-in Yoo
       高庚杓 Kyung-pyo Go
       朴柱炫 Joo-Hyun Park
       文素丽 So-ri Moon
       李奎炯 Kyu-hyung Lee
       金成均 Sung-Kyun Kim
       郑雄仁 Woong-in Jeong
       邕圣祐 Seong-wu Ong
       宋旻浩 Song Min Ho
       金彩恩 Chae-eun Kim
◎简  介
  增加演员吴政世、李世荣。
  1. Video
  2. ID                                       : 1
  3. Format                                   : HEVC
  4. Format/Info                              : High Efficiency Video Coding
  5. Format profile                           : Main 10@L5@Main
  6. HDR format                               : SMPTE ST 2086, HDR10 compatible
  7. Codec ID                                 : V_MPEGH/ISO/HEVC
  8. Duration                                 : 2 h 18 min
  9. Bit rate                                 : 16.1 Mb/s
  10. Width                                    : 3 840 pixels
  11. Height                                   : 2 160 pixels
  12. Display aspect ratio                     : 16:9
  13. Frame rate mode                          : Constant
  14. Frame rate                               : 23.976 (24000/1001) FPS
  15. Color space                              : YUV
  16. Chroma subsampling                       : 4:2:0 (Type 2)
  17. Bit depth                                : 10 bits
  18. Bits/(Pixel*Frame)                       : 0.081
  19. Stream size                              : 15.6 GiB (95%)
  20. Default                                  : Yes
  21. Forced                                   : No
  22. Color range                              : Limited
  23. Color primaries                          : BT.2020
  24. Transfer characteristics                 : PQ
  25. Matrix coefficients                      : BT.2020 non-constant
  26. Mastering display color primaries        : Display P3
  27. Mastering display luminance              : min: 0.0001 cd/m2, max: 1000 cd/m2
  28. Maximum Content Light Level              : 1707 cd/m2
  29. Maximum Frame-Average Light Level        : 500 cd/m2
  30. Audio
  31. ID                                       : 2
  32. Format                                   : E-AC-3 JOC
  33. Format/Info                              : Enhanced AC-3 with Joint Object Coding
  34. Commercial name                          : Dolby Digital Plus with Dolby Atmos
  35. Codec ID                                 : A_EAC3
  36. Duration                                 : 2 h 20 min
  37. Bit rate mode                            : Constant
  38. Bit rate                                 : 768 kb/s
  39. Channel(s)                               : 6 channels
  40. Channel layout                           : L R C LFE Ls Rs
  41. Sampling rate                            : 48.0 kHz
  42. Frame rate                               : 31.250 FPS (1536 SPF)
  43. Compression mode                         : Lossy
  44. Stream size                              : 770 MiB (5%)
  45. Title                                    : Korean
  46. Language                                 : Korean
  47. Service kind                             : Complete Main
  48. Default                                  : Yes
  49. Forced                                   : No
  50. Complexity index                         : 16
  51. Number of dynamic objects                : 15
  52. Bed channel count                        : 1 channel
  53. Bed channel configuration                : LFE
  54. Text #1
  55. ID                                       : 3
  56. Format                                   : UTF-8
  57. Codec ID                                 : S_TEXT/UTF8
  58. Codec ID/Info                            : UTF-8 Plain Text
  59. Duration                                 : 46 min 23 s
  60. Bit rate                                 : 0 b/s
  61. Frame rate                               : 0.004 FPS
  62. Count of elements                        : 11
  63. Stream size                              : 273 Bytes (0%)
  64. Title                                    : Korean (Forced)
  65. Language                                 : Korean
  66. Default                                  : Yes
  67. Forced                                   : Yes
  68. Text #2
  69. ID                                       : 4
  70. Format                                   : UTF-8
  71. Codec ID                                 : S_TEXT/UTF8
  72. Codec ID/Info                            : UTF-8 Plain Text
  73. Duration                                 : 2 h 14 min
  74. Bit rate                                 : 90 b/s
  75. Frame rate                               : 0.217 FPS
  76. Count of elements                        : 1757
  77. Stream size                              : 89.1 KiB (0%)
  78. Title                                    : Arabic
  79. Language                                 : Arabic
  80. Default                                  : No
  81. Forced                                   : No
  82. Text #3
  83. ID                                       : 5
  84. Format                                   : UTF-8
  85. Codec ID                                 : S_TEXT/UTF8
  86. Codec ID/Info                            : UTF-8 Plain Text
  87. Duration                                 : 2 h 17 min
  88. Bit rate                                 : 45 b/s
  89. Frame rate                               : 0.213 FPS
  90. Count of elements                        : 1759
  91. Stream size                              : 46.0 KiB (0%)
  92. Title                                    : Czech
  93. Language                                 : Czech
  94. Default                                  : No
  95. Forced                                   : No
  96. Text #4
  97. ID                                       : 6
  98. Format                                   : UTF-8
  99. Codec ID                                 : S_TEXT/UTF8
  100. Codec ID/Info                            : UTF-8 Plain Text
  101. Duration                                 : 2 h 17 min
  102. Bit rate                                 : 43 b/s
  103. Frame rate                               : 0.206 FPS
  104. Count of elements                        : 1704
  105. Stream size                              : 44.4 KiB (0%)
  106. Title                                    : Danish
  107. Language                                 : Danish
  108. Default                                  : No
  109. Forced                                   : No
  110. Text #5
  111. ID                                       : 7
  112. Format                                   : UTF-8
  113. Codec ID                                 : S_TEXT/UTF8
  114. Codec ID/Info                            : UTF-8 Plain Text
  115. Duration                                 : 2 h 17 min
  116. Bit rate                                 : 45 b/s
  117. Frame rate                               : 0.209 FPS
  118. Count of elements                        : 1727
  119. Stream size                              : 46.0 KiB (0%)
  120. Title                                    : German
  121. Language                                 : German
  122. Default                                  : No
  123. Forced                                   : No
  124. Text #6
  125. ID                                       : 8
  126. Format                                   : UTF-8
  127. Codec ID                                 : S_TEXT/UTF8
  128. Codec ID/Info                            : UTF-8 Plain Text
  129. Duration                                 : 2 h 17 min
  130. Bit rate                                 : 76 b/s
  131. Frame rate                               : 0.203 FPS
  132. Count of elements                        : 1680
  133. Stream size                              : 77.3 KiB (0%)
  134. Title                                    : Modern Greek (1453-)
  135. Language                                 : Greek
  136. Default                                  : No
  137. Forced                                   : No
  138. Text #7
  139. ID                                       : 9
  140. Format                                   : UTF-8
  141. Codec ID                                 : S_TEXT/UTF8
  142. Codec ID/Info                            : UTF-8 Plain Text
  143. Duration                                 : 2 h 14 min
  144. Bit rate                                 : 58 b/s
  145. Frame rate                               : 0.239 FPS
  146. Count of elements                        : 1928
  147. Stream size                              : 57.6 KiB (0%)
  148. Title                                    : English
  149. Language                                 : English
  150. Default                                  : No
  151. Forced                                   : No
  152. Text #8
  153. ID                                       : 10
  154. Format                                   : UTF-8
  155. Codec ID                                 : S_TEXT/UTF8
  156. Codec ID/Info                            : UTF-8 Plain Text
  157. Duration                                 : 2 h 17 min
  158. Bit rate                                 : 47 b/s
  159. Frame rate                               : 0.206 FPS
  160. Count of elements                        : 1699
  161. Stream size                              : 48.3 KiB (0%)
  162. Title                                    : English
  163. Language                                 : English
  164. Default                                  : No
  165. Forced                                   : No
  166. Text #9
  167. ID                                       : 11
  168. Format                                   : UTF-8
  169. Codec ID                                 : S_TEXT/UTF8
  170. Codec ID/Info                            : UTF-8 Plain Text
  171. Duration                                 : 2 h 14 min
  172. Bit rate                                 : 75 b/s
  173. Frame rate                               : 0.328 FPS
  174. Count of elements                        : 2653
  175. Stream size                              : 74.6 KiB (0%)
  176. Title                                    : English (SDH)
  177. Language                                 : English
  178. Default                                  : No
  179. Forced                                   : No
  180. Text #10
  181. ID                                       : 12
  182. Format                                   : UTF-8
  183. Codec ID                                 : S_TEXT/UTF8
  184. Codec ID/Info                            : UTF-8 Plain Text
  185. Duration                                 : 2 h 17 min
  186. Bit rate                                 : 45 b/s
  187. Frame rate                               : 0.208 FPS
  188. Count of elements                        : 1724
  189. Stream size                              : 46.1 KiB (0%)
  190. Title                                    : Spanish
  191. Language                                 : Spanish
  192. Default                                  : No
  193. Forced                                   : No
  194. Text #11
  195. ID                                       : 13
  196. Format                                   : UTF-8
  197. Codec ID                                 : S_TEXT/UTF8
  198. Codec ID/Info                            : UTF-8 Plain Text
  199. Duration                                 : 2 h 17 min
  200. Bit rate                                 : 45 b/s
  201. Frame rate                               : 0.211 FPS
  202. Count of elements                        : 1747
  203. Stream size                              : 46.1 KiB (0%)
  204. Title                                    : Spanish
  205. Language                                 : Spanish
  206. Default                                  : No
  207. Forced                                   : No
  208. Text #12
  209. ID                                       : 14
  210. Format                                   : UTF-8
  211. Codec ID                                 : S_TEXT/UTF8
  212. Codec ID/Info                            : UTF-8 Plain Text
  213. Duration                                 : 2 h 17 min
  214. Bit rate                                 : 45 b/s
  215. Frame rate                               : 0.210 FPS
  216. Count of elements                        : 1737
  217. Stream size                              : 45.6 KiB (0%)
  218. Title                                    : Finnish
  219. Language                                 : Finnish
  220. Default                                  : No
  221. Forced                                   : No
  222. Text #13
  223. ID                                       : 15
  224. Format                                   : UTF-8
  225. Codec ID                                 : S_TEXT/UTF8
  226. Codec ID/Info                            : UTF-8 Plain Text
  227. Duration                                 : 2 h 17 min
  228. Bit rate                                 : 41 b/s
  229. Frame rate                               : 0.211 FPS
  230. Count of elements                        : 1750
  231. Stream size                              : 41.9 KiB (0%)
  232. Title                                    : Filipino
  233. Language                                 : fil
  234. Default                                  : No
  235. Forced                                   : No
  236. Text #14
  237. ID                                       : 16
  238. Format                                   : UTF-8
  239. Codec ID                                 : S_TEXT/UTF8
  240. Codec ID/Info                            : UTF-8 Plain Text
  241. Duration                                 : 2 h 17 min
  242. Bit rate                                 : 44 b/s
  243. Frame rate                               : 0.208 FPS
  244. Count of elements                        : 1725
  245. Stream size                              : 44.7 KiB (0%)
  246. Title                                    : French
  247. Language                                 : French
  248. Default                                  : No
  249. Forced                                   : No
  250. Text #15
  251. ID                                       : 17
  252. Format                                   : UTF-8
  253. Codec ID                                 : S_TEXT/UTF8
  254. Codec ID/Info                            : UTF-8 Plain Text
  255. Duration                                 : 2 h 17 min
  256. Bit rate                                 : 76 b/s
  257. Frame rate                               : 0.221 FPS
  258. Count of elements                        : 1829
  259. Stream size                              : 77.5 KiB (0%)
  260. Title                                    : Hebrew
  261. Language                                 : Hebrew
  262. Default                                  : No
  263. Forced                                   : No
  264. Text #16
  265. ID                                       : 18
  266. Format                                   : UTF-8
  267. Codec ID                                 : S_TEXT/UTF8
  268. Codec ID/Info                            : UTF-8 Plain Text
  269. Duration                                 : 2 h 17 min
  270. Bit rate                                 : 41 b/s
  271. Frame rate                               : 0.212 FPS
  272. Count of elements                        : 1756
  273. Stream size                              : 42.4 KiB (0%)
  274. Title                                    : Croatian
  275. Language                                 : Croatian
  276. Default                                  : No
  277. Forced                                   : No
  278. Text #17
  279. ID                                       : 19
  280. Format                                   : UTF-8
  281. Codec ID                                 : S_TEXT/UTF8
  282. Codec ID/Info                            : UTF-8 Plain Text
  283. Duration                                 : 2 h 17 min
  284. Bit rate                                 : 51 b/s
  285. Frame rate                               : 0.195 FPS
  286. Count of elements                        : 1612
  287. Stream size                              : 51.7 KiB (0%)
  288. Title                                    : Hungarian
  289. Language                                 : Hungarian
  290. Default                                  : No
  291. Forced                                   : No
  292. Text #18
  293. ID                                       : 20
  294. Format                                   : UTF-8
  295. Codec ID                                 : S_TEXT/UTF8
  296. Codec ID/Info                            : UTF-8 Plain Text
  297. Duration                                 : 2 h 17 min
  298. Bit rate                                 : 49 b/s
  299. Frame rate                               : 0.214 FPS
  300. Count of elements                        : 1775
  301. Stream size                              : 49.7 KiB (0%)
  302. Title                                    : Indonesian
  303. Language                                 : Indonesian
  304. Default                                  : No
  305. Forced                                   : No
  306. Text #19
  307. ID                                       : 21
  308. Format                                   : UTF-8
  309. Codec ID                                 : S_TEXT/UTF8
  310. Codec ID/Info                            : UTF-8 Plain Text
  311. Duration                                 : 2 h 17 min
  312. Bit rate                                 : 45 b/s
  313. Frame rate                               : 0.209 FPS
  314. Count of elements                        : 1732
  315. Stream size                              : 45.7 KiB (0%)
  316. Title                                    : Italian
  317. Language                                 : Italian
  318. Default                                  : No
  319. Forced                                   : No
  320. Text #20
  321. ID                                       : 22
  322. Format                                   : UTF-8
  323. Codec ID                                 : S_TEXT/UTF8
  324. Codec ID/Info                            : UTF-8 Plain Text
  325. Duration                                 : 2 h 14 min
  326. Bit rate                                 : 51 b/s
  327. Frame rate                               : 0.214 FPS
  328. Count of elements                        : 1729
  329. Stream size                              : 50.9 KiB (0%)
  330. Title                                    : Japanese
  331. Language                                 : Japanese
  332. Default                                  : No
  333. Forced                                   : No
  334. Text #21
  335. ID                                       : 23
  336. Format                                   : UTF-8
  337. Codec ID                                 : S_TEXT/UTF8
  338. Codec ID/Info                            : UTF-8 Plain Text
  339. Duration                                 : 2 h 14 min
  340. Bit rate                                 : 103 b/s
  341. Frame rate                               : 0.342 FPS
  342. Count of elements                        : 2764
  343. Stream size                              : 102 KiB (0%)
  344. Title                                    : Korean (SDH)
  345. Language                                 : Korean
  346. Default                                  : No
  347. Forced                                   : No
  348. Text #22
  349. ID                                       : 24
  350. Format                                   : UTF-8
  351. Codec ID                                 : S_TEXT/UTF8
  352. Codec ID/Info                            : UTF-8 Plain Text
  353. Duration                                 : 2 h 17 min
  354. Bit rate                                 : 42 b/s
  355. Frame rate                               : 0.219 FPS
  356. Count of elements                        : 1811
  357. Stream size                              : 43.0 KiB (0%)
  358. Title                                    : Malay (macrolanguage)
  359. Language                                 : Malay
  360. Default                                  : No
  361. Forced                                   : No
  362. Text #23
  363. ID                                       : 25
  364. Format                                   : UTF-8
  365. Codec ID                                 : S_TEXT/UTF8
  366. Codec ID/Info                            : UTF-8 Plain Text
  367. Duration                                 : 2 h 17 min
  368. Bit rate                                 : 45 b/s
  369. Frame rate                               : 0.207 FPS
  370. Count of elements                        : 1710
  371. Stream size                              : 45.6 KiB (0%)
  372. Title                                    : Norwegian Bokm?l
  373. Language                                 : Norwegian Bokmal
  374. Default                                  : No
  375. Forced                                   : No
  376. Text #24
  377. ID                                       : 26
  378. Format                                   : UTF-8
  379. Codec ID                                 : S_TEXT/UTF8
  380. Codec ID/Info                            : UTF-8 Plain Text
  381. Duration                                 : 2 h 17 min
  382. Bit rate                                 : 43 b/s
  383. Frame rate                               : 0.180 FPS
  384. Count of elements                        : 1492
  385. Stream size                              : 44.3 KiB (0%)
  386. Title                                    : Dutch
  387. Language                                 : Dutch
  388. Default                                  : No
  389. Forced                                   : No
  390. Text #25
  391. ID                                       : 27
  392. Format                                   : UTF-8
  393. Codec ID                                 : S_TEXT/UTF8
  394. Codec ID/Info                            : UTF-8 Plain Text
  395. Duration                                 : 2 h 17 min
  396. Bit rate                                 : 42 b/s
  397. Frame rate                               : 0.209 FPS
  398. Count of elements                        : 1729
  399. Stream size                              : 43.2 KiB (0%)
  400. Title                                    : Polish
  401. Language                                 : Polish
  402. Default                                  : No
  403. Forced                                   : No
  404. Text #26
  405. ID                                       : 28
  406. Format                                   : UTF-8
  407. Codec ID                                 : S_TEXT/UTF8
  408. Codec ID/Info                            : UTF-8 Plain Text
  409. Duration                                 : 2 h 17 min
  410. Bit rate                                 : 48 b/s
  411. Frame rate                               : 0.212 FPS
  412. Count of elements                        : 1750
  413. Stream size                              : 48.6 KiB (0%)
  414. Title                                    : Portuguese
  415. Language                                 : Portuguese
  416. Default                                  : No
  417. Forced                                   : No
  418. Text #27
  419. ID                                       : 29
  420. Format                                   : UTF-8
  421. Codec ID                                 : S_TEXT/UTF8
  422. Codec ID/Info                            : UTF-8 Plain Text
  423. Duration                                 : 2 h 17 min
  424. Bit rate                                 : 41 b/s
  425. Frame rate                               : 0.211 FPS
  426. Count of elements                        : 1745
  427. Stream size                              : 42.3 KiB (0%)
  428. Title                                    : Portuguese
  429. Language                                 : Portuguese
  430. Default                                  : No
  431. Forced                                   : No
  432. Text #28
  433. ID                                       : 30
  434. Format                                   : UTF-8
  435. Codec ID                                 : S_TEXT/UTF8
  436. Codec ID/Info                            : UTF-8 Plain Text
  437. Duration                                 : 2 h 17 min
  438. Bit rate                                 : 52 b/s
  439. Frame rate                               : 0.206 FPS
  440. Count of elements                        : 1708
  441. Stream size                              : 52.7 KiB (0%)
  442. Title                                    : Romanian
  443. Language                                 : Romanian
  444. Default                                  : No
  445. Forced                                   : No
  446. Text #29
  447. ID                                       : 31
  448. Format                                   : UTF-8
  449. Codec ID                                 : S_TEXT/UTF8
  450. Codec ID/Info                            : UTF-8 Plain Text
  451. Duration                                 : 2 h 17 min
  452. Bit rate                                 : 71 b/s
  453. Frame rate                               : 0.206 FPS
  454. Count of elements                        : 1709
  455. Stream size                              : 72.5 KiB (0%)
  456. Title                                    : Russian
  457. Language                                 : Russian
  458. Default                                  : No
  459. Forced                                   : No
  460. Text #30
  461. ID                                       : 32
  462. Format                                   : UTF-8
  463. Codec ID                                 : S_TEXT/UTF8
  464. Codec ID/Info                            : UTF-8 Plain Text
  465. Duration                                 : 2 h 17 min
  466. Bit rate                                 : 50 b/s
  467. Frame rate                               : 0.213 FPS
  468. Count of elements                        : 1762
  469. Stream size                              : 50.9 KiB (0%)
  470. Title                                    : Swedish
  471. Language                                 : Swedish
  472. Default                                  : No
  473. Forced                                   : No
  474. Text #31
  475. ID                                       : 33
  476. Format                                   : UTF-8
  477. Codec ID                                 : S_TEXT/UTF8
  478. Codec ID/Info                            : UTF-8 Plain Text
  479. Duration                                 : 2 h 17 min
  480. Bit rate                                 : 130 b/s
  481. Frame rate                               : 0.225 FPS
  482. Count of elements                        : 1865
  483. Stream size                              : 132 KiB (0%)
  484. Title                                    : Thai
  485. Language                                 : Thai
  486. Default                                  : No
  487. Forced                                   : No
  488. Text #32
  489. ID                                       : 34
  490. Format                                   : UTF-8
  491. Codec ID                                 : S_TEXT/UTF8
  492. Codec ID/Info                            : UTF-8 Plain Text
  493. Duration                                 : 2 h 17 min
  494. Bit rate                                 : 45 b/s
  495. Frame rate                               : 0.211 FPS
  496. Count of elements                        : 1748
  497. Stream size                              : 45.7 KiB (0%)
  498. Title                                    : Turkish
  499. Language                                 : Turkish
  500. Default                                  : No
  501. Forced                                   : No
  502. Text #33
  503. ID                                       : 35
  504. Format                                   : UTF-8
  505. Codec ID                                 : S_TEXT/UTF8
  506. Codec ID/Info                            : UTF-8 Plain Text
  507. Duration                                 : 2 h 17 min
  508. Bit rate                                 : 66 b/s
  509. Frame rate                               : 0.209 FPS
  510. Count of elements                        : 1726
  511. Stream size                              : 66.8 KiB (0%)
  512. Title                                    : Ukrainian
  513. Language                                 : Ukrainian
  514. Default                                  : No
  515. Forced                                   : No
  516. Text #34
  517. ID                                       : 36
  518. Format                                   : UTF-8
  519. Codec ID                                 : S_TEXT/UTF8
  520. Codec ID/Info                            : UTF-8 Plain Text
  521. Duration                                 : 2 h 17 min
  522. Bit rate                                 : 65 b/s
  523. Frame rate                               : 0.210 FPS
  524. Count of elements                        : 1742
  525. Stream size                              : 66.4 KiB (0%)
  526. Title                                    : Vietnamese
  527. Language                                 : Vietnamese
  528. Default                                  : No
  529. Forced                                   : No
  530. Text #35
  531. ID                                       : 37
  532. Format                                   : UTF-8
  533. Codec ID                                 : S_TEXT/UTF8
  534. Codec ID/Info                            : UTF-8 Plain Text
  535. Duration                                 : 2 h 17 min
  536. Bit rate                                 : 52 b/s
  537. Frame rate                               : 0.215 FPS
  538. Count of elements                        : 1777
  539. Stream size                              : 52.9 KiB (0%)
  540. Title                                    : Simplified, Chinese
  541. Language                                 : Chinese
  542. Default                                  : No
  543. Forced                                   : No
  544. Text #36
  545. ID                                       : 38
  546. Format                                   : UTF-8
  547. Codec ID                                 : S_TEXT/UTF8
  548. Codec ID/Info                            : UTF-8 Plain Text
  549. Duration                                 : 2 h 17 min
  550. Bit rate                                 : 50 b/s
  551. Frame rate                               : 0.222 FPS
  552. Count of elements                        : 1836
  553. Stream size                              : 50.6 KiB (0%)
  554. Title                                    : Traditional, Chinese
  555. Language                                 : Chinese
  556. Default                                  : No
  557. Forced                                   : No
  558. Menu
  559. 00:00:00.000                             : en:Part 01
  560. 02:14:56.450                             : en:Credits
复制代码











回复

使用道具 举报

懒得打字嘛,点击右侧快捷回复 【右侧内容,后台自定义】
您需要登录后才可以回帖 登录 | 立即加入

本版积分规则

Copyright © 2024 Comsenz Inc. Powered by 蓝光电影网

本站内容由用户自主分享和转载自互联网,转载目的在于传递更多信息,并不代表本网赞同其观点和对其真实性负责。

如有侵权、违反国家法律政策行为,请联系我们,我们会第一时间及时清除和处理!

举报反馈邮箱:4k1080.com@gmail.com

快速回复 返回顶部 返回列表