找回密码

查看: 1353|回复: 0

[2160p-WEB] 乔琪·斯通:梦想人生[中文字幕].The.Dreamlife.of.Georgie.Stone.2022.2160p.NF.WEB-DL.DDP5.1.DV.MKV.x265-COPiUM 3.41GB

[复制链接]
蓝光币
1848
发表于 2023-1-2 14:57:34 | 显示全部楼层 |阅读模式


◎标  题 乔琪·斯通:胡想人生
◎片  名 The Dreamlife of Georgie Stone
◎年  代 2022
◎产  地 澳大利亚
◎类  别 记载片
◎语  言 英语
◎上映日期 2022-06-12(悉尼电影节) / 2022-09-22(澳大利亚)
◎IMDb评分 6.8/10 (221人评价)
◎IMDb链接 https://www.imdb.com/title/tt16426596/
◎豆瓣链接 https://movie.douban.com/subject/35899050/
◎片  长 28分钟
◎简  介
  Spanning 19 years, The Dreamlife of Georgie Stone reveals the memories of Georgie Stone, an Australian transgender teen as she helps change laws, affirms her gender, finds her voice, and emerges into adulthood.                                       
                                    The Dreamlife Project, a collaborative storytelling campaign developed and led by an advisory committee of young transgender, gender diverse and non-binary people, will ...
  1. Video
  2. ID                                       : 1
  3. Format                                   : HEVC
  4. Format/Info                              : High Efficiency Video Coding
  5. Format profile                           : Main 10@L5@Main
  6. HDR format                               : Dolby Vision, Version 1.0, dvhe.05.06, BL+RPU
  7. Codec ID                                 : V_MPEGH/ISO/HEVC
  8. Duration                                 : 29 min 56 s
  9. Bit rate                                 : 15.6 Mb/s
  10. Width                                    : 3 840 pixels
  11. Height                                   : 2 160 pixels
  12. Display aspect ratio                     : 16:9
  13. Frame rate mode                          : Constant
  14. Frame rate                               : 23.976 (24000/1001) FPS
  15. Color space                              : YUV
  16. Chroma subsampling                       : 4:2:0
  17. Bit depth                                : 10 bits
  18. Bits/(Pixel*Frame)                       : 0.079
  19. Stream size                              : 3.27 GiB (96%)
  20. Language                                 : English
  21. Default                                  : Yes
  22. Forced                                   : No
  23. Color range                              : Full
  24. Audio
  25. ID                                       : 2
  26. Format                                   : E-AC-3
  27. Format/Info                              : Enhanced AC-3
  28. Commercial name                          : Dolby Digital Plus
  29. Codec ID                                 : A_EAC3
  30. Duration                                 : 29 min 56 s
  31. Bit rate mode                            : Constant
  32. Bit rate                                 : 640 kb/s
  33. Channel(s)                               : 6 channels
  34. Channel layout                           : L R C LFE Ls Rs
  35. Sampling rate                            : 48.0 kHz
  36. Frame rate                               : 31.250 FPS (1536 SPF)
  37. Compression mode                         : Lossy
  38. Stream size                              : 137 MiB (4%)
  39. Language                                 : English
  40. Service kind                             : Complete Main
  41. Default                                  : Yes
  42. Forced                                   : No
  43. Text #1
  44. ID                                       : 3
  45. Format                                   : UTF-8
  46. Codec ID                                 : S_TEXT/UTF8
  47. Codec ID/Info                            : UTF-8 Plain Text
  48. Duration                                 : 16 min 59 s
  49. Bit rate                                 : 4 b/s
  50. Frame rate                               : 0.015 FPS
  51. Count of elements                        : 15
  52. Stream size                              : 511 Bytes (0%)
  53. Title                                    : Forced
  54. Language                                 : English
  55. Default                                  : Yes
  56. Forced                                   : Yes
  57. Text #2
  58. ID                                       : 4
  59. Format                                   : UTF-8
  60. Codec ID                                 : S_TEXT/UTF8
  61. Codec ID/Info                            : UTF-8 Plain Text
  62. Duration                                 : 29 min 0 s
  63. Bit rate                                 : 60 b/s
  64. Frame rate                               : 0.207 FPS
  65. Count of elements                        : 360
  66. Stream size                              : 12.9 KiB (0%)
  67. Language                                 : English
  68. Default                                  : No
  69. Forced                                   : No
  70. Text #3
  71. ID                                       : 5
  72. Format                                   : UTF-8
  73. Codec ID                                 : S_TEXT/UTF8
  74. Codec ID/Info                            : UTF-8 Plain Text
  75. Duration                                 : 29 min 7 s
  76. Bit rate                                 : 70 b/s
  77. Frame rate                               : 0.247 FPS
  78. Count of elements                        : 431
  79. Stream size                              : 15.1 KiB (0%)
  80. Title                                    : SDH
  81. Language                                 : English
  82. Default                                  : No
  83. Forced                                   : No
  84. Text #4
  85. ID                                       : 6
  86. Format                                   : UTF-8
  87. Codec ID                                 : S_TEXT/UTF8
  88. Codec ID/Info                            : UTF-8 Plain Text
  89. Duration                                 : 29 min 10 s
  90. Bit rate                                 : 101 b/s
  91. Frame rate                               : 0.213 FPS
  92. Count of elements                        : 372
  93. Stream size                              : 21.7 KiB (0%)
  94. Language                                 : Arabic
  95. Default                                  : No
  96. Forced                                   : No
  97. Text #5
  98. ID                                       : 7
  99. Format                                   : UTF-8
  100. Codec ID                                 : S_TEXT/UTF8
  101. Codec ID/Info                            : UTF-8 Plain Text
  102. Duration                                 : 29 min 11 s
  103. Bit rate                                 : 61 b/s
  104. Frame rate                               : 0.211 FPS
  105. Count of elements                        : 370
  106. Stream size                              : 13.1 KiB (0%)
  107. Language                                 : Czech
  108. Default                                  : No
  109. Forced                                   : No
  110. Text #6
  111. ID                                       : 8
  112. Format                                   : UTF-8
  113. Codec ID                                 : S_TEXT/UTF8
  114. Codec ID/Info                            : UTF-8 Plain Text
  115. Duration                                 : 29 min 6 s
  116. Bit rate                                 : 55 b/s
  117. Frame rate                               : 0.182 FPS
  118. Count of elements                        : 318
  119. Stream size                              : 11.9 KiB (0%)
  120. Language                                 : Danish
  121. Default                                  : No
  122. Forced                                   : No
  123. Text #7
  124. ID                                       : 9
  125. Format                                   : UTF-8
  126. Codec ID                                 : S_TEXT/UTF8
  127. Codec ID/Info                            : UTF-8 Plain Text
  128. Duration                                 : 29 min 10 s
  129. Bit rate                                 : 59 b/s
  130. Frame rate                               : 0.199 FPS
  131. Count of elements                        : 348
  132. Stream size                              : 12.8 KiB (0%)
  133. Language                                 : German
  134. Default                                  : No
  135. Forced                                   : No
  136. Text #8
  137. ID                                       : 10
  138. Format                                   : UTF-8
  139. Codec ID                                 : S_TEXT/UTF8
  140. Codec ID/Info                            : UTF-8 Plain Text
  141. Duration                                 : 29 min 10 s
  142. Bit rate                                 : 105 b/s
  143. Frame rate                               : 0.201 FPS
  144. Count of elements                        : 351
  145. Stream size                              : 22.5 KiB (0%)
  146. Language                                 : Greek
  147. Default                                  : No
  148. Forced                                   : No
  149. Text #9
  150. ID                                       : 11
  151. Format                                   : UTF-8
  152. Codec ID                                 : S_TEXT/UTF8
  153. Codec ID/Info                            : UTF-8 Plain Text
  154. Duration                                 : 29 min 10 s
  155. Bit rate                                 : 57 b/s
  156. Frame rate                               : 0.209 FPS
  157. Count of elements                        : 366
  158. Stream size                              : 12.3 KiB (0%)
  159. Title                                    : Latin American
  160. Language                                 : Spanish (Latin America)
  161. Default                                  : No
  162. Forced                                   : No
  163. Text #10
  164. ID                                       : 12
  165. Format                                   : UTF-8
  166. Codec ID                                 : S_TEXT/UTF8
  167. Codec ID/Info                            : UTF-8 Plain Text
  168. Duration                                 : 29 min 8 s
  169. Bit rate                                 : 56 b/s
  170. Frame rate                               : 0.204 FPS
  171. Count of elements                        : 357
  172. Stream size                              : 12.0 KiB (0%)
  173. Language                                 : Spanish (ES)
  174. Default                                  : No
  175. Forced                                   : No
  176. Text #11
  177. ID                                       : 13
  178. Format                                   : UTF-8
  179. Codec ID                                 : S_TEXT/UTF8
  180. Codec ID/Info                            : UTF-8 Plain Text
  181. Duration                                 : 29 min 10 s
  182. Bit rate                                 : 55 b/s
  183. Frame rate                               : 0.183 FPS
  184. Count of elements                        : 321
  185. Stream size                              : 11.9 KiB (0%)
  186. Language                                 : Finnish
  187. Default                                  : No
  188. Forced                                   : No
  189. Text #12
  190. ID                                       : 14
  191. Format                                   : UTF-8
  192. Codec ID                                 : S_TEXT/UTF8
  193. Codec ID/Info                            : UTF-8 Plain Text
  194. Duration                                 : 29 min 10 s
  195. Bit rate                                 : 63 b/s
  196. Frame rate                               : 0.207 FPS
  197. Count of elements                        : 362
  198. Stream size                              : 13.5 KiB (0%)
  199. Language                                 : fil
  200. Default                                  : No
  201. Forced                                   : No
  202. Text #13
  203. ID                                       : 15
  204. Format                                   : UTF-8
  205. Codec ID                                 : S_TEXT/UTF8
  206. Codec ID/Info                            : UTF-8 Plain Text
  207. Duration                                 : 29 min 10 s
  208. Bit rate                                 : 58 b/s
  209. Frame rate                               : 0.201 FPS
  210. Count of elements                        : 352
  211. Stream size                              : 12.4 KiB (0%)
  212. Language                                 : French
  213. Default                                  : No
  214. Forced                                   : No
  215. Text #14
  216. ID                                       : 16
  217. Format                                   : UTF-8
  218. Codec ID                                 : S_TEXT/UTF8
  219. Codec ID/Info                            : UTF-8 Plain Text
  220. Duration                                 : 28 min 1 s
  221. Bit rate                                 : 99 b/s
  222. Frame rate                               : 0.225 FPS
  223. Count of elements                        : 378
  224. Stream size                              : 20.5 KiB (0%)
  225. Language                                 : Hebrew
  226. Default                                  : No
  227. Forced                                   : No
  228. Text #15
  229. ID                                       : 17
  230. Format                                   : UTF-8
  231. Codec ID                                 : S_TEXT/UTF8
  232. Codec ID/Info                            : UTF-8 Plain Text
  233. Duration                                 : 29 min 10 s
  234. Bit rate                                 : 52 b/s
  235. Frame rate                               : 0.207 FPS
  236. Count of elements                        : 362
  237. Stream size                              : 11.1 KiB (0%)
  238. Language                                 : Croatian
  239. Default                                  : No
  240. Forced                                   : No
  241. Text #16
  242. ID                                       : 18
  243. Format                                   : UTF-8
  244. Codec ID                                 : S_TEXT/UTF8
  245. Codec ID/Info                            : UTF-8 Plain Text
  246. Duration                                 : 29 min 10 s
  247. Bit rate                                 : 64 b/s
  248. Frame rate                               : 0.194 FPS
  249. Count of elements                        : 339
  250. Stream size                              : 13.8 KiB (0%)
  251. Language                                 : Hungarian
  252. Default                                  : No
  253. Forced                                   : No
  254. Text #17
  255. ID                                       : 19
  256. Format                                   : UTF-8
  257. Codec ID                                 : S_TEXT/UTF8
  258. Codec ID/Info                            : UTF-8 Plain Text
  259. Duration                                 : 29 min 10 s
  260. Bit rate                                 : 57 b/s
  261. Frame rate                               : 0.201 FPS
  262. Count of elements                        : 351
  263. Stream size                              : 12.3 KiB (0%)
  264. Language                                 : Indonesian
  265. Default                                  : No
  266. Forced                                   : No
  267. Text #18
  268. ID                                       : 20
  269. Format                                   : UTF-8
  270. Codec ID                                 : S_TEXT/UTF8
  271. Codec ID/Info                            : UTF-8 Plain Text
  272. Duration                                 : 29 min 10 s
  273. Bit rate                                 : 58 b/s
  274. Frame rate                               : 0.209 FPS
  275. Count of elements                        : 366
  276. Stream size                              : 12.6 KiB (0%)
  277. Language                                 : Italian
  278. Default                                  : No
  279. Forced                                   : No
  280. Text #19
  281. ID                                       : 21
  282. Format                                   : UTF-8
  283. Codec ID                                 : S_TEXT/UTF8
  284. Codec ID/Info                            : UTF-8 Plain Text
  285. Duration                                 : 29 min 9 s
  286. Bit rate                                 : 79 b/s
  287. Frame rate                               : 0.239 FPS
  288. Count of elements                        : 418
  289. Stream size                              : 17.0 KiB (0%)
  290. Language                                 : Japanese
  291. Default                                  : No
  292. Forced                                   : No
  293. Text #20
  294. ID                                       : 22
  295. Format                                   : UTF-8
  296. Codec ID                                 : S_TEXT/UTF8
  297. Codec ID/Info                            : UTF-8 Plain Text
  298. Duration                                 : 29 min 10 s
  299. Bit rate                                 : 82 b/s
  300. Frame rate                               : 0.216 FPS
  301. Count of elements                        : 378
  302. Stream size                              : 17.6 KiB (0%)
  303. Language                                 : Korean
  304. Default                                  : No
  305. Forced                                   : No
  306. Text #21
  307. ID                                       : 23
  308. Format                                   : UTF-8
  309. Codec ID                                 : S_TEXT/UTF8
  310. Codec ID/Info                            : UTF-8 Plain Text
  311. Duration                                 : 29 min 10 s
  312. Bit rate                                 : 56 b/s
  313. Frame rate                               : 0.211 FPS
  314. Count of elements                        : 369
  315. Stream size                              : 12.0 KiB (0%)
  316. Language                                 : Malay
  317. Default                                  : No
  318. Forced                                   : No
  319. Text #22
  320. ID                                       : 24
  321. Format                                   : UTF-8
  322. Codec ID                                 : S_TEXT/UTF8
  323. Codec ID/Info                            : UTF-8 Plain Text
  324. Duration                                 : 29 min 10 s
  325. Bit rate                                 : 53 b/s
  326. Frame rate                               : 0.164 FPS
  327. Count of elements                        : 287
  328. Stream size                              : 11.4 KiB (0%)
  329. Language                                 : Norwegian Bokmal
  330. Default                                  : No
  331. Forced                                   : No
  332. Text #23
  333. ID                                       : 25
  334. Format                                   : UTF-8
  335. Codec ID                                 : S_TEXT/UTF8
  336. Codec ID/Info                            : UTF-8 Plain Text
  337. Duration                                 : 29 min 10 s
  338. Bit rate                                 : 55 b/s
  339. Frame rate                               : 0.175 FPS
  340. Count of elements                        : 307
  341. Stream size                              : 12.0 KiB (0%)
  342. Language                                 : Dutch
  343. Default                                  : No
  344. Forced                                   : No
  345. Text #24
  346. ID                                       : 26
  347. Format                                   : UTF-8
  348. Codec ID                                 : S_TEXT/UTF8
  349. Codec ID/Info                            : UTF-8 Plain Text
  350. Duration                                 : 29 min 10 s
  351. Bit rate                                 : 56 b/s
  352. Frame rate                               : 0.198 FPS
  353. Count of elements                        : 347
  354. Stream size                              : 12.1 KiB (0%)
  355. Language                                 : Polish
  356. Default                                  : No
  357. Forced                                   : No
  358. Text #25
  359. ID                                       : 27
  360. Format                                   : UTF-8
  361. Codec ID                                 : S_TEXT/UTF8
  362. Codec ID/Info                            : UTF-8 Plain Text
  363. Duration                                 : 29 min 8 s
  364. Bit rate                                 : 59 b/s
  365. Frame rate                               : 0.212 FPS
  366. Count of elements                        : 371
  367. Stream size                              : 12.6 KiB (0%)
  368. Title                                    : Brazilian
  369. Language                                 : Portuguese (BR)
  370. Default                                  : No
  371. Forced                                   : No
  372. Text #26
  373. ID                                       : 28
  374. Format                                   : UTF-8
  375. Codec ID                                 : S_TEXT/UTF8
  376. Codec ID/Info                            : UTF-8 Plain Text
  377. Duration                                 : 29 min 8 s
  378. Bit rate                                 : 60 b/s
  379. Frame rate                               : 0.203 FPS
  380. Count of elements                        : 355
  381. Stream size                              : 12.9 KiB (0%)
  382. Language                                 : Portuguese (PT)
  383. Default                                  : No
  384. Forced                                   : No
  385. Text #27
  386. ID                                       : 29
  387. Format                                   : UTF-8
  388. Codec ID                                 : S_TEXT/UTF8
  389. Codec ID/Info                            : UTF-8 Plain Text
  390. Duration                                 : 29 min 10 s
  391. Bit rate                                 : 64 b/s
  392. Frame rate                               : 0.210 FPS
  393. Count of elements                        : 368
  394. Stream size                              : 13.7 KiB (0%)
  395. Language                                 : Romanian
  396. Default                                  : No
  397. Forced                                   : No
  398. Text #28
  399. ID                                       : 30
  400. Format                                   : UTF-8
  401. Codec ID                                 : S_TEXT/UTF8
  402. Codec ID/Info                            : UTF-8 Plain Text
  403. Duration                                 : 29 min 7 s
  404. Bit rate                                 : 98 b/s
  405. Frame rate                               : 0.212 FPS
  406. Count of elements                        : 370
  407. Stream size                              : 21.1 KiB (0%)
  408. Language                                 : Russian
  409. Default                                  : No
  410. Forced                                   : No
  411. Text #29
  412. ID                                       : 31
  413. Format                                   : UTF-8
  414. Codec ID                                 : S_TEXT/UTF8
  415. Codec ID/Info                            : UTF-8 Plain Text
  416. Duration                                 : 29 min 10 s
  417. Bit rate                                 : 58 b/s
  418. Frame rate                               : 0.187 FPS
  419. Count of elements                        : 328
  420. Stream size                              : 12.5 KiB (0%)
  421. Language                                 : Swedish
  422. Default                                  : No
  423. Forced                                   : No
  424. Text #30
  425. ID                                       : 32
  426. Format                                   : UTF-8
  427. Codec ID                                 : S_TEXT/UTF8
  428. Codec ID/Info                            : UTF-8 Plain Text
  429. Duration                                 : 27 min 59 s
  430. Bit rate                                 : 150 b/s
  431. Frame rate                               : 0.222 FPS
  432. Count of elements                        : 372
  433. Stream size                              : 30.8 KiB (0%)
  434. Language                                 : Thai
  435. Default                                  : No
  436. Forced                                   : No
  437. Text #31
  438. ID                                       : 33
  439. Format                                   : UTF-8
  440. Codec ID                                 : S_TEXT/UTF8
  441. Codec ID/Info                            : UTF-8 Plain Text
  442. Duration                                 : 29 min 10 s
  443. Bit rate                                 : 60 b/s
  444. Frame rate                               : 0.205 FPS
  445. Count of elements                        : 358
  446. Stream size                              : 12.9 KiB (0%)
  447. Language                                 : Turkish
  448. Default                                  : No
  449. Forced                                   : No
  450. Text #32
  451. ID                                       : 34
  452. Format                                   : UTF-8
  453. Codec ID                                 : S_TEXT/UTF8
  454. Codec ID/Info                            : UTF-8 Plain Text
  455. Duration                                 : 29 min 10 s
  456. Bit rate                                 : 102 b/s
  457. Frame rate                               : 0.213 FPS
  458. Count of elements                        : 372
  459. Stream size                              : 21.9 KiB (0%)
  460. Language                                 : Ukrainian
  461. Default                                  : No
  462. Forced                                   : No
  463. Text #33
  464. ID                                       : 35
  465. Format                                   : UTF-8
  466. Codec ID                                 : S_TEXT/UTF8
  467. Codec ID/Info                            : UTF-8 Plain Text
  468. Duration                                 : 29 min 10 s
  469. Bit rate                                 : 85 b/s
  470. Frame rate                               : 0.210 FPS
  471. Count of elements                        : 367
  472. Stream size                              : 18.3 KiB (0%)
  473. Language                                 : Vietnamese
  474. Default                                  : No
  475. Forced                                   : No
  476. Text #34
  477. ID                                       : 36
  478. Format                                   : UTF-8
  479. Codec ID                                 : S_TEXT/UTF8
  480. Codec ID/Info                            : UTF-8 Plain Text
  481. Duration                                 : 29 min 10 s
  482. Bit rate                                 : 56 b/s
  483. Frame rate                               : 0.211 FPS
  484. Count of elements                        : 369
  485. Stream size                              : 12.2 KiB (0%)
  486. Title                                    : Simplified
  487. Language                                 : Chinese (Simplied)
  488. Default                                  : No
  489. Forced                                   : No
  490. Text #35
  491. ID                                       : 37
  492. Format                                   : UTF-8
  493. Codec ID                                 : S_TEXT/UTF8
  494. Codec ID/Info                            : UTF-8 Plain Text
  495. Duration                                 : 29 min 10 s
  496. Bit rate                                 : 59 b/s
  497. Frame rate                               : 0.213 FPS
  498. Count of elements                        : 372
  499. Stream size                              : 12.6 KiB (0%)
  500. Title                                    : Traditional
  501. Language                                 : Chinese (Traditional)
  502. Default                                  : No
  503. Forced                                   : No
  504. Menu
  505. 00:28:09.000                             : en:End Credits
复制代码










回复

使用道具 举报

懒得打字嘛,点击右侧快捷回复 【右侧内容,后台自定义】
您需要登录后才可以回帖 登录 | 立即加入

本版积分规则

Copyright © 2024 Comsenz Inc. Powered by 蓝光电影网

本站内容由用户自主分享和转载自互联网,转载目的在于传递更多信息,并不代表本网赞同其观点和对其真实性负责。

如有侵权、违反国家法律政策行为,请联系我们,我们会第一时间及时清除和处理!

举报反馈邮箱:4k1080.com@gmail.com

快速回复 返回顶部 返回列表