找回密码

查看: 1324|回复: 0

[2160p-WEB] 塞尔吉奥[中文字幕].Sergio.2020.2160p.NF.WEBRip.x265.10bit.HDR.DD5.1.Atmos-dBBd 15.44GB

[复制链接]
蓝光币
1840
发表于 2023-1-2 14:57:34 | 显示全部楼层 |阅读模式


◎标  题 塞尔吉奥
◎译  名 Sergio:天下良知(港) / 急救德梅洛(台)
◎片  名 Sergio
◎年  代 2020
◎产  地 美国
◎类  别 剧情
◎语  言 英语
◎上映日期 2020-01-28(圣丹斯电影节) / 2020-04-17(美国)
◎IMDb评分 6.2/10 (10145人评价)
◎IMDb链接 https://www.imdb.com/title/tt8750570/
◎豆瓣评分 5.7/10 (500人评价)
◎豆瓣链接 https://movie.douban.com/subject/30369069/
◎片  长 118分钟
◎导  演 格雷格·巴克 Greg Barker
◎编  剧 克莱格·鲍登 Craig Borten
◎演  员 瓦格纳·马拉 Wagner Moura
       安娜·德·阿玛斯 Ana de Armas
       布莱恩·F·奥博恩 Brian F. O'Byrne
       加瑞特·迪拉胡特 Garret Dillahunt
       克雷蒙斯·施伊克 Clemens Schick
       布莱德利·惠特福德 Bradley Whitford
       维他亚·潘斯林加姆 Vithaya Pansringarm
       萨哈贾克·波斯安吉特 Sahajak Boonthanakit
       邦妮·泽勒巴克 Bonnie Zellerbach
       Adrian Teijido  Adrian Teijido
       Jo Katsaras Jo Katsaras
◎简  介
  塞尔吉奥·维埃拉·德梅洛(瓦格纳·马拉饰演)魅力非凡、性情复杂,在他布满传奇的职业生活中,他大部分时候都以结合国高级交际官的身份在天下上最不稳定的地域工作, 为了庇护普通公众的生命,奇妙地与列国总统、反动者和战犯打交道。可是,就在他预备与自己心爱的女人(安娜·德·阿玛斯饰演)一路过简单的生活时,塞尔吉奥接到了最初一项使命,而且是在遭到美国入侵后堕入紊乱的巴格达。这原本是一项很简单的使命,可是后来一枚炸弹爆炸了,结合国总部的墙壁倒在了他身上,就此激发了一场扣民气弦的生死奋斗。《塞尔吉奥》的灵感来历于实在事务,在这部大建造电影中,仆人公不竭冲破自己的身材和心理极限,被迫面临自己在野心、家庭和爱的才能等题目上布满分歧的挑选。
  1. Video
  2. ID                                       : 1
  3. Format                                   : HEVC
  4. Format/Info                              : High Efficiency Video Coding
  5. Format profile                           : Main 10@L5@Main
  6. HDR format                               : Dolby Vision, Version 1.0, dvhe.08.06, BL+RPU, HDR10 compatible / SMPTE ST 2086, HDR10 compatible
  7. Codec ID                                 : V_MPEGH/ISO/HEVC
  8. Duration                                 : 1 h 58 min
  9. Bit rate                                 : 17.9 Mb/s
  10. Width                                    : 3 840 pixels
  11. Height                                   : 2 160 pixels
  12. Display aspect ratio                     : 16:9
  13. Frame rate mode                          : Constant
  14. Frame rate                               : 23.976 (24000/1001) FPS
  15. Color space                              : YUV
  16. Chroma subsampling                       : 4:2:0 (Type 2)
  17. Bit depth                                : 10 bits
  18. Bits/(Pixel*Frame)                       : 0.090
  19. Stream size                              : 14.8 GiB (96%)
  20. Default                                  : Yes
  21. Forced                                   : No
  22. Color range                              : Limited
  23. Color primaries                          : BT.2020
  24. Transfer characteristics                 : PQ
  25. Matrix coefficients                      : BT.2020 non-constant
  26. Mastering display color primaries        : Display P3
  27. Mastering display luminance              : min: 0.0001 cd/m2, max: 1000 cd/m2
  28. Maximum Content Light Level              : 1575 cd/m2
  29. Maximum Frame-Average Light Level        : 761 cd/m2
  30. Audio
  31. ID                                       : 2
  32. Format                                   : E-AC-3 JOC
  33. Format/Info                              : Enhanced AC-3 with Joint Object Coding
  34. Commercial name                          : Dolby Digital Plus with Dolby Atmos
  35. Codec ID                                 : A_EAC3
  36. Duration                                 : 1 h 58 min
  37. Bit rate mode                            : Constant
  38. Bit rate                                 : 768 kb/s
  39. Channel(s)                               : 6 channels
  40. Channel layout                           : L R C LFE Ls Rs
  41. Sampling rate                            : 48.0 kHz
  42. Frame rate                               : 31.250 FPS (1536 SPF)
  43. Compression mode                         : Lossy
  44. Stream size                              : 652 MiB (4%)
  45. Language                                 : English
  46. Service kind                             : Complete Main
  47. Default                                  : Yes
  48. Forced                                   : No
  49. Complexity index                         : 16
  50. Number of dynamic objects                : 15
  51. Bed channel count                        : 1 channel
  52. Bed channel configuration                : LFE
  53. Text #1
  54. ID                                       : 3
  55. Format                                   : UTF-8
  56. Codec ID                                 : S_TEXT/UTF8
  57. Codec ID/Info                            : UTF-8 Plain Text
  58. Duration                                 : 1 h 23 min
  59. Bit rate                                 : 6 b/s
  60. Frame rate                               : 0.035 FPS
  61. Count of elements                        : 175
  62. Stream size                              : 3.84 KiB (0%)
  63. Title                                    : Forced
  64. Language                                 : English
  65. Default                                  : Yes
  66. Forced                                   : Yes
  67. Text #2
  68. ID                                       : 4
  69. Format                                   : UTF-8
  70. Codec ID                                 : S_TEXT/UTF8
  71. Codec ID/Info                            : UTF-8 Plain Text
  72. Duration                                 : 1 h 53 min
  73. Bit rate                                 : 55 b/s
  74. Frame rate                               : 0.242 FPS
  75. Count of elements                        : 1651
  76. Stream size                              : 46.1 KiB (0%)
  77. Title                                    : SDH
  78. Language                                 : English
  79. Default                                  : No
  80. Forced                                   : No
  81. Text #3
  82. ID                                       : 5
  83. Format                                   : UTF-8
  84. Codec ID                                 : S_TEXT/UTF8
  85. Codec ID/Info                            : UTF-8 Plain Text
  86. Duration                                 : 1 h 57 min
  87. Bit rate                                 : 74 b/s
  88. Frame rate                               : 0.193 FPS
  89. Count of elements                        : 1365
  90. Stream size                              : 63.9 KiB (0%)
  91. Language                                 : Arabic
  92. Default                                  : No
  93. Forced                                   : No
  94. Text #4
  95. ID                                       : 6
  96. Format                                   : UTF-8
  97. Codec ID                                 : S_TEXT/UTF8
  98. Codec ID/Info                            : UTF-8 Plain Text
  99. Duration                                 : 1 h 57 min
  100. Bit rate                                 : 39 b/s
  101. Frame rate                               : 0.186 FPS
  102. Count of elements                        : 1316
  103. Stream size                              : 34.4 KiB (0%)
  104. Language                                 : Czech
  105. Default                                  : No
  106. Forced                                   : No
  107. Text #5
  108. ID                                       : 7
  109. Format                                   : UTF-8
  110. Codec ID                                 : S_TEXT/UTF8
  111. Codec ID/Info                            : UTF-8 Plain Text
  112. Duration                                 : 1 h 57 min
  113. Bit rate                                 : 38 b/s
  114. Frame rate                               : 0.162 FPS
  115. Count of elements                        : 1141
  116. Stream size                              : 33.4 KiB (0%)
  117. Language                                 : Danish
  118. Default                                  : No
  119. Forced                                   : No
  120. Text #6
  121. ID                                       : 8
  122. Format                                   : UTF-8
  123. Codec ID                                 : S_TEXT/UTF8
  124. Codec ID/Info                            : UTF-8 Plain Text
  125. Duration                                 : 1 h 57 min
  126. Bit rate                                 : 45 b/s
  127. Frame rate                               : 0.185 FPS
  128. Count of elements                        : 1303
  129. Stream size                              : 39.3 KiB (0%)
  130. Language                                 : German
  131. Default                                  : No
  132. Forced                                   : No
  133. Text #7
  134. ID                                       : 9
  135. Format                                   : UTF-8
  136. Codec ID                                 : S_TEXT/UTF8
  137. Codec ID/Info                            : UTF-8 Plain Text
  138. Duration                                 : 1 h 57 min
  139. Bit rate                                 : 72 b/s
  140. Frame rate                               : 0.187 FPS
  141. Count of elements                        : 1319
  142. Stream size                              : 62.1 KiB (0%)
  143. Language                                 : Greek
  144. Default                                  : No
  145. Forced                                   : No
  146. Text #8
  147. ID                                       : 10
  148. Format                                   : UTF-8
  149. Codec ID                                 : S_TEXT/UTF8
  150. Codec ID/Info                            : UTF-8 Plain Text
  151. Duration                                 : 1 h 57 min
  152. Bit rate                                 : 41 b/s
  153. Frame rate                               : 0.169 FPS
  154. Count of elements                        : 1195
  155. Stream size                              : 35.6 KiB (0%)
  156. Language                                 : Spanish
  157. Default                                  : No
  158. Forced                                   : No
  159. Text #9
  160. ID                                       : 11
  161. Format                                   : UTF-8
  162. Codec ID                                 : S_TEXT/UTF8
  163. Codec ID/Info                            : UTF-8 Plain Text
  164. Duration                                 : 1 h 57 min
  165. Bit rate                                 : 42 b/s
  166. Frame rate                               : 0.181 FPS
  167. Count of elements                        : 1278
  168. Stream size                              : 36.7 KiB (0%)
  169. Title                                    : Europe
  170. Language                                 : Spanish (150)
  171. Default                                  : No
  172. Forced                                   : No
  173. Text #10
  174. ID                                       : 12
  175. Format                                   : UTF-8
  176. Codec ID                                 : S_TEXT/UTF8
  177. Codec ID/Info                            : UTF-8 Plain Text
  178. Duration                                 : 1 h 57 min
  179. Bit rate                                 : 42 b/s
  180. Frame rate                               : 0.158 FPS
  181. Count of elements                        : 1112
  182. Stream size                              : 37.0 KiB (0%)
  183. Language                                 : Finnish
  184. Default                                  : No
  185. Forced                                   : No
  186. Text #11
  187. ID                                       : 13
  188. Format                                   : UTF-8
  189. Codec ID                                 : S_TEXT/UTF8
  190. Codec ID/Info                            : UTF-8 Plain Text
  191. Duration                                 : 1 h 57 min
  192. Bit rate                                 : 41 b/s
  193. Frame rate                               : 0.175 FPS
  194. Count of elements                        : 1237
  195. Stream size                              : 35.4 KiB (0%)
  196. Language                                 : French
  197. Default                                  : No
  198. Forced                                   : No
  199. Text #12
  200. ID                                       : 14
  201. Format                                   : UTF-8
  202. Codec ID                                 : S_TEXT/UTF8
  203. Codec ID/Info                            : UTF-8 Plain Text
  204. Duration                                 : 1 h 57 min
  205. Bit rate                                 : 68 b/s
  206. Frame rate                               : 0.189 FPS
  207. Count of elements                        : 1337
  208. Stream size                              : 58.6 KiB (0%)
  209. Language                                 : Hebrew
  210. Default                                  : No
  211. Forced                                   : No
  212. Text #13
  213. ID                                       : 15
  214. Format                                   : UTF-8
  215. Codec ID                                 : S_TEXT/UTF8
  216. Codec ID/Info                            : UTF-8 Plain Text
  217. Duration                                 : 1 h 57 min
  218. Bit rate                                 : 118 b/s
  219. Frame rate                               : 0.191 FPS
  220. Count of elements                        : 1351
  221. Stream size                              : 102 KiB (0%)
  222. Language                                 : Hindi
  223. Default                                  : No
  224. Forced                                   : No
  225. Text #14
  226. ID                                       : 16
  227. Format                                   : UTF-8
  228. Codec ID                                 : S_TEXT/UTF8
  229. Codec ID/Info                            : UTF-8 Plain Text
  230. Duration                                 : 1 h 57 min
  231. Bit rate                                 : 36 b/s
  232. Frame rate                               : 0.185 FPS
  233. Count of elements                        : 1308
  234. Stream size                              : 31.5 KiB (0%)
  235. Language                                 : Croatian
  236. Default                                  : No
  237. Forced                                   : No
  238. Text #15
  239. ID                                       : 17
  240. Format                                   : UTF-8
  241. Codec ID                                 : S_TEXT/UTF8
  242. Codec ID/Info                            : UTF-8 Plain Text
  243. Duration                                 : 1 h 57 min
  244. Bit rate                                 : 42 b/s
  245. Frame rate                               : 0.182 FPS
  246. Count of elements                        : 1285
  247. Stream size                              : 36.6 KiB (0%)
  248. Language                                 : Hungarian
  249. Default                                  : No
  250. Forced                                   : No
  251. Text #16
  252. ID                                       : 18
  253. Format                                   : UTF-8
  254. Codec ID                                 : S_TEXT/UTF8
  255. Codec ID/Info                            : UTF-8 Plain Text
  256. Duration                                 : 1 h 57 min
  257. Bit rate                                 : 42 b/s
  258. Frame rate                               : 0.189 FPS
  259. Count of elements                        : 1334
  260. Stream size                              : 36.6 KiB (0%)
  261. Language                                 : Indonesian
  262. Default                                  : No
  263. Forced                                   : No
  264. Text #17
  265. ID                                       : 19
  266. Format                                   : UTF-8
  267. Codec ID                                 : S_TEXT/UTF8
  268. Codec ID/Info                            : UTF-8 Plain Text
  269. Duration                                 : 1 h 57 min
  270. Bit rate                                 : 43 b/s
  271. Frame rate                               : 0.179 FPS
  272. Count of elements                        : 1261
  273. Stream size                              : 37.7 KiB (0%)
  274. Language                                 : Italian
  275. Default                                  : No
  276. Forced                                   : No
  277. Text #18
  278. ID                                       : 20
  279. Format                                   : UTF-8
  280. Codec ID                                 : S_TEXT/UTF8
  281. Codec ID/Info                            : UTF-8 Plain Text
  282. Duration                                 : 1 h 57 min
  283. Bit rate                                 : 43 b/s
  284. Frame rate                               : 0.174 FPS
  285. Count of elements                        : 1231
  286. Stream size                              : 37.9 KiB (0%)
  287. Language                                 : Japanese
  288. Default                                  : No
  289. Forced                                   : No
  290. Text #19
  291. ID                                       : 21
  292. Format                                   : UTF-8
  293. Codec ID                                 : S_TEXT/UTF8
  294. Codec ID/Info                            : UTF-8 Plain Text
  295. Duration                                 : 1 h 57 min
  296. Bit rate                                 : 54 b/s
  297. Frame rate                               : 0.194 FPS
  298. Count of elements                        : 1369
  299. Stream size                              : 47.2 KiB (0%)
  300. Language                                 : Korean
  301. Default                                  : No
  302. Forced                                   : No
  303. Text #20
  304. ID                                       : 22
  305. Format                                   : UTF-8
  306. Codec ID                                 : S_TEXT/UTF8
  307. Codec ID/Info                            : UTF-8 Plain Text
  308. Duration                                 : 1 h 57 min
  309. Bit rate                                 : 44 b/s
  310. Frame rate                               : 0.202 FPS
  311. Count of elements                        : 1427
  312. Stream size                              : 38.0 KiB (0%)
  313. Language                                 : Malay
  314. Default                                  : No
  315. Forced                                   : No
  316. Text #21
  317. ID                                       : 23
  318. Format                                   : UTF-8
  319. Codec ID                                 : S_TEXT/UTF8
  320. Codec ID/Info                            : UTF-8 Plain Text
  321. Duration                                 : 1 h 57 min
  322. Bit rate                                 : 40 b/s
  323. Frame rate                               : 0.183 FPS
  324. Count of elements                        : 1295
  325. Stream size                              : 35.0 KiB (0%)
  326. Language                                 : Norwegian Bokmal
  327. Default                                  : No
  328. Forced                                   : No
  329. Text #22
  330. ID                                       : 24
  331. Format                                   : UTF-8
  332. Codec ID                                 : S_TEXT/UTF8
  333. Codec ID/Info                            : UTF-8 Plain Text
  334. Duration                                 : 1 h 57 min
  335. Bit rate                                 : 37 b/s
  336. Frame rate                               : 0.145 FPS
  337. Count of elements                        : 1023
  338. Stream size                              : 32.2 KiB (0%)
  339. Language                                 : Dutch
  340. Default                                  : No
  341. Forced                                   : No
  342. Text #23
  343. ID                                       : 25
  344. Format                                   : UTF-8
  345. Codec ID                                 : S_TEXT/UTF8
  346. Codec ID/Info                            : UTF-8 Plain Text
  347. Duration                                 : 1 h 57 min
  348. Bit rate                                 : 39 b/s
  349. Frame rate                               : 0.187 FPS
  350. Count of elements                        : 1320
  351. Stream size                              : 34.2 KiB (0%)
  352. Language                                 : Polish
  353. Default                                  : No
  354. Forced                                   : No
  355. Text #24
  356. ID                                       : 26
  357. Format                                   : UTF-8
  358. Codec ID                                 : S_TEXT/UTF8
  359. Codec ID/Info                            : UTF-8 Plain Text
  360. Duration                                 : 1 h 57 min
  361. Bit rate                                 : 40 b/s
  362. Frame rate                               : 0.167 FPS
  363. Count of elements                        : 1176
  364. Stream size                              : 35.3 KiB (0%)
  365. Language                                 : Portuguese
  366. Default                                  : No
  367. Forced                                   : No
  368. Text #25
  369. ID                                       : 27
  370. Format                                   : UTF-8
  371. Codec ID                                 : S_TEXT/UTF8
  372. Codec ID/Info                            : UTF-8 Plain Text
  373. Duration                                 : 1 h 57 min
  374. Bit rate                                 : 37 b/s
  375. Frame rate                               : 0.178 FPS
  376. Count of elements                        : 1253
  377. Stream size                              : 32.5 KiB (0%)
  378. Title                                    : Brazil
  379. Language                                 : Portuguese (BR)
  380. Default                                  : No
  381. Forced                                   : No
  382. Text #26
  383. ID                                       : 28
  384. Format                                   : UTF-8
  385. Codec ID                                 : S_TEXT/UTF8
  386. Codec ID/Info                            : UTF-8 Plain Text
  387. Duration                                 : 1 h 57 min
  388. Bit rate                                 : 50 b/s
  389. Frame rate                               : 0.189 FPS
  390. Count of elements                        : 1334
  391. Stream size                              : 43.3 KiB (0%)
  392. Language                                 : Romanian
  393. Default                                  : No
  394. Forced                                   : No
  395. Text #27
  396. ID                                       : 29
  397. Format                                   : UTF-8
  398. Codec ID                                 : S_TEXT/UTF8
  399. Codec ID/Info                            : UTF-8 Plain Text
  400. Duration                                 : 1 h 57 min
  401. Bit rate                                 : 74 b/s
  402. Frame rate                               : 0.190 FPS
  403. Count of elements                        : 1344
  404. Stream size                              : 64.2 KiB (0%)
  405. Language                                 : Russian
  406. Default                                  : No
  407. Forced                                   : No
  408. Text #28
  409. ID                                       : 30
  410. Format                                   : UTF-8
  411. Codec ID                                 : S_TEXT/UTF8
  412. Codec ID/Info                            : UTF-8 Plain Text
  413. Duration                                 : 1 h 57 min
  414. Bit rate                                 : 40 b/s
  415. Frame rate                               : 0.173 FPS
  416. Count of elements                        : 1219
  417. Stream size                              : 35.2 KiB (0%)
  418. Language                                 : Swedish
  419. Default                                  : No
  420. Forced                                   : No
  421. Text #29
  422. ID                                       : 31
  423. Format                                   : UTF-8
  424. Codec ID                                 : S_TEXT/UTF8
  425. Codec ID/Info                            : UTF-8 Plain Text
  426. Duration                                 : 1 h 57 min
  427. Bit rate                                 : 111 b/s
  428. Frame rate                               : 0.191 FPS
  429. Count of elements                        : 1346
  430. Stream size                              : 96.4 KiB (0%)
  431. Language                                 : Thai
  432. Default                                  : No
  433. Forced                                   : No
  434. Text #30
  435. ID                                       : 32
  436. Format                                   : UTF-8
  437. Codec ID                                 : S_TEXT/UTF8
  438. Codec ID/Info                            : UTF-8 Plain Text
  439. Duration                                 : 1 h 57 min
  440. Bit rate                                 : 45 b/s
  441. Frame rate                               : 0.190 FPS
  442. Count of elements                        : 1344
  443. Stream size                              : 39.1 KiB (0%)
  444. Language                                 : Turkish
  445. Default                                  : No
  446. Forced                                   : No
  447. Text #31
  448. ID                                       : 33
  449. Format                                   : UTF-8
  450. Codec ID                                 : S_TEXT/UTF8
  451. Codec ID/Info                            : UTF-8 Plain Text
  452. Duration                                 : 1 h 57 min
  453. Bit rate                                 : 58 b/s
  454. Frame rate                               : 0.188 FPS
  455. Count of elements                        : 1328
  456. Stream size                              : 50.2 KiB (0%)
  457. Language                                 : Vietnamese
  458. Default                                  : No
  459. Forced                                   : No
  460. Text #32
  461. ID                                       : 34
  462. Format                                   : UTF-8
  463. Codec ID                                 : S_TEXT/UTF8
  464. Codec ID/Info                            : UTF-8 Plain Text
  465. Duration                                 : 1 h 57 min
  466. Bit rate                                 : 42 b/s
  467. Frame rate                               : 0.193 FPS
  468. Count of elements                        : 1365
  469. Stream size                              : 36.5 KiB (0%)
  470. Title                                    : Simplified
  471. Language                                 : Chinese (Simplied)
  472. Default                                  : No
  473. Forced                                   : No
  474. Text #33
  475. ID                                       : 35
  476. Format                                   : UTF-8
  477. Codec ID                                 : S_TEXT/UTF8
  478. Codec ID/Info                            : UTF-8 Plain Text
  479. Duration                                 : 1 h 57 min
  480. Bit rate                                 : 44 b/s
  481. Frame rate                               : 0.190 FPS
  482. Count of elements                        : 1341
  483. Stream size                              : 38.6 KiB (0%)
  484. Title                                    : Traditional
  485. Language                                 : Chinese (Traditional)
  486. Default                                  : No
  487. Forced                                   : No
复制代码











回复

使用道具 举报

懒得打字嘛,点击右侧快捷回复 【右侧内容,后台自定义】
您需要登录后才可以回帖 登录 | 立即加入

本版积分规则

Copyright © 2024 Comsenz Inc. Powered by 蓝光电影网

本站内容由用户自主分享和转载自互联网,转载目的在于传递更多信息,并不代表本网赞同其观点和对其真实性负责。

如有侵权、违反国家法律政策行为,请联系我们,我们会第一时间及时清除和处理!

举报反馈邮箱:4k1080.com@gmail.com

快速回复 返回顶部 返回列表