找回密码

查看: 1434|回复: 0

[2160p-WEB] 乔琪·斯通:梦想人生[中文字幕].The.Dreamlife.of.Georgie.Stone.2022.2160p.NF.WEB-DL.DDP5.1.DV.MP4.x265-DVSUX 3.41GB

[复制链接]
蓝光币
1848
发表于 2023-1-2 14:57:35 | 显示全部楼层 |阅读模式


◎标  题 乔琪·斯通:胡想人生
◎片  名 The Dreamlife of Georgie Stone
◎年  代 2022
◎产  地 澳大利亚
◎类  别 记载片
◎语  言 英语
◎上映日期 2022-06-12(悉尼电影节) / 2022-09-22(澳大利亚)
◎IMDb评分 6.8/10 (221人评价)
◎IMDb链接 https://www.imdb.com/title/tt16426596/
◎豆瓣链接 https://movie.douban.com/subject/35899050/
◎片  长 28分钟
◎简  介
  Spanning 19 years, The Dreamlife of Georgie Stone reveals the memories of Georgie Stone, an Australian transgender teen as she helps change laws, affirms her gender, finds her voice, and emerges into adulthood.                                       
                                    The Dreamlife Project, a collaborative storytelling campaign developed and led by an advisory committee of young transgender, gender diverse and non-binary people, will ...
  1. Video
  2. ID                                       : 1
  3. Format                                   : HEVC
  4. Format/Info                              : High Efficiency Video Coding
  5. Format profile                           : Main 10@L5@Main
  6. HDR format                               : Dolby Vision, Version 1.0, dvhe.05.06, BL+RPU
  7. Codec ID                                 : dvhe
  8. Codec ID/Info                            : High Efficiency Video Coding with Dolby Vision
  9. Duration                                 : 29 min 56 s
  10. Bit rate                                 : 15.6 Mb/s
  11. Width                                    : 3 840 pixels
  12. Height                                   : 2 160 pixels
  13. Display aspect ratio                     : 16:9
  14. Frame rate mode                          : Constant
  15. Frame rate                               : 23.976 (24000/1001) FPS
  16. Color space                              : YUV
  17. Chroma subsampling                       : 4:2:0
  18. Bit depth                                : 10 bits
  19. Bits/(Pixel*Frame)                       : 0.079
  20. Stream size                              : 3.27 GiB (96%)
  21. Default                                  : Yes
  22. Alternate group                          : 1
  23. Encoded date                             : UTC 2023-01-01 16:21:43
  24. Tagged date                              : UTC 2023-01-01 16:21:54
  25. Color range                              : Full
  26. Codec configuration box                  : hvcC+dvcC
  27. Audio
  28. ID                                       : 2
  29. Format                                   : E-AC-3
  30. Format/Info                              : Enhanced AC-3
  31. Commercial name                          : Dolby Digital Plus
  32. Codec ID                                 : ec-3
  33. Duration                                 : 29 min 56 s
  34. Bit rate mode                            : Constant
  35. Bit rate                                 : 640 kb/s
  36. Maximum bit rate                         : 676 kb/s
  37. Channel(s)                               : 6 channels
  38. Channel layout                           : L R C LFE Ls Rs
  39. Sampling rate                            : 48.0 kHz
  40. Frame rate                               : 31.250 FPS (1536 SPF)
  41. Compression mode                         : Lossy
  42. Stream size                              : 137 MiB (4%)
  43. Title                                    : English
  44. Language                                 : English
  45. Service kind                             : Complete Main
  46. Default                                  : Yes
  47. Alternate group                          : 1
  48. Tagged date                              : UTC 2023-01-01 16:21:54
  49. Text #1
  50. ID                                       : 3
  51. Format                                   : Timed Text
  52. Codec ID                                 : tx3g
  53. Duration                                 : 29 min 15 s
  54. Bit rate mode                            : Variable
  55. Bit rate                                 : 66 b/s
  56. Frame rate                               : 0.410 FPS
  57. Stream size                              : 14.2 KiB (0%)
  58. Title                                    : English
  59. Language                                 : English
  60. Forced                                   : No
  61. Encoded date                             : UTC 2023-01-01 16:21:53
  62. Tagged date                              : UTC 2023-01-01 16:21:54
  63. Text #2
  64. ID                                       : 4
  65. Format                                   : Timed Text
  66. Codec ID                                 : tx3g
  67. Duration                                 : 29 min 15 s
  68. Bit rate mode                            : Variable
  69. Bit rate                                 : 77 b/s
  70. Frame rate                               : 0.491 FPS
  71. Stream size                              : 16.6 KiB (0%)
  72. Title                                    : English
  73. Language                                 : English
  74. Forced                                   : No
  75. Encoded date                             : UTC 2023-01-01 16:21:53
  76. Tagged date                              : UTC 2023-01-01 16:21:54
  77. Text #3
  78. ID                                       : 5
  79. Format                                   : Timed Text
  80. Codec ID                                 : tx3g
  81. Duration                                 : 20 min 3 s
  82. Bit rate mode                            : Variable
  83. Bit rate                                 : 4 b/s
  84. Frame rate                               : 0.025 FPS
  85. Stream size                              : 565 Bytes (0%)
  86. Title                                    : English
  87. Language                                 : English
  88. Forced                                   : No
  89. Encoded date                             : UTC 2023-01-01 16:21:53
  90. Tagged date                              : UTC 2023-01-01 16:21:54
  91. Text #4
  92. ID                                       : 6
  93. Format                                   : Timed Text
  94. Codec ID                                 : tx3g
  95. Duration                                 : 29 min 17 s
  96. Bit rate mode                            : Variable
  97. Bit rate                                 : 107 b/s
  98. Frame rate                               : 0.423 FPS
  99. Stream size                              : 23.0 KiB (0%)
  100. Title                                    : Arabic
  101. Language                                 : Arabic
  102. Forced                                   : No
  103. Encoded date                             : UTC 2023-01-01 16:21:53
  104. Tagged date                              : UTC 2023-01-01 16:21:54
  105. Text #5
  106. ID                                       : 7
  107. Format                                   : Timed Text
  108. Codec ID                                 : tx3g
  109. Duration                                 : 29 min 17 s
  110. Bit rate mode                            : Variable
  111. Bit rate                                 : 63 b/s
  112. Frame rate                               : 0.420 FPS
  113. Stream size                              : 13.5 KiB (0%)
  114. Title                                    : Chinese-Simplified
  115. Language                                 : Chinese (Simplied)
  116. Forced                                   : No
  117. Encoded date                             : UTC 2023-01-01 16:21:53
  118. Tagged date                              : UTC 2023-01-01 16:21:54
  119. Text #6
  120. ID                                       : 8
  121. Format                                   : Timed Text
  122. Codec ID                                 : tx3g
  123. Duration                                 : 29 min 17 s
  124. Bit rate mode                            : Variable
  125. Bit rate                                 : 65 b/s
  126. Frame rate                               : 0.423 FPS
  127. Stream size                              : 14.0 KiB (0%)
  128. Title                                    : Chinese-Traditional
  129. Language                                 : Chinese (Traditional)
  130. Forced                                   : No
  131. Encoded date                             : UTC 2023-01-01 16:21:53
  132. Tagged date                              : UTC 2023-01-01 16:21:54
  133. Text #7
  134. ID                                       : 9
  135. Format                                   : Timed Text
  136. Codec ID                                 : tx3g
  137. Duration                                 : 29 min 17 s
  138. Bit rate mode                            : Variable
  139. Bit rate                                 : 58 b/s
  140. Frame rate                               : 0.412 FPS
  141. Stream size                              : 12.5 KiB (0%)
  142. Title                                    : Croatian
  143. Language                                 : Croatian
  144. Forced                                   : No
  145. Encoded date                             : UTC 2023-01-01 16:21:53
  146. Tagged date                              : UTC 2023-01-01 16:21:54
  147. Text #8
  148. ID                                       : 10
  149. Format                                   : Timed Text
  150. Codec ID                                 : tx3g
  151. Duration                                 : 29 min 18 s
  152. Bit rate mode                            : Variable
  153. Bit rate                                 : 67 b/s
  154. Frame rate                               : 0.421 FPS
  155. Stream size                              : 14.5 KiB (0%)
  156. Title                                    : Czech
  157. Language                                 : Czech
  158. Forced                                   : No
  159. Encoded date                             : UTC 2023-01-01 16:21:53
  160. Tagged date                              : UTC 2023-01-01 16:21:54
  161. Text #9
  162. ID                                       : 11
  163. Format                                   : Timed Text
  164. Codec ID                                 : tx3g
  165. Duration                                 : 29 min 13 s
  166. Bit rate mode                            : Variable
  167. Bit rate                                 : 61 b/s
  168. Frame rate                               : 0.363 FPS
  169. Stream size                              : 13.1 KiB (0%)
  170. Title                                    : Danish
  171. Language                                 : Danish
  172. Forced                                   : No
  173. Encoded date                             : UTC 2023-01-01 16:21:53
  174. Tagged date                              : UTC 2023-01-01 16:21:54
  175. Text #10
  176. ID                                       : 12
  177. Format                                   : Timed Text
  178. Codec ID                                 : tx3g
  179. Duration                                 : 29 min 17 s
  180. Bit rate mode                            : Variable
  181. Bit rate                                 : 61 b/s
  182. Frame rate                               : 0.349 FPS
  183. Stream size                              : 13.0 KiB (0%)
  184. Title                                    : Dutch
  185. Language                                 : Dutch
  186. Forced                                   : No
  187. Encoded date                             : UTC 2023-01-01 16:21:53
  188. Tagged date                              : UTC 2023-01-01 16:21:54
  189. Text #11
  190. ID                                       : 13
  191. Format                                   : Timed Text
  192. Codec ID                                 : tx3g
  193. Duration                                 : 29 min 17 s
  194. Bit rate mode                            : Variable
  195. Bit rate                                 : 69 b/s
  196. Frame rate                               : 0.412 FPS
  197. Stream size                              : 14.8 KiB (0%)
  198. Title                                    : Filipino
  199. Language                                 : fil
  200. Forced                                   : No
  201. Encoded date                             : UTC 2023-01-01 16:21:53
  202. Tagged date                              : UTC 2023-01-01 16:21:54
  203. Text #12
  204. ID                                       : 14
  205. Format                                   : Timed Text
  206. Codec ID                                 : tx3g
  207. Duration                                 : 29 min 17 s
  208. Bit rate mode                            : Variable
  209. Bit rate                                 : 61 b/s
  210. Frame rate                               : 0.365 FPS
  211. Stream size                              : 13.1 KiB (0%)
  212. Title                                    : Finnish
  213. Language                                 : Finnish
  214. Forced                                   : No
  215. Encoded date                             : UTC 2023-01-01 16:21:53
  216. Tagged date                              : UTC 2023-01-01 16:21:54
  217. Text #13
  218. ID                                       : 15
  219. Format                                   : Timed Text
  220. Codec ID                                 : tx3g
  221. Duration                                 : 29 min 17 s
  222. Bit rate mode                            : Variable
  223. Bit rate                                 : 64 b/s
  224. Frame rate                               : 0.401 FPS
  225. Stream size                              : 13.7 KiB (0%)
  226. Title                                    : French
  227. Language                                 : French
  228. Forced                                   : No
  229. Encoded date                             : UTC 2023-01-01 16:21:53
  230. Tagged date                              : UTC 2023-01-01 16:21:54
  231. Text #14
  232. ID                                       : 16
  233. Format                                   : Timed Text
  234. Codec ID                                 : tx3g
  235. Duration                                 : 29 min 17 s
  236. Bit rate mode                            : Variable
  237. Bit rate                                 : 66 b/s
  238. Frame rate                               : 0.396 FPS
  239. Stream size                              : 14.1 KiB (0%)
  240. Title                                    : German
  241. Language                                 : German
  242. Forced                                   : No
  243. Encoded date                             : UTC 2023-01-01 16:21:53
  244. Tagged date                              : UTC 2023-01-01 16:21:54
  245. Text #15
  246. ID                                       : 17
  247. Format                                   : Timed Text
  248. Codec ID                                 : tx3g
  249. Duration                                 : 29 min 17 s
  250. Bit rate mode                            : Variable
  251. Bit rate                                 : 111 b/s
  252. Frame rate                               : 0.399 FPS
  253. Stream size                              : 23.8 KiB (0%)
  254. Title                                    : Greek
  255. Language                                 : Greek
  256. Forced                                   : No
  257. Encoded date                             : UTC 2023-01-01 16:21:53
  258. Tagged date                              : UTC 2023-01-01 16:21:54
  259. Text #16
  260. ID                                       : 18
  261. Format                                   : Timed Text
  262. Codec ID                                 : tx3g
  263. Duration                                 : 28 min 8 s
  264. Bit rate mode                            : Variable
  265. Bit rate                                 : 106 b/s
  266. Frame rate                               : 0.448 FPS
  267. Stream size                              : 21.9 KiB (0%)
  268. Title                                    : Hebrew
  269. Language                                 : Hebrew
  270. Forced                                   : No
  271. Encoded date                             : UTC 2023-01-01 16:21:53
  272. Tagged date                              : UTC 2023-01-01 16:21:54
  273. Text #17
  274. ID                                       : 19
  275. Format                                   : Timed Text
  276. Codec ID                                 : tx3g
  277. Duration                                 : 29 min 17 s
  278. Bit rate mode                            : Variable
  279. Bit rate                                 : 70 b/s
  280. Frame rate                               : 0.386 FPS
  281. Stream size                              : 15.0 KiB (0%)
  282. Title                                    : Hungarian
  283. Language                                 : Hungarian
  284. Forced                                   : No
  285. Encoded date                             : UTC 2023-01-01 16:21:53
  286. Tagged date                              : UTC 2023-01-01 16:21:54
  287. Text #18
  288. ID                                       : 20
  289. Format                                   : Timed Text
  290. Codec ID                                 : tx3g
  291. Duration                                 : 29 min 17 s
  292. Bit rate mode                            : Variable
  293. Bit rate                                 : 63 b/s
  294. Frame rate                               : 0.399 FPS
  295. Stream size                              : 13.6 KiB (0%)
  296. Title                                    : Indonesian
  297. Language                                 : Indonesian
  298. Forced                                   : No
  299. Encoded date                             : UTC 2023-01-01 16:21:53
  300. Tagged date                              : UTC 2023-01-01 16:21:54
  301. Text #19
  302. ID                                       : 21
  303. Format                                   : Timed Text
  304. Codec ID                                 : tx3g
  305. Duration                                 : 29 min 17 s
  306. Bit rate mode                            : Variable
  307. Bit rate                                 : 65 b/s
  308. Frame rate                               : 0.417 FPS
  309. Stream size                              : 13.9 KiB (0%)
  310. Title                                    : Italian
  311. Language                                 : Italian
  312. Forced                                   : No
  313. Encoded date                             : UTC 2023-01-01 16:21:53
  314. Tagged date                              : UTC 2023-01-01 16:21:54
  315. Text #20
  316. ID                                       : 22
  317. Format                                   : Timed Text
  318. Codec ID                                 : tx3g
  319. Duration                                 : 29 min 17 s
  320. Bit rate mode                            : Variable
  321. Bit rate                                 : 86 b/s
  322. Frame rate                               : 0.451 FPS
  323. Stream size                              : 18.4 KiB (0%)
  324. Title                                    : Japanese
  325. Language                                 : Japanese
  326. Forced                                   : No
  327. Encoded date                             : UTC 2023-01-01 16:21:53
  328. Tagged date                              : UTC 2023-01-01 16:21:54
  329. Text #21
  330. ID                                       : 23
  331. Format                                   : Timed Text
  332. Codec ID                                 : tx3g
  333. Duration                                 : 29 min 17 s
  334. Bit rate mode                            : Variable
  335. Bit rate                                 : 88 b/s
  336. Frame rate                               : 0.430 FPS
  337. Stream size                              : 18.9 KiB (0%)
  338. Title                                    : Korean
  339. Language                                 : Korean
  340. Forced                                   : No
  341. Encoded date                             : UTC 2023-01-01 16:21:53
  342. Tagged date                              : UTC 2023-01-01 16:21:54
  343. Text #22
  344. ID                                       : 24
  345. Format                                   : Timed Text
  346. Codec ID                                 : tx3g
  347. Duration                                 : 29 min 17 s
  348. Bit rate mode                            : Variable
  349. Bit rate                                 : 62 b/s
  350. Frame rate                               : 0.420 FPS
  351. Stream size                              : 13.3 KiB (0%)
  352. Title                                    : Malay
  353. Language                                 : Malay
  354. Forced                                   : No
  355. Encoded date                             : UTC 2023-01-01 16:21:53
  356. Tagged date                              : UTC 2023-01-01 16:21:54
  357. Text #23
  358. ID                                       : 25
  359. Format                                   : Timed Text
  360. Codec ID                                 : tx3g
  361. Duration                                 : 29 min 17 s
  362. Bit rate mode                            : Variable
  363. Bit rate                                 : 58 b/s
  364. Frame rate                               : 0.327 FPS
  365. Stream size                              : 12.4 KiB (0%)
  366. Title                                    : Norwegian
  367. Language                                 : Norwegian Bokmal
  368. Forced                                   : No
  369. Encoded date                             : UTC 2023-01-01 16:21:53
  370. Tagged date                              : UTC 2023-01-01 16:21:54
  371. Text #24
  372. ID                                       : 26
  373. Format                                   : Timed Text
  374. Codec ID                                 : tx3g
  375. Duration                                 : 29 min 17 s
  376. Bit rate mode                            : Variable
  377. Bit rate                                 : 62 b/s
  378. Frame rate                               : 0.395 FPS
  379. Stream size                              : 13.4 KiB (0%)
  380. Title                                    : Polish
  381. Language                                 : Polish
  382. Forced                                   : No
  383. Encoded date                             : UTC 2023-01-01 16:21:54
  384. Tagged date                              : UTC 2023-01-01 16:21:54
  385. Text #25
  386. ID                                       : 27
  387. Format                                   : Timed Text
  388. Codec ID                                 : tx3g
  389. Duration                                 : 29 min 16 s
  390. Bit rate mode                            : Variable
  391. Bit rate                                 : 66 b/s
  392. Frame rate                               : 0.404 FPS
  393. Stream size                              : 14.2 KiB (0%)
  394. Title                                    : Portuguese
  395. Language                                 : Portuguese
  396. Forced                                   : No
  397. Encoded date                             : UTC 2023-01-01 16:21:54
  398. Tagged date                              : UTC 2023-01-01 16:21:54
  399. Text #26
  400. ID                                       : 28
  401. Format                                   : Timed Text
  402. Codec ID                                 : tx3g
  403. Duration                                 : 29 min 15 s
  404. Bit rate mode                            : Variable
  405. Bit rate                                 : 65 b/s
  406. Frame rate                               : 0.423 FPS
  407. Stream size                              : 14.0 KiB (0%)
  408. Title                                    : Portuguese-BR
  409. Language                                 : Portuguese (BR)
  410. Forced                                   : No
  411. Encoded date                             : UTC 2023-01-01 16:21:54
  412. Tagged date                              : UTC 2023-01-01 16:21:54
  413. Text #27
  414. ID                                       : 29
  415. Format                                   : Timed Text
  416. Codec ID                                 : tx3g
  417. Duration                                 : 29 min 17 s
  418. Bit rate mode                            : Variable
  419. Bit rate                                 : 71 b/s
  420. Frame rate                               : 0.419 FPS
  421. Stream size                              : 15.1 KiB (0%)
  422. Title                                    : Romanian
  423. Language                                 : Romanian
  424. Forced                                   : No
  425. Encoded date                             : UTC 2023-01-01 16:21:54
  426. Tagged date                              : UTC 2023-01-01 16:21:54
  427. Text #28
  428. ID                                       : 30
  429. Format                                   : Timed Text
  430. Codec ID                                 : tx3g
  431. Duration                                 : 29 min 14 s
  432. Bit rate mode                            : Variable
  433. Bit rate                                 : 105 b/s
  434. Frame rate                               : 0.422 FPS
  435. Stream size                              : 22.4 KiB (0%)
  436. Title                                    : Russian
  437. Language                                 : Russian
  438. Forced                                   : No
  439. Encoded date                             : UTC 2023-01-01 16:21:54
  440. Tagged date                              : UTC 2023-01-01 16:21:54
  441. Text #29
  442. ID                                       : 31
  443. Format                                   : Timed Text
  444. Codec ID                                 : tx3g
  445. Duration                                 : 29 min 17 s
  446. Bit rate mode                            : Variable
  447. Bit rate                                 : 64 b/s
  448. Frame rate                               : 0.417 FPS
  449. Stream size                              : 13.7 KiB (0%)
  450. Title                                    : Spanish
  451. Language                                 : Spanish (150)
  452. Forced                                   : No
  453. Encoded date                             : UTC 2023-01-01 16:21:54
  454. Tagged date                              : UTC 2023-01-01 16:21:54
  455. Text #30
  456. ID                                       : 32
  457. Format                                   : Timed Text
  458. Codec ID                                 : tx3g
  459. Duration                                 : 29 min 15 s
  460. Bit rate mode                            : Variable
  461. Bit rate                                 : 62 b/s
  462. Frame rate                               : 0.407 FPS
  463. Stream size                              : 13.3 KiB (0%)
  464. Title                                    : Spanish-EU
  465. Language                                 : Spanish
  466. Forced                                   : No
  467. Encoded date                             : UTC 2023-01-01 16:21:54
  468. Tagged date                              : UTC 2023-01-01 16:21:54
  469. Text #31
  470. ID                                       : 33
  471. Format                                   : Timed Text
  472. Codec ID                                 : tx3g
  473. Duration                                 : 29 min 17 s
  474. Bit rate mode                            : Variable
  475. Bit rate                                 : 64 b/s
  476. Frame rate                               : 0.373 FPS
  477. Stream size                              : 13.7 KiB (0%)
  478. Title                                    : Swedish
  479. Language                                 : Swedish
  480. Forced                                   : No
  481. Encoded date                             : UTC 2023-01-01 16:21:54
  482. Tagged date                              : UTC 2023-01-01 16:21:54
  483. Text #32
  484. ID                                       : 34
  485. Format                                   : Timed Text
  486. Codec ID                                 : tx3g
  487. Duration                                 : 28 min 6 s
  488. Bit rate mode                            : Variable
  489. Bit rate                                 : 157 b/s
  490. Frame rate                               : 0.441 FPS
  491. Stream size                              : 32.2 KiB (0%)
  492. Title                                    : Thai
  493. Language                                 : Thai
  494. Forced                                   : No
  495. Encoded date                             : UTC 2023-01-01 16:21:54
  496. Tagged date                              : UTC 2023-01-01 16:21:54
  497. Text #33
  498. ID                                       : 35
  499. Format                                   : Timed Text
  500. Codec ID                                 : tx3g
  501. Duration                                 : 29 min 17 s
  502. Bit rate mode                            : Variable
  503. Bit rate                                 : 66 b/s
  504. Frame rate                               : 0.407 FPS
  505. Stream size                              : 14.2 KiB (0%)
  506. Title                                    : Turkish
  507. Language                                 : Turkish
  508. Forced                                   : No
  509. Encoded date                             : UTC 2023-01-01 16:21:54
  510. Tagged date                              : UTC 2023-01-01 16:21:54
  511. Text #34
  512. ID                                       : 36
  513. Format                                   : Timed Text
  514. Codec ID                                 : tx3g
  515. Duration                                 : 29 min 17 s
  516. Bit rate mode                            : Variable
  517. Bit rate                                 : 108 b/s
  518. Frame rate                               : 0.423 FPS
  519. Stream size                              : 23.2 KiB (0%)
  520. Title                                    : Ukrainian
  521. Language                                 : Ukrainian
  522. Forced                                   : No
  523. Encoded date                             : UTC 2023-01-01 16:21:54
  524. Tagged date                              : UTC 2023-01-01 16:21:54
  525. Text #35
  526. ID                                       : 37
  527. Format                                   : Timed Text
  528. Codec ID                                 : tx3g
  529. Duration                                 : 29 min 17 s
  530. Bit rate mode                            : Variable
  531. Bit rate                                 : 92 b/s
  532. Frame rate                               : 0.418 FPS
  533. Stream size                              : 19.7 KiB (0%)
  534. Title                                    : Vietnamese
  535. Language                                 : Vietnamese
  536. Forced                                   : No
  537. Encoded date                             : UTC 2023-01-01 16:21:54
  538. Tagged date                              : UTC 2023-01-01 16:21:54
复制代码










回复

使用道具 举报

懒得打字嘛,点击右侧快捷回复 【右侧内容,后台自定义】
您需要登录后才可以回帖 登录 | 立即加入

本版积分规则

Copyright © 2024 Comsenz Inc. Powered by 蓝光电影网

本站内容由用户自主分享和转载自互联网,转载目的在于传递更多信息,并不代表本网赞同其观点和对其真实性负责。

如有侵权、违反国家法律政策行为,请联系我们,我们会第一时间及时清除和处理!

举报反馈邮箱:4k1080.com@gmail.com

快速回复 返回顶部 返回列表