找回密码

查看: 1393|回复: 0

[2160p-WEB] 乔琪·斯通:梦想人生[中文字幕].The.Dreamlife.of.Georgie.Stone.2022.2160p.NF.WEB-DL.x265.10bit.HDR.DDP5.1-COPiUM 2.63GB

[复制链接]
蓝光币
1848
发表于 2023-1-2 14:57:35 | 显示全部楼层 |阅读模式


◎标  题 乔琪·斯通:胡想人生
◎片  名 The Dreamlife of Georgie Stone
◎年  代 2022
◎产  地 澳大利亚
◎类  别 记载片
◎语  言 英语
◎上映日期 2022-06-12(悉尼电影节) / 2022-09-22(澳大利亚)
◎IMDb评分 6.8/10 (221人评价)
◎IMDb链接 https://www.imdb.com/title/tt16426596/
◎豆瓣链接 https://movie.douban.com/subject/35899050/
◎片  长 28分钟
◎简  介
  Spanning 19 years, The Dreamlife of Georgie Stone reveals the memories of Georgie Stone, an Australian transgender teen as she helps change laws, affirms her gender, finds her voice, and emerges into adulthood.                                       
                                    The Dreamlife Project, a collaborative storytelling campaign developed and led by an advisory committee of young transgender, gender diverse and non-binary people, will ...
  1. Video
  2. ID                                       : 1
  3. Format                                   : HEVC
  4. Format/Info                              : High Efficiency Video Coding
  5. Format profile                           : Main 10@L5@Main
  6. HDR format                               : Dolby Vision, Version 1.0, dvhe.08.06, BL+RPU, HDR10 compatible / SMPTE ST 2086, HDR10 compatible
  7. Codec ID                                 : V_MPEGH/ISO/HEVC
  8. Duration                                 : 29 min 23 s
  9. Bit rate                                 : 12.1 Mb/s
  10. Width                                    : 3 840 pixels
  11. Height                                   : 2 160 pixels
  12. Display aspect ratio                     : 16:9
  13. Frame rate mode                          : Constant
  14. Frame rate                               : 23.976 (24000/1001) FPS
  15. Color space                              : YUV
  16. Chroma subsampling                       : 4:2:0 (Type 2)
  17. Bit depth                                : 10 bits
  18. Bits/(Pixel*Frame)                       : 0.061
  19. Stream size                              : 2.49 GiB (95%)
  20. Language                                 : English
  21. Default                                  : Yes
  22. Forced                                   : No
  23. Color range                              : Limited
  24. Color primaries                          : BT.2020
  25. Transfer characteristics                 : PQ
  26. Matrix coefficients                      : BT.2020 non-constant
  27. Mastering display color primaries        : Display P3
  28. Mastering display luminance              : min: 0.0001 cd/m2, max: 1000 cd/m2
  29. Maximum Content Light Level              : 1022 cd/m2
  30. Maximum Frame-Average Light Level        : 97 cd/m2
  31. Audio
  32. ID                                       : 2
  33. Format                                   : E-AC-3
  34. Format/Info                              : Enhanced AC-3
  35. Commercial name                          : Dolby Digital Plus
  36. Codec ID                                 : A_EAC3
  37. Duration                                 : 29 min 56 s
  38. Bit rate mode                            : Constant
  39. Bit rate                                 : 640 kb/s
  40. Channel(s)                               : 6 channels
  41. Channel layout                           : L R C LFE Ls Rs
  42. Sampling rate                            : 48.0 kHz
  43. Frame rate                               : 31.250 FPS (1536 SPF)
  44. Compression mode                         : Lossy
  45. Stream size                              : 137 MiB (5%)
  46. Language                                 : English
  47. Service kind                             : Complete Main
  48. Default                                  : Yes
  49. Forced                                   : No
  50. Text #1
  51. ID                                       : 3
  52. Format                                   : UTF-8
  53. Codec ID                                 : S_TEXT/UTF8
  54. Codec ID/Info                            : UTF-8 Plain Text
  55. Duration                                 : 16 min 59 s
  56. Bit rate                                 : 4 b/s
  57. Frame rate                               : 0.015 FPS
  58. Count of elements                        : 15
  59. Stream size                              : 511 Bytes (0%)
  60. Title                                    : Forced
  61. Language                                 : English
  62. Default                                  : Yes
  63. Forced                                   : Yes
  64. Text #2
  65. ID                                       : 4
  66. Format                                   : UTF-8
  67. Codec ID                                 : S_TEXT/UTF8
  68. Codec ID/Info                            : UTF-8 Plain Text
  69. Duration                                 : 29 min 0 s
  70. Bit rate                                 : 60 b/s
  71. Frame rate                               : 0.207 FPS
  72. Count of elements                        : 360
  73. Stream size                              : 12.9 KiB (0%)
  74. Language                                 : English
  75. Default                                  : No
  76. Forced                                   : No
  77. Text #3
  78. ID                                       : 5
  79. Format                                   : UTF-8
  80. Codec ID                                 : S_TEXT/UTF8
  81. Codec ID/Info                            : UTF-8 Plain Text
  82. Duration                                 : 29 min 7 s
  83. Bit rate                                 : 70 b/s
  84. Frame rate                               : 0.247 FPS
  85. Count of elements                        : 431
  86. Stream size                              : 15.1 KiB (0%)
  87. Title                                    : SDH
  88. Language                                 : English
  89. Default                                  : No
  90. Forced                                   : No
  91. Text #4
  92. ID                                       : 6
  93. Format                                   : UTF-8
  94. Codec ID                                 : S_TEXT/UTF8
  95. Codec ID/Info                            : UTF-8 Plain Text
  96. Duration                                 : 29 min 10 s
  97. Bit rate                                 : 101 b/s
  98. Frame rate                               : 0.213 FPS
  99. Count of elements                        : 372
  100. Stream size                              : 21.7 KiB (0%)
  101. Language                                 : Arabic
  102. Default                                  : No
  103. Forced                                   : No
  104. Text #5
  105. ID                                       : 7
  106. Format                                   : UTF-8
  107. Codec ID                                 : S_TEXT/UTF8
  108. Codec ID/Info                            : UTF-8 Plain Text
  109. Duration                                 : 29 min 11 s
  110. Bit rate                                 : 61 b/s
  111. Frame rate                               : 0.211 FPS
  112. Count of elements                        : 370
  113. Stream size                              : 13.1 KiB (0%)
  114. Language                                 : Czech
  115. Default                                  : No
  116. Forced                                   : No
  117. Text #6
  118. ID                                       : 8
  119. Format                                   : UTF-8
  120. Codec ID                                 : S_TEXT/UTF8
  121. Codec ID/Info                            : UTF-8 Plain Text
  122. Duration                                 : 29 min 6 s
  123. Bit rate                                 : 55 b/s
  124. Frame rate                               : 0.182 FPS
  125. Count of elements                        : 318
  126. Stream size                              : 11.9 KiB (0%)
  127. Language                                 : Danish
  128. Default                                  : No
  129. Forced                                   : No
  130. Text #7
  131. ID                                       : 9
  132. Format                                   : UTF-8
  133. Codec ID                                 : S_TEXT/UTF8
  134. Codec ID/Info                            : UTF-8 Plain Text
  135. Duration                                 : 29 min 10 s
  136. Bit rate                                 : 59 b/s
  137. Frame rate                               : 0.199 FPS
  138. Count of elements                        : 348
  139. Stream size                              : 12.8 KiB (0%)
  140. Language                                 : German
  141. Default                                  : No
  142. Forced                                   : No
  143. Text #8
  144. ID                                       : 10
  145. Format                                   : UTF-8
  146. Codec ID                                 : S_TEXT/UTF8
  147. Codec ID/Info                            : UTF-8 Plain Text
  148. Duration                                 : 29 min 10 s
  149. Bit rate                                 : 105 b/s
  150. Frame rate                               : 0.201 FPS
  151. Count of elements                        : 351
  152. Stream size                              : 22.5 KiB (0%)
  153. Language                                 : Greek
  154. Default                                  : No
  155. Forced                                   : No
  156. Text #9
  157. ID                                       : 11
  158. Format                                   : UTF-8
  159. Codec ID                                 : S_TEXT/UTF8
  160. Codec ID/Info                            : UTF-8 Plain Text
  161. Duration                                 : 29 min 10 s
  162. Bit rate                                 : 57 b/s
  163. Frame rate                               : 0.209 FPS
  164. Count of elements                        : 366
  165. Stream size                              : 12.3 KiB (0%)
  166. Title                                    : Latin American
  167. Language                                 : Spanish (Latin America)
  168. Default                                  : No
  169. Forced                                   : No
  170. Text #10
  171. ID                                       : 12
  172. Format                                   : UTF-8
  173. Codec ID                                 : S_TEXT/UTF8
  174. Codec ID/Info                            : UTF-8 Plain Text
  175. Duration                                 : 29 min 8 s
  176. Bit rate                                 : 56 b/s
  177. Frame rate                               : 0.204 FPS
  178. Count of elements                        : 357
  179. Stream size                              : 12.0 KiB (0%)
  180. Language                                 : Spanish (ES)
  181. Default                                  : No
  182. Forced                                   : No
  183. Text #11
  184. ID                                       : 13
  185. Format                                   : UTF-8
  186. Codec ID                                 : S_TEXT/UTF8
  187. Codec ID/Info                            : UTF-8 Plain Text
  188. Duration                                 : 29 min 10 s
  189. Bit rate                                 : 55 b/s
  190. Frame rate                               : 0.183 FPS
  191. Count of elements                        : 321
  192. Stream size                              : 11.9 KiB (0%)
  193. Language                                 : Finnish
  194. Default                                  : No
  195. Forced                                   : No
  196. Text #12
  197. ID                                       : 14
  198. Format                                   : UTF-8
  199. Codec ID                                 : S_TEXT/UTF8
  200. Codec ID/Info                            : UTF-8 Plain Text
  201. Duration                                 : 29 min 10 s
  202. Bit rate                                 : 63 b/s
  203. Frame rate                               : 0.207 FPS
  204. Count of elements                        : 362
  205. Stream size                              : 13.5 KiB (0%)
  206. Language                                 : fil
  207. Default                                  : No
  208. Forced                                   : No
  209. Text #13
  210. ID                                       : 15
  211. Format                                   : UTF-8
  212. Codec ID                                 : S_TEXT/UTF8
  213. Codec ID/Info                            : UTF-8 Plain Text
  214. Duration                                 : 29 min 10 s
  215. Bit rate                                 : 58 b/s
  216. Frame rate                               : 0.201 FPS
  217. Count of elements                        : 352
  218. Stream size                              : 12.4 KiB (0%)
  219. Language                                 : French
  220. Default                                  : No
  221. Forced                                   : No
  222. Text #14
  223. ID                                       : 16
  224. Format                                   : UTF-8
  225. Codec ID                                 : S_TEXT/UTF8
  226. Codec ID/Info                            : UTF-8 Plain Text
  227. Duration                                 : 28 min 1 s
  228. Bit rate                                 : 99 b/s
  229. Frame rate                               : 0.225 FPS
  230. Count of elements                        : 378
  231. Stream size                              : 20.5 KiB (0%)
  232. Language                                 : Hebrew
  233. Default                                  : No
  234. Forced                                   : No
  235. Text #15
  236. ID                                       : 17
  237. Format                                   : UTF-8
  238. Codec ID                                 : S_TEXT/UTF8
  239. Codec ID/Info                            : UTF-8 Plain Text
  240. Duration                                 : 29 min 10 s
  241. Bit rate                                 : 52 b/s
  242. Frame rate                               : 0.207 FPS
  243. Count of elements                        : 362
  244. Stream size                              : 11.1 KiB (0%)
  245. Language                                 : Croatian
  246. Default                                  : No
  247. Forced                                   : No
  248. Text #16
  249. ID                                       : 18
  250. Format                                   : UTF-8
  251. Codec ID                                 : S_TEXT/UTF8
  252. Codec ID/Info                            : UTF-8 Plain Text
  253. Duration                                 : 29 min 10 s
  254. Bit rate                                 : 64 b/s
  255. Frame rate                               : 0.194 FPS
  256. Count of elements                        : 339
  257. Stream size                              : 13.8 KiB (0%)
  258. Language                                 : Hungarian
  259. Default                                  : No
  260. Forced                                   : No
  261. Text #17
  262. ID                                       : 19
  263. Format                                   : UTF-8
  264. Codec ID                                 : S_TEXT/UTF8
  265. Codec ID/Info                            : UTF-8 Plain Text
  266. Duration                                 : 29 min 10 s
  267. Bit rate                                 : 57 b/s
  268. Frame rate                               : 0.201 FPS
  269. Count of elements                        : 351
  270. Stream size                              : 12.3 KiB (0%)
  271. Language                                 : Indonesian
  272. Default                                  : No
  273. Forced                                   : No
  274. Text #18
  275. ID                                       : 20
  276. Format                                   : UTF-8
  277. Codec ID                                 : S_TEXT/UTF8
  278. Codec ID/Info                            : UTF-8 Plain Text
  279. Duration                                 : 29 min 10 s
  280. Bit rate                                 : 58 b/s
  281. Frame rate                               : 0.209 FPS
  282. Count of elements                        : 366
  283. Stream size                              : 12.6 KiB (0%)
  284. Language                                 : Italian
  285. Default                                  : No
  286. Forced                                   : No
  287. Text #19
  288. ID                                       : 21
  289. Format                                   : UTF-8
  290. Codec ID                                 : S_TEXT/UTF8
  291. Codec ID/Info                            : UTF-8 Plain Text
  292. Duration                                 : 29 min 9 s
  293. Bit rate                                 : 79 b/s
  294. Frame rate                               : 0.239 FPS
  295. Count of elements                        : 418
  296. Stream size                              : 17.0 KiB (0%)
  297. Language                                 : Japanese
  298. Default                                  : No
  299. Forced                                   : No
  300. Text #20
  301. ID                                       : 22
  302. Format                                   : UTF-8
  303. Codec ID                                 : S_TEXT/UTF8
  304. Codec ID/Info                            : UTF-8 Plain Text
  305. Duration                                 : 29 min 10 s
  306. Bit rate                                 : 82 b/s
  307. Frame rate                               : 0.216 FPS
  308. Count of elements                        : 378
  309. Stream size                              : 17.6 KiB (0%)
  310. Language                                 : Korean
  311. Default                                  : No
  312. Forced                                   : No
  313. Text #21
  314. ID                                       : 23
  315. Format                                   : UTF-8
  316. Codec ID                                 : S_TEXT/UTF8
  317. Codec ID/Info                            : UTF-8 Plain Text
  318. Duration                                 : 29 min 10 s
  319. Bit rate                                 : 56 b/s
  320. Frame rate                               : 0.211 FPS
  321. Count of elements                        : 369
  322. Stream size                              : 12.0 KiB (0%)
  323. Language                                 : Malay
  324. Default                                  : No
  325. Forced                                   : No
  326. Text #22
  327. ID                                       : 24
  328. Format                                   : UTF-8
  329. Codec ID                                 : S_TEXT/UTF8
  330. Codec ID/Info                            : UTF-8 Plain Text
  331. Duration                                 : 29 min 10 s
  332. Bit rate                                 : 53 b/s
  333. Frame rate                               : 0.164 FPS
  334. Count of elements                        : 287
  335. Stream size                              : 11.4 KiB (0%)
  336. Language                                 : Norwegian Bokmal
  337. Default                                  : No
  338. Forced                                   : No
  339. Text #23
  340. ID                                       : 25
  341. Format                                   : UTF-8
  342. Codec ID                                 : S_TEXT/UTF8
  343. Codec ID/Info                            : UTF-8 Plain Text
  344. Duration                                 : 29 min 10 s
  345. Bit rate                                 : 55 b/s
  346. Frame rate                               : 0.175 FPS
  347. Count of elements                        : 307
  348. Stream size                              : 12.0 KiB (0%)
  349. Language                                 : Dutch
  350. Default                                  : No
  351. Forced                                   : No
  352. Text #24
  353. ID                                       : 26
  354. Format                                   : UTF-8
  355. Codec ID                                 : S_TEXT/UTF8
  356. Codec ID/Info                            : UTF-8 Plain Text
  357. Duration                                 : 29 min 10 s
  358. Bit rate                                 : 56 b/s
  359. Frame rate                               : 0.198 FPS
  360. Count of elements                        : 347
  361. Stream size                              : 12.1 KiB (0%)
  362. Language                                 : Polish
  363. Default                                  : No
  364. Forced                                   : No
  365. Text #25
  366. ID                                       : 27
  367. Format                                   : UTF-8
  368. Codec ID                                 : S_TEXT/UTF8
  369. Codec ID/Info                            : UTF-8 Plain Text
  370. Duration                                 : 29 min 8 s
  371. Bit rate                                 : 59 b/s
  372. Frame rate                               : 0.212 FPS
  373. Count of elements                        : 371
  374. Stream size                              : 12.6 KiB (0%)
  375. Title                                    : Brazilian
  376. Language                                 : Portuguese (BR)
  377. Default                                  : No
  378. Forced                                   : No
  379. Text #26
  380. ID                                       : 28
  381. Format                                   : UTF-8
  382. Codec ID                                 : S_TEXT/UTF8
  383. Codec ID/Info                            : UTF-8 Plain Text
  384. Duration                                 : 29 min 8 s
  385. Bit rate                                 : 60 b/s
  386. Frame rate                               : 0.203 FPS
  387. Count of elements                        : 355
  388. Stream size                              : 12.9 KiB (0%)
  389. Language                                 : Portuguese (PT)
  390. Default                                  : No
  391. Forced                                   : No
  392. Text #27
  393. ID                                       : 29
  394. Format                                   : UTF-8
  395. Codec ID                                 : S_TEXT/UTF8
  396. Codec ID/Info                            : UTF-8 Plain Text
  397. Duration                                 : 29 min 10 s
  398. Bit rate                                 : 64 b/s
  399. Frame rate                               : 0.210 FPS
  400. Count of elements                        : 368
  401. Stream size                              : 13.7 KiB (0%)
  402. Language                                 : Romanian
  403. Default                                  : No
  404. Forced                                   : No
  405. Text #28
  406. ID                                       : 30
  407. Format                                   : UTF-8
  408. Codec ID                                 : S_TEXT/UTF8
  409. Codec ID/Info                            : UTF-8 Plain Text
  410. Duration                                 : 29 min 7 s
  411. Bit rate                                 : 98 b/s
  412. Frame rate                               : 0.212 FPS
  413. Count of elements                        : 370
  414. Stream size                              : 21.1 KiB (0%)
  415. Language                                 : Russian
  416. Default                                  : No
  417. Forced                                   : No
  418. Text #29
  419. ID                                       : 31
  420. Format                                   : UTF-8
  421. Codec ID                                 : S_TEXT/UTF8
  422. Codec ID/Info                            : UTF-8 Plain Text
  423. Duration                                 : 29 min 10 s
  424. Bit rate                                 : 58 b/s
  425. Frame rate                               : 0.187 FPS
  426. Count of elements                        : 328
  427. Stream size                              : 12.5 KiB (0%)
  428. Language                                 : Swedish
  429. Default                                  : No
  430. Forced                                   : No
  431. Text #30
  432. ID                                       : 32
  433. Format                                   : UTF-8
  434. Codec ID                                 : S_TEXT/UTF8
  435. Codec ID/Info                            : UTF-8 Plain Text
  436. Duration                                 : 27 min 59 s
  437. Bit rate                                 : 150 b/s
  438. Frame rate                               : 0.222 FPS
  439. Count of elements                        : 372
  440. Stream size                              : 30.8 KiB (0%)
  441. Language                                 : Thai
  442. Default                                  : No
  443. Forced                                   : No
  444. Text #31
  445. ID                                       : 33
  446. Format                                   : UTF-8
  447. Codec ID                                 : S_TEXT/UTF8
  448. Codec ID/Info                            : UTF-8 Plain Text
  449. Duration                                 : 29 min 10 s
  450. Bit rate                                 : 60 b/s
  451. Frame rate                               : 0.205 FPS
  452. Count of elements                        : 358
  453. Stream size                              : 12.9 KiB (0%)
  454. Language                                 : Turkish
  455. Default                                  : No
  456. Forced                                   : No
  457. Text #32
  458. ID                                       : 34
  459. Format                                   : UTF-8
  460. Codec ID                                 : S_TEXT/UTF8
  461. Codec ID/Info                            : UTF-8 Plain Text
  462. Duration                                 : 29 min 10 s
  463. Bit rate                                 : 102 b/s
  464. Frame rate                               : 0.213 FPS
  465. Count of elements                        : 372
  466. Stream size                              : 21.9 KiB (0%)
  467. Language                                 : Ukrainian
  468. Default                                  : No
  469. Forced                                   : No
  470. Text #33
  471. ID                                       : 35
  472. Format                                   : UTF-8
  473. Codec ID                                 : S_TEXT/UTF8
  474. Codec ID/Info                            : UTF-8 Plain Text
  475. Duration                                 : 29 min 10 s
  476. Bit rate                                 : 85 b/s
  477. Frame rate                               : 0.210 FPS
  478. Count of elements                        : 367
  479. Stream size                              : 18.3 KiB (0%)
  480. Language                                 : Vietnamese
  481. Default                                  : No
  482. Forced                                   : No
  483. Text #34
  484. ID                                       : 36
  485. Format                                   : UTF-8
  486. Codec ID                                 : S_TEXT/UTF8
  487. Codec ID/Info                            : UTF-8 Plain Text
  488. Duration                                 : 29 min 10 s
  489. Bit rate                                 : 56 b/s
  490. Frame rate                               : 0.211 FPS
  491. Count of elements                        : 369
  492. Stream size                              : 12.2 KiB (0%)
  493. Title                                    : Simplified
  494. Language                                 : Chinese (Simplied)
  495. Default                                  : No
  496. Forced                                   : No
  497. Text #35
  498. ID                                       : 37
  499. Format                                   : UTF-8
  500. Codec ID                                 : S_TEXT/UTF8
  501. Codec ID/Info                            : UTF-8 Plain Text
  502. Duration                                 : 29 min 10 s
  503. Bit rate                                 : 59 b/s
  504. Frame rate                               : 0.213 FPS
  505. Count of elements                        : 372
  506. Stream size                              : 12.6 KiB (0%)
  507. Title                                    : Traditional
  508. Language                                 : Chinese (Traditional)
  509. Default                                  : No
  510. Forced                                   : No
  511. Menu
  512. 00:28:09.000                             : en:End Credits
复制代码











回复

使用道具 举报

懒得打字嘛,点击右侧快捷回复 【右侧内容,后台自定义】
您需要登录后才可以回帖 登录 | 立即加入

本版积分规则

Copyright © 2024 Comsenz Inc. Powered by 蓝光电影网

本站内容由用户自主分享和转载自互联网,转载目的在于传递更多信息,并不代表本网赞同其观点和对其真实性负责。

如有侵权、违反国家法律政策行为,请联系我们,我们会第一时间及时清除和处理!

举报反馈邮箱:4k1080.com@gmail.com

快速回复 返回顶部 返回列表