找回密码

查看: 1394|回复: 0

[2160p-WEB] 乔琪·斯通:梦想人生[中文字幕].The.Dreamlife.of.Georgie.Stone.2022.2160p.NF.WEB-DL.x265.10bit.SDR.DDP5.1-COPiUM 2.57GB

[复制链接]
蓝光币
1848
发表于 2023-1-2 14:57:35 | 显示全部楼层 |阅读模式


◎标  题 乔琪·斯通:胡想人生
◎片  名 The Dreamlife of Georgie Stone
◎年  代 2022
◎产  地 澳大利亚
◎类  别 记载片
◎语  言 英语
◎上映日期 2022-06-12(悉尼电影节) / 2022-09-22(澳大利亚)
◎IMDb评分 6.8/10 (221人评价)
◎IMDb链接 https://www.imdb.com/title/tt16426596/
◎豆瓣链接 https://movie.douban.com/subject/35899050/
◎片  长 28分钟
◎简  介
  Spanning 19 years, The Dreamlife of Georgie Stone reveals the memories of Georgie Stone, an Australian transgender teen as she helps change laws, affirms her gender, finds her voice, and emerges into adulthood.                                       
                                    The Dreamlife Project, a collaborative storytelling campaign developed and led by an advisory committee of young transgender, gender diverse and non-binary people, will ...
  1. Video
  2. ID                                       : 1
  3. Format                                   : HEVC
  4. Format/Info                              : High Efficiency Video Coding
  5. Format profile                           : Main 10@L5@Main
  6. Codec ID                                 : V_MPEGH/ISO/HEVC
  7. Duration                                 : 29 min 56 s
  8. Bit rate                                 : 11.6 Mb/s
  9. Width                                    : 3 840 pixels
  10. Height                                   : 2 160 pixels
  11. Display aspect ratio                     : 16:9
  12. Frame rate mode                          : Constant
  13. Frame rate                               : 23.976 (24000/1001) FPS
  14. Color space                              : YUV
  15. Chroma subsampling                       : 4:2:0
  16. Bit depth                                : 10 bits
  17. Bits/(Pixel*Frame)                       : 0.059
  18. Stream size                              : 2.44 GiB (95%)
  19. Language                                 : English
  20. Default                                  : Yes
  21. Forced                                   : No
  22. Color range                              : Limited
  23. Color primaries                          : BT.709
  24. Transfer characteristics                 : BT.709
  25. Matrix coefficients                      : BT.709
  26. Audio
  27. ID                                       : 2
  28. Format                                   : E-AC-3
  29. Format/Info                              : Enhanced AC-3
  30. Commercial name                          : Dolby Digital Plus
  31. Codec ID                                 : A_EAC3
  32. Duration                                 : 29 min 56 s
  33. Bit rate mode                            : Constant
  34. Bit rate                                 : 640 kb/s
  35. Channel(s)                               : 6 channels
  36. Channel layout                           : L R C LFE Ls Rs
  37. Sampling rate                            : 48.0 kHz
  38. Frame rate                               : 31.250 FPS (1536 SPF)
  39. Compression mode                         : Lossy
  40. Stream size                              : 137 MiB (5%)
  41. Language                                 : English
  42. Service kind                             : Complete Main
  43. Default                                  : Yes
  44. Forced                                   : No
  45. Text #1
  46. ID                                       : 3
  47. Format                                   : UTF-8
  48. Codec ID                                 : S_TEXT/UTF8
  49. Codec ID/Info                            : UTF-8 Plain Text
  50. Duration                                 : 16 min 59 s
  51. Bit rate                                 : 4 b/s
  52. Frame rate                               : 0.015 FPS
  53. Count of elements                        : 15
  54. Stream size                              : 511 Bytes (0%)
  55. Title                                    : Forced
  56. Language                                 : English
  57. Default                                  : Yes
  58. Forced                                   : Yes
  59. Text #2
  60. ID                                       : 4
  61. Format                                   : UTF-8
  62. Codec ID                                 : S_TEXT/UTF8
  63. Codec ID/Info                            : UTF-8 Plain Text
  64. Duration                                 : 29 min 0 s
  65. Bit rate                                 : 60 b/s
  66. Frame rate                               : 0.207 FPS
  67. Count of elements                        : 360
  68. Stream size                              : 12.9 KiB (0%)
  69. Language                                 : English
  70. Default                                  : No
  71. Forced                                   : No
  72. Text #3
  73. ID                                       : 5
  74. Format                                   : UTF-8
  75. Codec ID                                 : S_TEXT/UTF8
  76. Codec ID/Info                            : UTF-8 Plain Text
  77. Duration                                 : 29 min 7 s
  78. Bit rate                                 : 70 b/s
  79. Frame rate                               : 0.247 FPS
  80. Count of elements                        : 431
  81. Stream size                              : 15.1 KiB (0%)
  82. Title                                    : SDH
  83. Language                                 : English
  84. Default                                  : No
  85. Forced                                   : No
  86. Text #4
  87. ID                                       : 6
  88. Format                                   : UTF-8
  89. Codec ID                                 : S_TEXT/UTF8
  90. Codec ID/Info                            : UTF-8 Plain Text
  91. Duration                                 : 29 min 10 s
  92. Bit rate                                 : 101 b/s
  93. Frame rate                               : 0.213 FPS
  94. Count of elements                        : 372
  95. Stream size                              : 21.7 KiB (0%)
  96. Language                                 : Arabic
  97. Default                                  : No
  98. Forced                                   : No
  99. Text #5
  100. ID                                       : 7
  101. Format                                   : UTF-8
  102. Codec ID                                 : S_TEXT/UTF8
  103. Codec ID/Info                            : UTF-8 Plain Text
  104. Duration                                 : 29 min 11 s
  105. Bit rate                                 : 61 b/s
  106. Frame rate                               : 0.211 FPS
  107. Count of elements                        : 370
  108. Stream size                              : 13.1 KiB (0%)
  109. Language                                 : Czech
  110. Default                                  : No
  111. Forced                                   : No
  112. Text #6
  113. ID                                       : 8
  114. Format                                   : UTF-8
  115. Codec ID                                 : S_TEXT/UTF8
  116. Codec ID/Info                            : UTF-8 Plain Text
  117. Duration                                 : 29 min 6 s
  118. Bit rate                                 : 55 b/s
  119. Frame rate                               : 0.182 FPS
  120. Count of elements                        : 318
  121. Stream size                              : 11.9 KiB (0%)
  122. Language                                 : Danish
  123. Default                                  : No
  124. Forced                                   : No
  125. Text #7
  126. ID                                       : 9
  127. Format                                   : UTF-8
  128. Codec ID                                 : S_TEXT/UTF8
  129. Codec ID/Info                            : UTF-8 Plain Text
  130. Duration                                 : 29 min 10 s
  131. Bit rate                                 : 59 b/s
  132. Frame rate                               : 0.199 FPS
  133. Count of elements                        : 348
  134. Stream size                              : 12.8 KiB (0%)
  135. Language                                 : German
  136. Default                                  : No
  137. Forced                                   : No
  138. Text #8
  139. ID                                       : 10
  140. Format                                   : UTF-8
  141. Codec ID                                 : S_TEXT/UTF8
  142. Codec ID/Info                            : UTF-8 Plain Text
  143. Duration                                 : 29 min 10 s
  144. Bit rate                                 : 105 b/s
  145. Frame rate                               : 0.201 FPS
  146. Count of elements                        : 351
  147. Stream size                              : 22.5 KiB (0%)
  148. Language                                 : Greek
  149. Default                                  : No
  150. Forced                                   : No
  151. Text #9
  152. ID                                       : 11
  153. Format                                   : UTF-8
  154. Codec ID                                 : S_TEXT/UTF8
  155. Codec ID/Info                            : UTF-8 Plain Text
  156. Duration                                 : 29 min 10 s
  157. Bit rate                                 : 57 b/s
  158. Frame rate                               : 0.209 FPS
  159. Count of elements                        : 366
  160. Stream size                              : 12.3 KiB (0%)
  161. Title                                    : Latin American
  162. Language                                 : Spanish (Latin America)
  163. Default                                  : No
  164. Forced                                   : No
  165. Text #10
  166. ID                                       : 12
  167. Format                                   : UTF-8
  168. Codec ID                                 : S_TEXT/UTF8
  169. Codec ID/Info                            : UTF-8 Plain Text
  170. Duration                                 : 29 min 8 s
  171. Bit rate                                 : 56 b/s
  172. Frame rate                               : 0.204 FPS
  173. Count of elements                        : 357
  174. Stream size                              : 12.0 KiB (0%)
  175. Language                                 : Spanish (ES)
  176. Default                                  : No
  177. Forced                                   : No
  178. Text #11
  179. ID                                       : 13
  180. Format                                   : UTF-8
  181. Codec ID                                 : S_TEXT/UTF8
  182. Codec ID/Info                            : UTF-8 Plain Text
  183. Duration                                 : 29 min 10 s
  184. Bit rate                                 : 55 b/s
  185. Frame rate                               : 0.183 FPS
  186. Count of elements                        : 321
  187. Stream size                              : 11.9 KiB (0%)
  188. Language                                 : Finnish
  189. Default                                  : No
  190. Forced                                   : No
  191. Text #12
  192. ID                                       : 14
  193. Format                                   : UTF-8
  194. Codec ID                                 : S_TEXT/UTF8
  195. Codec ID/Info                            : UTF-8 Plain Text
  196. Duration                                 : 29 min 10 s
  197. Bit rate                                 : 63 b/s
  198. Frame rate                               : 0.207 FPS
  199. Count of elements                        : 362
  200. Stream size                              : 13.5 KiB (0%)
  201. Language                                 : fil
  202. Default                                  : No
  203. Forced                                   : No
  204. Text #13
  205. ID                                       : 15
  206. Format                                   : UTF-8
  207. Codec ID                                 : S_TEXT/UTF8
  208. Codec ID/Info                            : UTF-8 Plain Text
  209. Duration                                 : 29 min 10 s
  210. Bit rate                                 : 58 b/s
  211. Frame rate                               : 0.201 FPS
  212. Count of elements                        : 352
  213. Stream size                              : 12.4 KiB (0%)
  214. Language                                 : French
  215. Default                                  : No
  216. Forced                                   : No
  217. Text #14
  218. ID                                       : 16
  219. Format                                   : UTF-8
  220. Codec ID                                 : S_TEXT/UTF8
  221. Codec ID/Info                            : UTF-8 Plain Text
  222. Duration                                 : 28 min 1 s
  223. Bit rate                                 : 99 b/s
  224. Frame rate                               : 0.225 FPS
  225. Count of elements                        : 378
  226. Stream size                              : 20.5 KiB (0%)
  227. Language                                 : Hebrew
  228. Default                                  : No
  229. Forced                                   : No
  230. Text #15
  231. ID                                       : 17
  232. Format                                   : UTF-8
  233. Codec ID                                 : S_TEXT/UTF8
  234. Codec ID/Info                            : UTF-8 Plain Text
  235. Duration                                 : 29 min 10 s
  236. Bit rate                                 : 52 b/s
  237. Frame rate                               : 0.207 FPS
  238. Count of elements                        : 362
  239. Stream size                              : 11.1 KiB (0%)
  240. Language                                 : Croatian
  241. Default                                  : No
  242. Forced                                   : No
  243. Text #16
  244. ID                                       : 18
  245. Format                                   : UTF-8
  246. Codec ID                                 : S_TEXT/UTF8
  247. Codec ID/Info                            : UTF-8 Plain Text
  248. Duration                                 : 29 min 10 s
  249. Bit rate                                 : 64 b/s
  250. Frame rate                               : 0.194 FPS
  251. Count of elements                        : 339
  252. Stream size                              : 13.8 KiB (0%)
  253. Language                                 : Hungarian
  254. Default                                  : No
  255. Forced                                   : No
  256. Text #17
  257. ID                                       : 19
  258. Format                                   : UTF-8
  259. Codec ID                                 : S_TEXT/UTF8
  260. Codec ID/Info                            : UTF-8 Plain Text
  261. Duration                                 : 29 min 10 s
  262. Bit rate                                 : 57 b/s
  263. Frame rate                               : 0.201 FPS
  264. Count of elements                        : 351
  265. Stream size                              : 12.3 KiB (0%)
  266. Language                                 : Indonesian
  267. Default                                  : No
  268. Forced                                   : No
  269. Text #18
  270. ID                                       : 20
  271. Format                                   : UTF-8
  272. Codec ID                                 : S_TEXT/UTF8
  273. Codec ID/Info                            : UTF-8 Plain Text
  274. Duration                                 : 29 min 10 s
  275. Bit rate                                 : 58 b/s
  276. Frame rate                               : 0.209 FPS
  277. Count of elements                        : 366
  278. Stream size                              : 12.6 KiB (0%)
  279. Language                                 : Italian
  280. Default                                  : No
  281. Forced                                   : No
  282. Text #19
  283. ID                                       : 21
  284. Format                                   : UTF-8
  285. Codec ID                                 : S_TEXT/UTF8
  286. Codec ID/Info                            : UTF-8 Plain Text
  287. Duration                                 : 29 min 9 s
  288. Bit rate                                 : 79 b/s
  289. Frame rate                               : 0.239 FPS
  290. Count of elements                        : 418
  291. Stream size                              : 17.0 KiB (0%)
  292. Language                                 : Japanese
  293. Default                                  : No
  294. Forced                                   : No
  295. Text #20
  296. ID                                       : 22
  297. Format                                   : UTF-8
  298. Codec ID                                 : S_TEXT/UTF8
  299. Codec ID/Info                            : UTF-8 Plain Text
  300. Duration                                 : 29 min 10 s
  301. Bit rate                                 : 82 b/s
  302. Frame rate                               : 0.216 FPS
  303. Count of elements                        : 378
  304. Stream size                              : 17.6 KiB (0%)
  305. Language                                 : Korean
  306. Default                                  : No
  307. Forced                                   : No
  308. Text #21
  309. ID                                       : 23
  310. Format                                   : UTF-8
  311. Codec ID                                 : S_TEXT/UTF8
  312. Codec ID/Info                            : UTF-8 Plain Text
  313. Duration                                 : 29 min 10 s
  314. Bit rate                                 : 56 b/s
  315. Frame rate                               : 0.211 FPS
  316. Count of elements                        : 369
  317. Stream size                              : 12.0 KiB (0%)
  318. Language                                 : Malay
  319. Default                                  : No
  320. Forced                                   : No
  321. Text #22
  322. ID                                       : 24
  323. Format                                   : UTF-8
  324. Codec ID                                 : S_TEXT/UTF8
  325. Codec ID/Info                            : UTF-8 Plain Text
  326. Duration                                 : 29 min 10 s
  327. Bit rate                                 : 53 b/s
  328. Frame rate                               : 0.164 FPS
  329. Count of elements                        : 287
  330. Stream size                              : 11.4 KiB (0%)
  331. Language                                 : Norwegian Bokmal
  332. Default                                  : No
  333. Forced                                   : No
  334. Text #23
  335. ID                                       : 25
  336. Format                                   : UTF-8
  337. Codec ID                                 : S_TEXT/UTF8
  338. Codec ID/Info                            : UTF-8 Plain Text
  339. Duration                                 : 29 min 10 s
  340. Bit rate                                 : 55 b/s
  341. Frame rate                               : 0.175 FPS
  342. Count of elements                        : 307
  343. Stream size                              : 12.0 KiB (0%)
  344. Language                                 : Dutch
  345. Default                                  : No
  346. Forced                                   : No
  347. Text #24
  348. ID                                       : 26
  349. Format                                   : UTF-8
  350. Codec ID                                 : S_TEXT/UTF8
  351. Codec ID/Info                            : UTF-8 Plain Text
  352. Duration                                 : 29 min 10 s
  353. Bit rate                                 : 56 b/s
  354. Frame rate                               : 0.198 FPS
  355. Count of elements                        : 347
  356. Stream size                              : 12.1 KiB (0%)
  357. Language                                 : Polish
  358. Default                                  : No
  359. Forced                                   : No
  360. Text #25
  361. ID                                       : 27
  362. Format                                   : UTF-8
  363. Codec ID                                 : S_TEXT/UTF8
  364. Codec ID/Info                            : UTF-8 Plain Text
  365. Duration                                 : 29 min 8 s
  366. Bit rate                                 : 59 b/s
  367. Frame rate                               : 0.212 FPS
  368. Count of elements                        : 371
  369. Stream size                              : 12.6 KiB (0%)
  370. Title                                    : Brazilian
  371. Language                                 : Portuguese (BR)
  372. Default                                  : No
  373. Forced                                   : No
  374. Text #26
  375. ID                                       : 28
  376. Format                                   : UTF-8
  377. Codec ID                                 : S_TEXT/UTF8
  378. Codec ID/Info                            : UTF-8 Plain Text
  379. Duration                                 : 29 min 8 s
  380. Bit rate                                 : 60 b/s
  381. Frame rate                               : 0.203 FPS
  382. Count of elements                        : 355
  383. Stream size                              : 12.9 KiB (0%)
  384. Language                                 : Portuguese (PT)
  385. Default                                  : No
  386. Forced                                   : No
  387. Text #27
  388. ID                                       : 29
  389. Format                                   : UTF-8
  390. Codec ID                                 : S_TEXT/UTF8
  391. Codec ID/Info                            : UTF-8 Plain Text
  392. Duration                                 : 29 min 10 s
  393. Bit rate                                 : 64 b/s
  394. Frame rate                               : 0.210 FPS
  395. Count of elements                        : 368
  396. Stream size                              : 13.7 KiB (0%)
  397. Language                                 : Romanian
  398. Default                                  : No
  399. Forced                                   : No
  400. Text #28
  401. ID                                       : 30
  402. Format                                   : UTF-8
  403. Codec ID                                 : S_TEXT/UTF8
  404. Codec ID/Info                            : UTF-8 Plain Text
  405. Duration                                 : 29 min 7 s
  406. Bit rate                                 : 98 b/s
  407. Frame rate                               : 0.212 FPS
  408. Count of elements                        : 370
  409. Stream size                              : 21.1 KiB (0%)
  410. Language                                 : Russian
  411. Default                                  : No
  412. Forced                                   : No
  413. Text #29
  414. ID                                       : 31
  415. Format                                   : UTF-8
  416. Codec ID                                 : S_TEXT/UTF8
  417. Codec ID/Info                            : UTF-8 Plain Text
  418. Duration                                 : 29 min 10 s
  419. Bit rate                                 : 58 b/s
  420. Frame rate                               : 0.187 FPS
  421. Count of elements                        : 328
  422. Stream size                              : 12.5 KiB (0%)
  423. Language                                 : Swedish
  424. Default                                  : No
  425. Forced                                   : No
  426. Text #30
  427. ID                                       : 32
  428. Format                                   : UTF-8
  429. Codec ID                                 : S_TEXT/UTF8
  430. Codec ID/Info                            : UTF-8 Plain Text
  431. Duration                                 : 27 min 59 s
  432. Bit rate                                 : 150 b/s
  433. Frame rate                               : 0.222 FPS
  434. Count of elements                        : 372
  435. Stream size                              : 30.8 KiB (0%)
  436. Language                                 : Thai
  437. Default                                  : No
  438. Forced                                   : No
  439. Text #31
  440. ID                                       : 33
  441. Format                                   : UTF-8
  442. Codec ID                                 : S_TEXT/UTF8
  443. Codec ID/Info                            : UTF-8 Plain Text
  444. Duration                                 : 29 min 10 s
  445. Bit rate                                 : 60 b/s
  446. Frame rate                               : 0.205 FPS
  447. Count of elements                        : 358
  448. Stream size                              : 12.9 KiB (0%)
  449. Language                                 : Turkish
  450. Default                                  : No
  451. Forced                                   : No
  452. Text #32
  453. ID                                       : 34
  454. Format                                   : UTF-8
  455. Codec ID                                 : S_TEXT/UTF8
  456. Codec ID/Info                            : UTF-8 Plain Text
  457. Duration                                 : 29 min 10 s
  458. Bit rate                                 : 102 b/s
  459. Frame rate                               : 0.213 FPS
  460. Count of elements                        : 372
  461. Stream size                              : 21.9 KiB (0%)
  462. Language                                 : Ukrainian
  463. Default                                  : No
  464. Forced                                   : No
  465. Text #33
  466. ID                                       : 35
  467. Format                                   : UTF-8
  468. Codec ID                                 : S_TEXT/UTF8
  469. Codec ID/Info                            : UTF-8 Plain Text
  470. Duration                                 : 29 min 10 s
  471. Bit rate                                 : 85 b/s
  472. Frame rate                               : 0.210 FPS
  473. Count of elements                        : 367
  474. Stream size                              : 18.3 KiB (0%)
  475. Language                                 : Vietnamese
  476. Default                                  : No
  477. Forced                                   : No
  478. Text #34
  479. ID                                       : 36
  480. Format                                   : UTF-8
  481. Codec ID                                 : S_TEXT/UTF8
  482. Codec ID/Info                            : UTF-8 Plain Text
  483. Duration                                 : 29 min 10 s
  484. Bit rate                                 : 56 b/s
  485. Frame rate                               : 0.211 FPS
  486. Count of elements                        : 369
  487. Stream size                              : 12.2 KiB (0%)
  488. Title                                    : Simplified
  489. Language                                 : Chinese (Simplied)
  490. Default                                  : No
  491. Forced                                   : No
  492. Text #35
  493. ID                                       : 37
  494. Format                                   : UTF-8
  495. Codec ID                                 : S_TEXT/UTF8
  496. Codec ID/Info                            : UTF-8 Plain Text
  497. Duration                                 : 29 min 10 s
  498. Bit rate                                 : 59 b/s
  499. Frame rate                               : 0.213 FPS
  500. Count of elements                        : 372
  501. Stream size                              : 12.6 KiB (0%)
  502. Title                                    : Traditional
  503. Language                                 : Chinese (Traditional)
  504. Default                                  : No
  505. Forced                                   : No
  506. Menu
  507. 00:28:09.000                             : en:End Credits
复制代码











回复

使用道具 举报

懒得打字嘛,点击右侧快捷回复 【右侧内容,后台自定义】
您需要登录后才可以回帖 登录 | 立即加入

本版积分规则

Copyright © 2024 Comsenz Inc. Powered by 蓝光电影网

本站内容由用户自主分享和转载自互联网,转载目的在于传递更多信息,并不代表本网赞同其观点和对其真实性负责。

如有侵权、违反国家法律政策行为,请联系我们,我们会第一时间及时清除和处理!

举报反馈邮箱:4k1080.com@gmail.com

快速回复 返回顶部 返回列表