找回密码

查看: 1605|回复: 0

[2160p-WEB] 午夜天空[中文字幕].The.Midnight.Sky.2020.2160p.NF.WEB-DL.DDP5.1.Atmos.DV.MKV.x265-OPiUM 15.98GB

[复制链接]
蓝光币
1856
发表于 2023-1-2 14:57:36 | 显示全部楼层 |阅读模式


◎标  题 半夜天空
◎译  名 永夜飘流 / 早安,半夜 / Good Morning /  Midnight
◎片  名 The Midnight Sky
◎年  代 2020
◎产  地 美国
◎类  别 剧情 / 科幻 / 惊悚 / 奇异
◎语  言 英语
◎上映日期 2020-12-23(美国收集)
◎IMDb评分 5.6/10 (84147人评价)
◎IMDb链接 https://www.imdb.com/title/tt10539608/
◎豆瓣评分 6.0/10 (4324人评价)
◎豆瓣链接 https://movie.douban.com/subject/34442667/
◎片  长 122分钟
◎导  演 乔治·克鲁尼 George Clooney
◎编  剧 马克·L·史姑娘 Mark L. Smith
◎演  员 乔治·克鲁尼 George Clooney
       菲丽希缇·琼斯 Felicity Jones
       大卫·奥伊罗 David Oyelowo
       凯尔·钱德勒 Kyle Chandler
       德米安·比齐尔 Demián Bichir
       蒂凡尼·布恩 Tiffany Boone
       苏菲·兰朵 Sophie Rundle
       伊森·派克 Ethan Peck
       蒂姆·罗斯 Tim Russ
       米利亚姆·肖尔 Miriam Shor
       利利娅·诺特·拉林斯多蒂尔 Lilja Nótt Þórarinsdóttir
       汉娜·玛丽亚·卡尔斯多蒂尔 Hanna María Karlsdóttir
       阿特利·奧斯卡·法奈森 Atli Oskar Fjalarsson
       伊登·黑赫斯特 Edan Hayhurst
       莎拉·盖林 Sarah Guerin
       尼克·欧文福特 Nick Owenford
       凯奥林·斯普林加尔 Caoilinn Springall
       珍妮·伊根 Jenny Eagan
◎简  介
  奥秘的全球性灾难爆发,一位单独驻扎北极的科学家极力与一群返回地球的宇航员获得联系,他们正要回到惨遭奥秘灾难重创的地球。
  1. Video
  2. ID                                       : 1
  3. Format                                   : HEVC
  4. Format/Info                              : High Efficiency Video Coding
  5. Format profile                           : Main 10@L5@Main
  6. HDR format                               : Dolby Vision, Version 1.0, dvhe.05.06, BL+RPU
  7. Codec ID                                 : V_MPEGH/ISO/HEVC
  8. Duration                                 : 1 h 58 min
  9. Bit rate                                 : 18.5 Mb/s
  10. Width                                    : 3 840 pixels
  11. Height                                   : 2 160 pixels
  12. Display aspect ratio                     : 16:9
  13. Frame rate mode                          : Constant
  14. Frame rate                               : 24.000 FPS
  15. Color space                              : YUV
  16. Chroma subsampling                       : 4:2:0
  17. Bit depth                                : 10 bits
  18. Bits/(Pixel*Frame)                       : 0.093
  19. Stream size                              : 15.3 GiB (96%)
  20. Language                                 : English
  21. Default                                  : Yes
  22. Forced                                   : No
  23. Color range                              : Full
  24. Audio
  25. ID                                       : 2
  26. Format                                   : E-AC-3 JOC
  27. Format/Info                              : Enhanced AC-3 with Joint Object Coding
  28. Commercial name                          : Dolby Digital Plus with Dolby Atmos
  29. Codec ID                                 : A_EAC3
  30. Duration                                 : 1 h 58 min
  31. Bit rate mode                            : Constant
  32. Bit rate                                 : 768 kb/s
  33. Channel(s)                               : 6 channels
  34. Channel layout                           : L R C LFE Ls Rs
  35. Sampling rate                            : 48.0 kHz
  36. Frame rate                               : 31.250 FPS (1536 SPF)
  37. Compression mode                         : Lossy
  38. Stream size                              : 652 MiB (4%)
  39. Language                                 : English
  40. Service kind                             : Complete Main
  41. Default                                  : Yes
  42. Forced                                   : No
  43. Complexity index                         : 16
  44. Number of dynamic objects                : 15
  45. Bed channel count                        : 1 channel
  46. Bed channel configuration                : LFE
  47. Text #1
  48. ID                                       : 3
  49. Format                                   : UTF-8
  50. Codec ID                                 : S_TEXT/UTF8
  51. Codec ID/Info                            : UTF-8 Plain Text
  52. Duration                                 : 1 h 47 min
  53. Bit rate                                 : 31 b/s
  54. Frame rate                               : 0.126 FPS
  55. Count of elements                        : 807
  56. Stream size                              : 25.1 KiB (0%)
  57. Language                                 : English
  58. Default                                  : No
  59. Forced                                   : No
  60. Text #2
  61. ID                                       : 4
  62. Format                                   : UTF-8
  63. Codec ID                                 : S_TEXT/UTF8
  64. Codec ID/Info                            : UTF-8 Plain Text
  65. Duration                                 : 1 h 56 min
  66. Bit rate                                 : 36 b/s
  67. Frame rate                               : 0.146 FPS
  68. Count of elements                        : 1016
  69. Stream size                              : 31.4 KiB (0%)
  70. Title                                    : SDH
  71. Language                                 : English
  72. Default                                  : No
  73. Forced                                   : No
  74. Text #3
  75. ID                                       : 5
  76. Format                                   : UTF-8
  77. Codec ID                                 : S_TEXT/UTF8
  78. Codec ID/Info                            : UTF-8 Plain Text
  79. Duration                                 : 1 h 56 min
  80. Bit rate                                 : 48 b/s
  81. Frame rate                               : 0.115 FPS
  82. Count of elements                        : 804
  83. Stream size                              : 41.6 KiB (0%)
  84. Language                                 : Arabic
  85. Default                                  : No
  86. Forced                                   : No
  87. Text #4
  88. ID                                       : 6
  89. Format                                   : UTF-8
  90. Codec ID                                 : S_TEXT/UTF8
  91. Codec ID/Info                            : UTF-8 Plain Text
  92. Duration                                 : 1 h 56 min
  93. Bit rate                                 : 26 b/s
  94. Frame rate                               : 0.114 FPS
  95. Count of elements                        : 798
  96. Stream size                              : 22.6 KiB (0%)
  97. Language                                 : Czech
  98. Default                                  : No
  99. Forced                                   : No
  100. Text #5
  101. ID                                       : 7
  102. Format                                   : UTF-8
  103. Codec ID                                 : S_TEXT/UTF8
  104. Codec ID/Info                            : UTF-8 Plain Text
  105. Duration                                 : 1 h 56 min
  106. Bit rate                                 : 27 b/s
  107. Frame rate                               : 0.110 FPS
  108. Count of elements                        : 770
  109. Stream size                              : 23.4 KiB (0%)
  110. Language                                 : Danish
  111. Default                                  : No
  112. Forced                                   : No
  113. Text #6
  114. ID                                       : 8
  115. Format                                   : UTF-8
  116. Codec ID                                 : S_TEXT/UTF8
  117. Codec ID/Info                            : UTF-8 Plain Text
  118. Duration                                 : 1 h 56 min
  119. Bit rate                                 : 27 b/s
  120. Frame rate                               : 0.114 FPS
  121. Count of elements                        : 797
  122. Stream size                              : 23.1 KiB (0%)
  123. Language                                 : German
  124. Default                                  : No
  125. Forced                                   : No
  126. Text #7
  127. ID                                       : 9
  128. Format                                   : UTF-8
  129. Codec ID                                 : S_TEXT/UTF8
  130. Codec ID/Info                            : UTF-8 Plain Text
  131. Duration                                 : 1 h 48 min
  132. Bit rate                                 : 36 b/s
  133. Frame rate                               : 0.128 FPS
  134. Count of elements                        : 832
  135. Stream size                              : 29.2 KiB (0%)
  136. Language                                 : German
  137. Default                                  : No
  138. Forced                                   : No
  139. Text #8
  140. ID                                       : 10
  141. Format                                   : UTF-8
  142. Codec ID                                 : S_TEXT/UTF8
  143. Codec ID/Info                            : UTF-8 Plain Text
  144. Duration                                 : 1 h 56 min
  145. Bit rate                                 : 49 b/s
  146. Frame rate                               : 0.118 FPS
  147. Count of elements                        : 823
  148. Stream size                              : 41.9 KiB (0%)
  149. Language                                 : Greek
  150. Default                                  : No
  151. Forced                                   : No
  152. Text #9
  153. ID                                       : 11
  154. Format                                   : UTF-8
  155. Codec ID                                 : S_TEXT/UTF8
  156. Codec ID/Info                            : UTF-8 Plain Text
  157. Duration                                 : 1 h 48 min
  158. Bit rate                                 : 31 b/s
  159. Frame rate                               : 0.128 FPS
  160. Count of elements                        : 834
  161. Stream size                              : 25.3 KiB (0%)
  162. Title                                    : Latin American
  163. Language                                 : Spanish (Latin America)
  164. Default                                  : No
  165. Forced                                   : No
  166. Text #10
  167. ID                                       : 12
  168. Format                                   : UTF-8
  169. Codec ID                                 : S_TEXT/UTF8
  170. Codec ID/Info                            : UTF-8 Plain Text
  171. Duration                                 : 1 h 56 min
  172. Bit rate                                 : 27 b/s
  173. Frame rate                               : 0.113 FPS
  174. Count of elements                        : 789
  175. Stream size                              : 23.7 KiB (0%)
  176. Title                                    : Latin American
  177. Language                                 : Spanish (Latin America)
  178. Default                                  : No
  179. Forced                                   : No
  180. Text #11
  181. ID                                       : 13
  182. Format                                   : UTF-8
  183. Codec ID                                 : S_TEXT/UTF8
  184. Codec ID/Info                            : UTF-8 Plain Text
  185. Duration                                 : 1 h 56 min
  186. Bit rate                                 : 26 b/s
  187. Frame rate                               : 0.114 FPS
  188. Count of elements                        : 799
  189. Stream size                              : 22.9 KiB (0%)
  190. Language                                 : Spanish (ES)
  191. Default                                  : No
  192. Forced                                   : No
  193. Text #12
  194. ID                                       : 14
  195. Format                                   : UTF-8
  196. Codec ID                                 : S_TEXT/UTF8
  197. Codec ID/Info                            : UTF-8 Plain Text
  198. Duration                                 : 1 h 56 min
  199. Bit rate                                 : 27 b/s
  200. Frame rate                               : 0.114 FPS
  201. Count of elements                        : 793
  202. Stream size                              : 23.1 KiB (0%)
  203. Language                                 : Finnish
  204. Default                                  : No
  205. Forced                                   : No
  206. Text #13
  207. ID                                       : 15
  208. Format                                   : UTF-8
  209. Codec ID                                 : S_TEXT/UTF8
  210. Codec ID/Info                            : UTF-8 Plain Text
  211. Duration                                 : 1 h 48 min
  212. Bit rate                                 : 32 b/s
  213. Frame rate                               : 0.123 FPS
  214. Count of elements                        : 802
  215. Stream size                              : 25.5 KiB (0%)
  216. Language                                 : fil
  217. Default                                  : No
  218. Forced                                   : No
  219. Text #14
  220. ID                                       : 16
  221. Format                                   : UTF-8
  222. Codec ID                                 : S_TEXT/UTF8
  223. Codec ID/Info                            : UTF-8 Plain Text
  224. Duration                                 : 1 h 56 min
  225. Bit rate                                 : 28 b/s
  226. Frame rate                               : 0.108 FPS
  227. Count of elements                        : 755
  228. Stream size                              : 24.0 KiB (0%)
  229. Language                                 : French
  230. Default                                  : No
  231. Forced                                   : No
  232. Text #15
  233. ID                                       : 17
  234. Format                                   : UTF-8
  235. Codec ID                                 : S_TEXT/UTF8
  236. Codec ID/Info                            : UTF-8 Plain Text
  237. Duration                                 : 1 h 48 min
  238. Bit rate                                 : 37 b/s
  239. Frame rate                               : 0.128 FPS
  240. Count of elements                        : 832
  241. Stream size                              : 30.1 KiB (0%)
  242. Language                                 : French
  243. Default                                  : No
  244. Forced                                   : No
  245. Text #16
  246. ID                                       : 18
  247. Format                                   : UTF-8
  248. Codec ID                                 : S_TEXT/UTF8
  249. Codec ID/Info                            : UTF-8 Plain Text
  250. Duration                                 : 1 h 56 min
  251. Bit rate                                 : 43 b/s
  252. Frame rate                               : 0.115 FPS
  253. Count of elements                        : 801
  254. Stream size                              : 37.3 KiB (0%)
  255. Language                                 : Hebrew
  256. Default                                  : No
  257. Forced                                   : No
  258. Text #17
  259. ID                                       : 19
  260. Format                                   : UTF-8
  261. Codec ID                                 : S_TEXT/UTF8
  262. Codec ID/Info                            : UTF-8 Plain Text
  263. Duration                                 : 1 h 56 min
  264. Bit rate                                 : 26 b/s
  265. Frame rate                               : 0.114 FPS
  266. Count of elements                        : 797
  267. Stream size                              : 22.6 KiB (0%)
  268. Language                                 : Croatian
  269. Default                                  : No
  270. Forced                                   : No
  271. Text #18
  272. ID                                       : 20
  273. Format                                   : UTF-8
  274. Codec ID                                 : S_TEXT/UTF8
  275. Codec ID/Info                            : UTF-8 Plain Text
  276. Duration                                 : 1 h 56 min
  277. Bit rate                                 : 27 b/s
  278. Frame rate                               : 0.112 FPS
  279. Count of elements                        : 785
  280. Stream size                              : 23.5 KiB (0%)
  281. Language                                 : Hungarian
  282. Default                                  : No
  283. Forced                                   : No
  284. Text #19
  285. ID                                       : 21
  286. Format                                   : UTF-8
  287. Codec ID                                 : S_TEXT/UTF8
  288. Codec ID/Info                            : UTF-8 Plain Text
  289. Duration                                 : 1 h 56 min
  290. Bit rate                                 : 27 b/s
  291. Frame rate                               : 0.115 FPS
  292. Count of elements                        : 805
  293. Stream size                              : 23.6 KiB (0%)
  294. Language                                 : Indonesian
  295. Default                                  : No
  296. Forced                                   : No
  297. Text #20
  298. ID                                       : 22
  299. Format                                   : UTF-8
  300. Codec ID                                 : S_TEXT/UTF8
  301. Codec ID/Info                            : UTF-8 Plain Text
  302. Duration                                 : 1 h 56 min
  303. Bit rate                                 : 26 b/s
  304. Frame rate                               : 0.113 FPS
  305. Count of elements                        : 785
  306. Stream size                              : 22.8 KiB (0%)
  307. Language                                 : Italian
  308. Default                                  : No
  309. Forced                                   : No
  310. Text #21
  311. ID                                       : 23
  312. Format                                   : UTF-8
  313. Codec ID                                 : S_TEXT/UTF8
  314. Codec ID/Info                            : UTF-8 Plain Text
  315. Duration                                 : 1 h 48 min
  316. Bit rate                                 : 32 b/s
  317. Frame rate                               : 0.132 FPS
  318. Count of elements                        : 859
  319. Stream size                              : 25.7 KiB (0%)
  320. Language                                 : Italian
  321. Default                                  : No
  322. Forced                                   : No
  323. Text #22
  324. ID                                       : 24
  325. Format                                   : UTF-8
  326. Codec ID                                 : S_TEXT/UTF8
  327. Codec ID/Info                            : UTF-8 Plain Text
  328. Duration                                 : 1 h 56 min
  329. Bit rate                                 : 24 b/s
  330. Frame rate                               : 0.113 FPS
  331. Count of elements                        : 789
  332. Stream size                              : 20.7 KiB (0%)
  333. Language                                 : Japanese
  334. Default                                  : No
  335. Forced                                   : No
  336. Text #23
  337. ID                                       : 25
  338. Format                                   : UTF-8
  339. Codec ID                                 : S_TEXT/UTF8
  340. Codec ID/Info                            : UTF-8 Plain Text
  341. Duration                                 : 1 h 55 min
  342. Bit rate                                 : 29 b/s
  343. Frame rate                               : 0.116 FPS
  344. Count of elements                        : 808
  345. Stream size                              : 24.8 KiB (0%)
  346. Language                                 : Korean
  347. Default                                  : No
  348. Forced                                   : No
  349. Text #24
  350. ID                                       : 26
  351. Format                                   : UTF-8
  352. Codec ID                                 : S_TEXT/UTF8
  353. Codec ID/Info                            : UTF-8 Plain Text
  354. Duration                                 : 1 h 56 min
  355. Bit rate                                 : 28 b/s
  356. Frame rate                               : 0.113 FPS
  357. Count of elements                        : 792
  358. Stream size                              : 24.5 KiB (0%)
  359. Language                                 : Malay
  360. Default                                  : No
  361. Forced                                   : No
  362. Text #25
  363. ID                                       : 27
  364. Format                                   : UTF-8
  365. Codec ID                                 : S_TEXT/UTF8
  366. Codec ID/Info                            : UTF-8 Plain Text
  367. Duration                                 : 1 h 56 min
  368. Bit rate                                 : 27 b/s
  369. Frame rate                               : 0.110 FPS
  370. Count of elements                        : 770
  371. Stream size                              : 23.3 KiB (0%)
  372. Language                                 : Norwegian Bokmal
  373. Default                                  : No
  374. Forced                                   : No
  375. Text #26
  376. ID                                       : 28
  377. Format                                   : UTF-8
  378. Codec ID                                 : S_TEXT/UTF8
  379. Codec ID/Info                            : UTF-8 Plain Text
  380. Duration                                 : 1 h 56 min
  381. Bit rate                                 : 24 b/s
  382. Frame rate                               : 0.104 FPS
  383. Count of elements                        : 723
  384. Stream size                              : 20.6 KiB (0%)
  385. Language                                 : Dutch
  386. Default                                  : No
  387. Forced                                   : No
  388. Text #27
  389. ID                                       : 29
  390. Format                                   : UTF-8
  391. Codec ID                                 : S_TEXT/UTF8
  392. Codec ID/Info                            : UTF-8 Plain Text
  393. Duration                                 : 1 h 56 min
  394. Bit rate                                 : 26 b/s
  395. Frame rate                               : 0.112 FPS
  396. Count of elements                        : 782
  397. Stream size                              : 22.5 KiB (0%)
  398. Language                                 : Polish
  399. Default                                  : No
  400. Forced                                   : No
  401. Text #28
  402. ID                                       : 30
  403. Format                                   : UTF-8
  404. Codec ID                                 : S_TEXT/UTF8
  405. Codec ID/Info                            : UTF-8 Plain Text
  406. Duration                                 : 1 h 48 min
  407. Bit rate                                 : 31 b/s
  408. Frame rate                               : 0.127 FPS
  409. Count of elements                        : 823
  410. Stream size                              : 24.9 KiB (0%)
  411. Title                                    : Brazilian
  412. Language                                 : Portuguese (BR)
  413. Default                                  : No
  414. Forced                                   : No
  415. Text #29
  416. ID                                       : 31
  417. Format                                   : UTF-8
  418. Codec ID                                 : S_TEXT/UTF8
  419. Codec ID/Info                            : UTF-8 Plain Text
  420. Duration                                 : 1 h 56 min
  421. Bit rate                                 : 27 b/s
  422. Frame rate                               : 0.117 FPS
  423. Count of elements                        : 814
  424. Stream size                              : 23.7 KiB (0%)
  425. Title                                    : Brazilian
  426. Language                                 : Portuguese (BR)
  427. Default                                  : No
  428. Forced                                   : No
  429. Text #30
  430. ID                                       : 32
  431. Format                                   : UTF-8
  432. Codec ID                                 : S_TEXT/UTF8
  433. Codec ID/Info                            : UTF-8 Plain Text
  434. Duration                                 : 1 h 56 min
  435. Bit rate                                 : 28 b/s
  436. Frame rate                               : 0.114 FPS
  437. Count of elements                        : 799
  438. Stream size                              : 24.5 KiB (0%)
  439. Language                                 : Portuguese (PT)
  440. Default                                  : No
  441. Forced                                   : No
  442. Text #31
  443. ID                                       : 33
  444. Format                                   : UTF-8
  445. Codec ID                                 : S_TEXT/UTF8
  446. Codec ID/Info                            : UTF-8 Plain Text
  447. Duration                                 : 1 h 56 min
  448. Bit rate                                 : 31 b/s
  449. Frame rate                               : 0.114 FPS
  450. Count of elements                        : 796
  451. Stream size                              : 26.6 KiB (0%)
  452. Language                                 : Romanian
  453. Default                                  : No
  454. Forced                                   : No
  455. Text #32
  456. ID                                       : 34
  457. Format                                   : UTF-8
  458. Codec ID                                 : S_TEXT/UTF8
  459. Codec ID/Info                            : UTF-8 Plain Text
  460. Duration                                 : 1 h 56 min
  461. Bit rate                                 : 44 b/s
  462. Frame rate                               : 0.114 FPS
  463. Count of elements                        : 796
  464. Stream size                              : 37.7 KiB (0%)
  465. Language                                 : Russian
  466. Default                                  : No
  467. Forced                                   : No
  468. Text #33
  469. ID                                       : 35
  470. Format                                   : UTF-8
  471. Codec ID                                 : S_TEXT/UTF8
  472. Codec ID/Info                            : UTF-8 Plain Text
  473. Duration                                 : 1 h 56 min
  474. Bit rate                                 : 28 b/s
  475. Frame rate                               : 0.112 FPS
  476. Count of elements                        : 781
  477. Stream size                              : 23.9 KiB (0%)
  478. Language                                 : Swedish
  479. Default                                  : No
  480. Forced                                   : No
  481. Text #34
  482. ID                                       : 36
  483. Format                                   : UTF-8
  484. Codec ID                                 : S_TEXT/UTF8
  485. Codec ID/Info                            : UTF-8 Plain Text
  486. Duration                                 : 1 h 56 min
  487. Bit rate                                 : 69 b/s
  488. Frame rate                               : 0.115 FPS
  489. Count of elements                        : 802
  490. Stream size                              : 59.1 KiB (0%)
  491. Language                                 : Thai
  492. Default                                  : No
  493. Forced                                   : No
  494. Text #35
  495. ID                                       : 37
  496. Format                                   : UTF-8
  497. Codec ID                                 : S_TEXT/UTF8
  498. Codec ID/Info                            : UTF-8 Plain Text
  499. Duration                                 : 1 h 56 min
  500. Bit rate                                 : 27 b/s
  501. Frame rate                               : 0.114 FPS
  502. Count of elements                        : 795
  503. Stream size                              : 23.5 KiB (0%)
  504. Language                                 : Turkish
  505. Default                                  : No
  506. Forced                                   : No
  507. Text #36
  508. ID                                       : 38
  509. Format                                   : UTF-8
  510. Codec ID                                 : S_TEXT/UTF8
  511. Codec ID/Info                            : UTF-8 Plain Text
  512. Duration                                 : 1 h 56 min
  513. Bit rate                                 : 47 b/s
  514. Frame rate                               : 0.115 FPS
  515. Count of elements                        : 804
  516. Stream size                              : 40.2 KiB (0%)
  517. Language                                 : Ukrainian
  518. Default                                  : No
  519. Forced                                   : No
  520. Text #37
  521. ID                                       : 39
  522. Format                                   : UTF-8
  523. Codec ID                                 : S_TEXT/UTF8
  524. Codec ID/Info                            : UTF-8 Plain Text
  525. Duration                                 : 1 h 56 min
  526. Bit rate                                 : 39 b/s
  527. Frame rate                               : 0.116 FPS
  528. Count of elements                        : 808
  529. Stream size                              : 33.4 KiB (0%)
  530. Language                                 : Vietnamese
  531. Default                                  : No
  532. Forced                                   : No
  533. Text #38
  534. ID                                       : 40
  535. Format                                   : UTF-8
  536. Codec ID                                 : S_TEXT/UTF8
  537. Codec ID/Info                            : UTF-8 Plain Text
  538. Duration                                 : 1 h 56 min
  539. Bit rate                                 : 28 b/s
  540. Frame rate                               : 0.118 FPS
  541. Count of elements                        : 822
  542. Stream size                              : 24.3 KiB (0%)
  543. Title                                    : Simplified
  544. Language                                 : Chinese (Simplied)
  545. Default                                  : No
  546. Forced                                   : No
  547. Text #39
  548. ID                                       : 41
  549. Format                                   : UTF-8
  550. Codec ID                                 : S_TEXT/UTF8
  551. Codec ID/Info                            : UTF-8 Plain Text
  552. Duration                                 : 1 h 56 min
  553. Bit rate                                 : 26 b/s
  554. Frame rate                               : 0.122 FPS
  555. Count of elements                        : 848
  556. Stream size                              : 22.7 KiB (0%)
  557. Title                                    : Traditional
  558. Language                                 : Chinese (Traditional)
  559. Default                                  : No
  560. Forced                                   : No
  561. Menu
  562. 01:52:57.000                             : en:End Credits
复制代码











回复

使用道具 举报

懒得打字嘛,点击右侧快捷回复 【右侧内容,后台自定义】
您需要登录后才可以回帖 登录 | 立即加入

本版积分规则

Copyright © 2024 Comsenz Inc. Powered by 蓝光电影网

本站内容由用户自主分享和转载自互联网,转载目的在于传递更多信息,并不代表本网赞同其观点和对其真实性负责。

如有侵权、违反国家法律政策行为,请联系我们,我们会第一时间及时清除和处理!

举报反馈邮箱:4k1080.com@gmail.com

快速回复 返回顶部 返回列表