找回密码

查看: 1431|回复: 0

[2160p-WEB] 神弃之地[中文字幕].The.Devil.All.The.Time.2020.2160p.NF.WEB-DL.x265.10bit.SDR.DDP5.1.Atmos-COPiUM 17.62GB

[复制链接]
蓝光币
1848
发表于 2023-1-2 14:57:37 | 显示全部楼层 |阅读模式


◎标  题 神弃之地
◎译  名 恶魔不时辰刻
◎片  名 The Devil All the Time
◎年  代 2020
◎产  地 美国
◎类  别 剧情 / 惊悚 / 犯罪
◎语  言 英语
◎上映日期 2020-09-16(美国收集)
◎IMDb评分 7.1/10 (136573人评价)
◎IMDb链接 https://www.imdb.com/title/tt7395114/
◎豆瓣评分 7.1/10 (20355人评价)
◎豆瓣链接 https://movie.douban.com/subject/27194336/
◎片  长 138分钟
◎导  演 安东尼奥·坎波斯 Antonio Campos
◎编  剧 安东尼奥·坎波斯 Antonio Campos
       保罗·坎波斯 Paulo Campos
       唐纳德·雷·波洛克 Donald Ray Pollock
◎演  员 汤姆·赫兰德 Tom Holland
       罗伯特·帕丁森 Robert Pattinson
       比尔·斯卡斯加德 Bill Skarsgård
       海莉·贝内特 Haley Bennett
       丽莉·吉欧 Riley Keough
       哈利·米尔林 Harry Melling
       塞巴斯蒂安·斯坦 Sebastian Stan
       米娅·华希科沃斯卡 Mia Wasikowska
       伊莱扎·斯坎伦 Eliza Scanlen
       杰森·克拉克 Jason Clarke
       道格拉斯·霍奇斯 Douglas Hodges
       德鲁·斯塔基 Drew Starkey
       吉文·夏普 Given Sharp
       露西·浮士德 Lucy Faust
       艾比·格洛弗 Abby Glover
       克里斯汀·格里菲斯 Kristin Griffith
       亚当·弗里斯托 Adam Fristoe
       大卫·马尔登那多 David Maldonado
       莫甘娜·布里吉尔斯 Morganna Bridgers
       马克·杰弗里·米勒 Mark Jeffrey Miller
       迈克尔·哈丁 Michael Harding
       唐纳德·雷·波洛克 Donald Ray Pollock
       格雷戈瑞·凯利 Gregory Kelly
       科里·斯科特·艾伦 Cory Scott Allen
       凯莱布·J·塔格德 Caleb J. Thaggard
       菲利普·德沃纳 Phillip DeVona
       迈克尔·班克斯 Michael Banks Repeta
       杰克·吉伦哈尔 Jake Gyllenhaal
       桑德·朱里亚 Saunder Jurriaans
       丹尼·本斯 Danny Bensi
       洛尔·克劳利 Lol Crawley
        Emma Potter
◎简  介
  该片是一部中西部哥特风电影,安东尼奥·坎帕斯(《克里斯汀》)执导,报告俄亥俄州偏僻之地Knockemstiff,男配角Willard Russell失望地想拯救濒死的妻子,不惜屈就于牺牲,而他的儿子(霍兰德)正从一个在黉舍被凌虐的孩子长大为晓得何时脱手的汉子,脚色包括一对连环杀手佳耦、一个考验人的信仰的传教士、一个败北确当地警长(斯坦)。时候从二战末期到1960年月,地址从南俄亥俄州村落到西维吉尼亚。
  1. Video
  2. ID                                       : 1
  3. Format                                   : HEVC
  4. Format/Info                              : High Efficiency Video Coding
  5. Format profile                           : Main 10@L5@Main
  6. Codec ID                                 : V_MPEGH/ISO/HEVC
  7. Duration                                 : 2 h 18 min
  8. Bit rate                                 : 17.4 Mb/s
  9. Width                                    : 3 840 pixels
  10. Height                                   : 2 160 pixels
  11. Display aspect ratio                     : 16:9
  12. Frame rate mode                          : Constant
  13. Frame rate                               : 24.000 FPS
  14. Color space                              : YUV
  15. Chroma subsampling                       : 4:2:0
  16. Bit depth                                : 10 bits
  17. Bits/(Pixel*Frame)                       : 0.087
  18. Stream size                              : 16.9 GiB (96%)
  19. Language                                 : English
  20. Default                                  : Yes
  21. Forced                                   : No
  22. Color range                              : Limited
  23. Color primaries                          : BT.709
  24. Transfer characteristics                 : BT.709
  25. Matrix coefficients                      : BT.709
  26. Audio
  27. ID                                       : 2
  28. Format                                   : E-AC-3 JOC
  29. Format/Info                              : Enhanced AC-3 with Joint Object Coding
  30. Commercial name                          : Dolby Digital Plus with Dolby Atmos
  31. Codec ID                                 : A_EAC3
  32. Duration                                 : 2 h 18 min
  33. Bit rate mode                            : Constant
  34. Bit rate                                 : 768 kb/s
  35. Channel(s)                               : 6 channels
  36. Channel layout                           : L R C LFE Ls Rs
  37. Sampling rate                            : 48.0 kHz
  38. Frame rate                               : 31.250 FPS (1536 SPF)
  39. Compression mode                         : Lossy
  40. Stream size                              : 763 MiB (4%)
  41. Language                                 : English
  42. Service kind                             : Complete Main
  43. Default                                  : Yes
  44. Forced                                   : No
  45. Complexity index                         : 16
  46. Number of dynamic objects                : 15
  47. Bed channel count                        : 1 channel
  48. Bed channel configuration                : LFE
  49. Text #1
  50. ID                                       : 3
  51. Format                                   : UTF-8
  52. Codec ID                                 : S_TEXT/UTF8
  53. Codec ID/Info                            : UTF-8 Plain Text
  54. Duration                                 : 2 h 10 min
  55. Bit rate                                 : 54 b/s
  56. Frame rate                               : 0.208 FPS
  57. Count of elements                        : 1620
  58. Stream size                              : 52.1 KiB (0%)
  59. Language                                 : English
  60. Default                                  : No
  61. Forced                                   : No
  62. Text #2
  63. ID                                       : 4
  64. Format                                   : UTF-8
  65. Codec ID                                 : S_TEXT/UTF8
  66. Codec ID/Info                            : UTF-8 Plain Text
  67. Duration                                 : 2 h 15 min
  68. Bit rate                                 : 66 b/s
  69. Frame rate                               : 0.251 FPS
  70. Count of elements                        : 2036
  71. Stream size                              : 66.1 KiB (0%)
  72. Title                                    : SDH
  73. Language                                 : English
  74. Default                                  : No
  75. Forced                                   : No
  76. Text #3
  77. ID                                       : 5
  78. Format                                   : UTF-8
  79. Codec ID                                 : S_TEXT/UTF8
  80. Codec ID/Info                            : UTF-8 Plain Text
  81. Duration                                 : 2 h 11 min
  82. Bit rate                                 : 85 b/s
  83. Frame rate                               : 0.211 FPS
  84. Count of elements                        : 1658
  85. Stream size                              : 82.3 KiB (0%)
  86. Language                                 : Arabic
  87. Default                                  : No
  88. Forced                                   : No
  89. Text #4
  90. ID                                       : 6
  91. Format                                   : UTF-8
  92. Codec ID                                 : S_TEXT/UTF8
  93. Codec ID/Info                            : UTF-8 Plain Text
  94. Duration                                 : 2 h 11 min
  95. Bit rate                                 : 52 b/s
  96. Frame rate                               : 0.210 FPS
  97. Count of elements                        : 1658
  98. Stream size                              : 50.1 KiB (0%)
  99. Language                                 : Czech
  100. Default                                  : No
  101. Forced                                   : No
  102. Text #5
  103. ID                                       : 7
  104. Format                                   : UTF-8
  105. Codec ID                                 : S_TEXT/UTF8
  106. Codec ID/Info                            : UTF-8 Plain Text
  107. Duration                                 : 2 h 11 min
  108. Bit rate                                 : 44 b/s
  109. Frame rate                               : 0.211 FPS
  110. Count of elements                        : 1661
  111. Stream size                              : 42.5 KiB (0%)
  112. Language                                 : Danish
  113. Default                                  : No
  114. Forced                                   : No
  115. Text #6
  116. ID                                       : 8
  117. Format                                   : UTF-8
  118. Codec ID                                 : S_TEXT/UTF8
  119. Codec ID/Info                            : UTF-8 Plain Text
  120. Duration                                 : 2 h 11 min
  121. Bit rate                                 : 50 b/s
  122. Frame rate                               : 0.185 FPS
  123. Count of elements                        : 1459
  124. Stream size                              : 48.4 KiB (0%)
  125. Language                                 : German
  126. Default                                  : No
  127. Forced                                   : No
  128. Text #7
  129. ID                                       : 9
  130. Format                                   : UTF-8
  131. Codec ID                                 : S_TEXT/UTF8
  132. Codec ID/Info                            : UTF-8 Plain Text
  133. Duration                                 : 2 h 17 min
  134. Bit rate                                 : 77 b/s
  135. Frame rate                               : 0.201 FPS
  136. Count of elements                        : 1657
  137. Stream size                              : 78.1 KiB (0%)
  138. Language                                 : Greek
  139. Default                                  : No
  140. Forced                                   : No
  141. Text #8
  142. ID                                       : 10
  143. Format                                   : UTF-8
  144. Codec ID                                 : S_TEXT/UTF8
  145. Codec ID/Info                            : UTF-8 Plain Text
  146. Duration                                 : 2 h 11 min
  147. Bit rate                                 : 47 b/s
  148. Frame rate                               : 0.204 FPS
  149. Count of elements                        : 1609
  150. Stream size                              : 45.7 KiB (0%)
  151. Title                                    : Latin American
  152. Language                                 : Spanish (Latin America)
  153. Default                                  : No
  154. Forced                                   : No
  155. Text #9
  156. ID                                       : 11
  157. Format                                   : UTF-8
  158. Codec ID                                 : S_TEXT/UTF8
  159. Codec ID/Info                            : UTF-8 Plain Text
  160. Duration                                 : 2 h 11 min
  161. Bit rate                                 : 49 b/s
  162. Frame rate                               : 0.207 FPS
  163. Count of elements                        : 1629
  164. Stream size                              : 47.8 KiB (0%)
  165. Language                                 : Spanish (ES)
  166. Default                                  : No
  167. Forced                                   : No
  168. Text #10
  169. ID                                       : 12
  170. Format                                   : UTF-8
  171. Codec ID                                 : S_TEXT/UTF8
  172. Codec ID/Info                            : UTF-8 Plain Text
  173. Duration                                 : 2 h 11 min
  174. Bit rate                                 : 50 b/s
  175. Frame rate                               : 0.204 FPS
  176. Count of elements                        : 1604
  177. Stream size                              : 48.9 KiB (0%)
  178. Language                                 : Finnish
  179. Default                                  : No
  180. Forced                                   : No
  181. Text #11
  182. ID                                       : 13
  183. Format                                   : UTF-8
  184. Codec ID                                 : S_TEXT/UTF8
  185. Codec ID/Info                            : UTF-8 Plain Text
  186. Duration                                 : 2 h 11 min
  187. Bit rate                                 : 48 b/s
  188. Frame rate                               : 0.206 FPS
  189. Count of elements                        : 1624
  190. Stream size                              : 46.5 KiB (0%)
  191. Language                                 : French
  192. Default                                  : No
  193. Forced                                   : No
  194. Text #12
  195. ID                                       : 14
  196. Format                                   : UTF-8
  197. Codec ID                                 : S_TEXT/UTF8
  198. Codec ID/Info                            : UTF-8 Plain Text
  199. Duration                                 : 2 h 11 min
  200. Bit rate                                 : 75 b/s
  201. Frame rate                               : 0.201 FPS
  202. Count of elements                        : 1584
  203. Stream size                              : 72.6 KiB (0%)
  204. Language                                 : Hebrew
  205. Default                                  : No
  206. Forced                                   : No
  207. Text #13
  208. ID                                       : 15
  209. Format                                   : UTF-8
  210. Codec ID                                 : S_TEXT/UTF8
  211. Codec ID/Info                            : UTF-8 Plain Text
  212. Duration                                 : 2 h 17 min
  213. Bit rate                                 : 44 b/s
  214. Frame rate                               : 0.199 FPS
  215. Count of elements                        : 1637
  216. Stream size                              : 44.5 KiB (0%)
  217. Language                                 : Croatian
  218. Default                                  : No
  219. Forced                                   : No
  220. Text #14
  221. ID                                       : 16
  222. Format                                   : UTF-8
  223. Codec ID                                 : S_TEXT/UTF8
  224. Codec ID/Info                            : UTF-8 Plain Text
  225. Duration                                 : 2 h 17 min
  226. Bit rate                                 : 49 b/s
  227. Frame rate                               : 0.193 FPS
  228. Count of elements                        : 1592
  229. Stream size                              : 49.9 KiB (0%)
  230. Language                                 : Hungarian
  231. Default                                  : No
  232. Forced                                   : No
  233. Text #15
  234. ID                                       : 17
  235. Format                                   : UTF-8
  236. Codec ID                                 : S_TEXT/UTF8
  237. Codec ID/Info                            : UTF-8 Plain Text
  238. Duration                                 : 2 h 11 min
  239. Bit rate                                 : 47 b/s
  240. Frame rate                               : 0.210 FPS
  241. Count of elements                        : 1656
  242. Stream size                              : 45.3 KiB (0%)
  243. Language                                 : Indonesian
  244. Default                                  : No
  245. Forced                                   : No
  246. Text #16
  247. ID                                       : 18
  248. Format                                   : UTF-8
  249. Codec ID                                 : S_TEXT/UTF8
  250. Codec ID/Info                            : UTF-8 Plain Text
  251. Duration                                 : 2 h 11 min
  252. Bit rate                                 : 51 b/s
  253. Frame rate                               : 0.192 FPS
  254. Count of elements                        : 1513
  255. Stream size                              : 49.1 KiB (0%)
  256. Language                                 : Italian
  257. Default                                  : No
  258. Forced                                   : No
  259. Text #17
  260. ID                                       : 19
  261. Format                                   : UTF-8
  262. Codec ID                                 : S_TEXT/UTF8
  263. Codec ID/Info                            : UTF-8 Plain Text
  264. Duration                                 : 2 h 11 min
  265. Bit rate                                 : 47 b/s
  266. Frame rate                               : 0.207 FPS
  267. Count of elements                        : 1630
  268. Stream size                              : 45.7 KiB (0%)
  269. Language                                 : Japanese
  270. Default                                  : No
  271. Forced                                   : No
  272. Text #18
  273. ID                                       : 20
  274. Format                                   : UTF-8
  275. Codec ID                                 : S_TEXT/UTF8
  276. Codec ID/Info                            : UTF-8 Plain Text
  277. Duration                                 : 2 h 17 min
  278. Bit rate                                 : 60 b/s
  279. Frame rate                               : 0.204 FPS
  280. Count of elements                        : 1677
  281. Stream size                              : 61.2 KiB (0%)
  282. Language                                 : Korean
  283. Default                                  : No
  284. Forced                                   : No
  285. Text #19
  286. ID                                       : 21
  287. Format                                   : UTF-8
  288. Codec ID                                 : S_TEXT/UTF8
  289. Codec ID/Info                            : UTF-8 Plain Text
  290. Duration                                 : 2 h 11 min
  291. Bit rate                                 : 48 b/s
  292. Frame rate                               : 0.209 FPS
  293. Count of elements                        : 1645
  294. Stream size                              : 46.6 KiB (0%)
  295. Language                                 : Malay
  296. Default                                  : No
  297. Forced                                   : No
  298. Text #20
  299. ID                                       : 22
  300. Format                                   : UTF-8
  301. Codec ID                                 : S_TEXT/UTF8
  302. Codec ID/Info                            : UTF-8 Plain Text
  303. Duration                                 : 2 h 11 min
  304. Bit rate                                 : 47 b/s
  305. Frame rate                               : 0.179 FPS
  306. Count of elements                        : 1411
  307. Stream size                              : 46.1 KiB (0%)
  308. Language                                 : Norwegian Bokmal
  309. Default                                  : No
  310. Forced                                   : No
  311. Text #21
  312. ID                                       : 23
  313. Format                                   : UTF-8
  314. Codec ID                                 : S_TEXT/UTF8
  315. Codec ID/Info                            : UTF-8 Plain Text
  316. Duration                                 : 2 h 11 min
  317. Bit rate                                 : 45 b/s
  318. Frame rate                               : 0.190 FPS
  319. Count of elements                        : 1493
  320. Stream size                              : 44.0 KiB (0%)
  321. Language                                 : Dutch
  322. Default                                  : No
  323. Forced                                   : No
  324. Text #22
  325. ID                                       : 24
  326. Format                                   : UTF-8
  327. Codec ID                                 : S_TEXT/UTF8
  328. Codec ID/Info                            : UTF-8 Plain Text
  329. Duration                                 : 2 h 11 min
  330. Bit rate                                 : 45 b/s
  331. Frame rate                               : 0.195 FPS
  332. Count of elements                        : 1536
  333. Stream size                              : 43.4 KiB (0%)
  334. Language                                 : Polish
  335. Default                                  : No
  336. Forced                                   : No
  337. Text #23
  338. ID                                       : 25
  339. Format                                   : UTF-8
  340. Codec ID                                 : S_TEXT/UTF8
  341. Codec ID/Info                            : UTF-8 Plain Text
  342. Duration                                 : 2 h 11 min
  343. Bit rate                                 : 52 b/s
  344. Frame rate                               : 0.206 FPS
  345. Count of elements                        : 1621
  346. Stream size                              : 50.3 KiB (0%)
  347. Title                                    : Brazilian
  348. Language                                 : Portuguese (BR)
  349. Default                                  : No
  350. Forced                                   : No
  351. Text #24
  352. ID                                       : 26
  353. Format                                   : UTF-8
  354. Codec ID                                 : S_TEXT/UTF8
  355. Codec ID/Info                            : UTF-8 Plain Text
  356. Duration                                 : 2 h 11 min
  357. Bit rate                                 : 48 b/s
  358. Frame rate                               : 0.195 FPS
  359. Count of elements                        : 1539
  360. Stream size                              : 46.6 KiB (0%)
  361. Language                                 : Portuguese (PT)
  362. Default                                  : No
  363. Forced                                   : No
  364. Text #25
  365. ID                                       : 27
  366. Format                                   : UTF-8
  367. Codec ID                                 : S_TEXT/UTF8
  368. Codec ID/Info                            : UTF-8 Plain Text
  369. Duration                                 : 2 h 11 min
  370. Bit rate                                 : 58 b/s
  371. Frame rate                               : 0.195 FPS
  372. Count of elements                        : 1539
  373. Stream size                              : 55.9 KiB (0%)
  374. Language                                 : Romanian
  375. Default                                  : No
  376. Forced                                   : No
  377. Text #26
  378. ID                                       : 28
  379. Format                                   : UTF-8
  380. Codec ID                                 : S_TEXT/UTF8
  381. Codec ID/Info                            : UTF-8 Plain Text
  382. Duration                                 : 2 h 11 min
  383. Bit rate                                 : 79 b/s
  384. Frame rate                               : 0.209 FPS
  385. Count of elements                        : 1650
  386. Stream size                              : 76.6 KiB (0%)
  387. Language                                 : Russian
  388. Default                                  : No
  389. Forced                                   : No
  390. Text #27
  391. ID                                       : 29
  392. Format                                   : UTF-8
  393. Codec ID                                 : S_TEXT/UTF8
  394. Codec ID/Info                            : UTF-8 Plain Text
  395. Duration                                 : 2 h 11 min
  396. Bit rate                                 : 46 b/s
  397. Frame rate                               : 0.202 FPS
  398. Count of elements                        : 1595
  399. Stream size                              : 44.4 KiB (0%)
  400. Language                                 : Swedish
  401. Default                                  : No
  402. Forced                                   : No
  403. Text #28
  404. ID                                       : 30
  405. Format                                   : UTF-8
  406. Codec ID                                 : S_TEXT/UTF8
  407. Codec ID/Info                            : UTF-8 Plain Text
  408. Duration                                 : 2 h 11 min
  409. Bit rate                                 : 124 b/s
  410. Frame rate                               : 0.210 FPS
  411. Count of elements                        : 1657
  412. Stream size                              : 119 KiB (0%)
  413. Language                                 : Thai
  414. Default                                  : No
  415. Forced                                   : No
  416. Text #29
  417. ID                                       : 31
  418. Format                                   : UTF-8
  419. Codec ID                                 : S_TEXT/UTF8
  420. Codec ID/Info                            : UTF-8 Plain Text
  421. Duration                                 : 2 h 11 min
  422. Bit rate                                 : 52 b/s
  423. Frame rate                               : 0.200 FPS
  424. Count of elements                        : 1578
  425. Stream size                              : 50.1 KiB (0%)
  426. Language                                 : Turkish
  427. Default                                  : No
  428. Forced                                   : No
  429. Text #30
  430. ID                                       : 32
  431. Format                                   : UTF-8
  432. Codec ID                                 : S_TEXT/UTF8
  433. Codec ID/Info                            : UTF-8 Plain Text
  434. Duration                                 : 2 h 11 min
  435. Bit rate                                 : 70 b/s
  436. Frame rate                               : 0.190 FPS
  437. Count of elements                        : 1500
  438. Stream size                              : 68.2 KiB (0%)
  439. Language                                 : Vietnamese
  440. Default                                  : No
  441. Forced                                   : No
  442. Text #31
  443. ID                                       : 33
  444. Format                                   : UTF-8
  445. Codec ID                                 : S_TEXT/UTF8
  446. Codec ID/Info                            : UTF-8 Plain Text
  447. Duration                                 : 2 h 11 min
  448. Bit rate                                 : 50 b/s
  449. Frame rate                               : 0.208 FPS
  450. Count of elements                        : 1637
  451. Stream size                              : 48.7 KiB (0%)
  452. Title                                    : Simplified
  453. Language                                 : Chinese (Simplied)
  454. Default                                  : No
  455. Forced                                   : No
  456. Text #32
  457. ID                                       : 34
  458. Format                                   : UTF-8
  459. Codec ID                                 : S_TEXT/UTF8
  460. Codec ID/Info                            : UTF-8 Plain Text
  461. Duration                                 : 2 h 11 min
  462. Bit rate                                 : 49 b/s
  463. Frame rate                               : 0.213 FPS
  464. Count of elements                        : 1677
  465. Stream size                              : 47.9 KiB (0%)
  466. Title                                    : Traditional
  467. Language                                 : Chinese (Traditional)
  468. Default                                  : No
  469. Forced                                   : No
  470. Menu
  471. 02:13:35.000                             : en:End Credits
复制代码











回复

使用道具 举报

懒得打字嘛,点击右侧快捷回复 【右侧内容,后台自定义】
您需要登录后才可以回帖 登录 | 立即加入

本版积分规则

Copyright © 2024 Comsenz Inc. Powered by 蓝光电影网

本站内容由用户自主分享和转载自互联网,转载目的在于传递更多信息,并不代表本网赞同其观点和对其真实性负责。

如有侵权、违反国家法律政策行为,请联系我们,我们会第一时间及时清除和处理!

举报反馈邮箱:4k1080.com@gmail.com

快速回复 返回顶部 返回列表