找回密码

查看: 1496|回复: 0

[2160p-WEB] 神弃之地[中文字幕].The.Devil.All.The.Time.2020.2160p.NF.WEB-DL.x265.10bit.HDR.DDP5.1.Atmos-COPiUM 19.12GB

[复制链接]
蓝光币
1848
发表于 2023-1-2 14:57:37 | 显示全部楼层 |阅读模式


◎标  题 神弃之地
◎译  名 恶魔不时辰刻
◎片  名 The Devil All the Time
◎年  代 2020
◎产  地 美国
◎类  别 剧情 / 惊悚 / 犯罪
◎语  言 英语
◎上映日期 2020-09-16(美国收集)
◎IMDb评分 7.1/10 (136573人评价)
◎IMDb链接 https://www.imdb.com/title/tt7395114/
◎豆瓣评分 7.1/10 (20355人评价)
◎豆瓣链接 https://movie.douban.com/subject/27194336/
◎片  长 138分钟
◎导  演 安东尼奥·坎波斯 Antonio Campos
◎编  剧 安东尼奥·坎波斯 Antonio Campos
       保罗·坎波斯 Paulo Campos
       唐纳德·雷·波洛克 Donald Ray Pollock
◎演  员 汤姆·赫兰德 Tom Holland
       罗伯特·帕丁森 Robert Pattinson
       比尔·斯卡斯加德 Bill Skarsgård
       海莉·贝内特 Haley Bennett
       丽莉·吉欧 Riley Keough
       哈利·米尔林 Harry Melling
       塞巴斯蒂安·斯坦 Sebastian Stan
       米娅·华希科沃斯卡 Mia Wasikowska
       伊莱扎·斯坎伦 Eliza Scanlen
       杰森·克拉克 Jason Clarke
       道格拉斯·霍奇斯 Douglas Hodges
       德鲁·斯塔基 Drew Starkey
       吉文·夏普 Given Sharp
       露西·浮士德 Lucy Faust
       艾比·格洛弗 Abby Glover
       克里斯汀·格里菲斯 Kristin Griffith
       亚当·弗里斯托 Adam Fristoe
       大卫·马尔登那多 David Maldonado
       莫甘娜·布里吉尔斯 Morganna Bridgers
       马克·杰弗里·米勒 Mark Jeffrey Miller
       迈克尔·哈丁 Michael Harding
       唐纳德·雷·波洛克 Donald Ray Pollock
       格雷戈瑞·凯利 Gregory Kelly
       科里·斯科特·艾伦 Cory Scott Allen
       凯莱布·J·塔格德 Caleb J. Thaggard
       菲利普·德沃纳 Phillip DeVona
       迈克尔·班克斯 Michael Banks Repeta
       杰克·吉伦哈尔 Jake Gyllenhaal
       桑德·朱里亚 Saunder Jurriaans
       丹尼·本斯 Danny Bensi
       洛尔·克劳利 Lol Crawley
        Emma Potter
◎简  介
  该片是一部中西部哥特风电影,安东尼奥·坎帕斯(《克里斯汀》)执导,报告俄亥俄州偏僻之地Knockemstiff,男配角Willard Russell失望地想拯救濒死的妻子,不惜屈就于牺牲,而他的儿子(霍兰德)正从一个在黉舍被凌虐的孩子长大为晓得何时脱手的汉子,脚色包括一对连环杀手佳耦、一个考验人的信仰的传教士、一个败北确当地警长(斯坦)。时候从二战末期到1960年月,地址从南俄亥俄州村落到西维吉尼亚。
  1. Video
  2. ID                                       : 1
  3. Format                                   : HEVC
  4. Format/Info                              : High Efficiency Video Coding
  5. Format profile                           : Main 10@L5@Main
  6. HDR format                               : Dolby Vision, Version 1.0, dvhe.08.06, BL+RPU, HDR10 compatible / SMPTE ST 2086, HDR10 compatible
  7. Codec ID                                 : V_MPEGH/ISO/HEVC
  8. Duration                                 : 2 h 17 min
  9. Bit rate                                 : 19.1 Mb/s
  10. Width                                    : 3 840 pixels
  11. Height                                   : 2 160 pixels
  12. Display aspect ratio                     : 16:9
  13. Frame rate mode                          : Constant
  14. Frame rate                               : 24.000 FPS
  15. Color space                              : YUV
  16. Chroma subsampling                       : 4:2:0 (Type 2)
  17. Bit depth                                : 10 bits
  18. Bits/(Pixel*Frame)                       : 0.096
  19. Stream size                              : 18.4 GiB (96%)
  20. Language                                 : English
  21. Default                                  : Yes
  22. Forced                                   : No
  23. Color range                              : Limited
  24. Color primaries                          : BT.2020
  25. Transfer characteristics                 : PQ
  26. Matrix coefficients                      : BT.2020 non-constant
  27. Mastering display color primaries        : Display P3
  28. Mastering display luminance              : min: 0.0001 cd/m2, max: 1000 cd/m2
  29. Maximum Content Light Level              : 940 cd/m2
  30. Maximum Frame-Average Light Level        : 97 cd/m2
  31. Audio
  32. ID                                       : 2
  33. Format                                   : E-AC-3 JOC
  34. Format/Info                              : Enhanced AC-3 with Joint Object Coding
  35. Commercial name                          : Dolby Digital Plus with Dolby Atmos
  36. Codec ID                                 : A_EAC3
  37. Duration                                 : 2 h 18 min
  38. Bit rate mode                            : Constant
  39. Bit rate                                 : 768 kb/s
  40. Channel(s)                               : 6 channels
  41. Channel layout                           : L R C LFE Ls Rs
  42. Sampling rate                            : 48.0 kHz
  43. Frame rate                               : 31.250 FPS (1536 SPF)
  44. Compression mode                         : Lossy
  45. Stream size                              : 763 MiB (4%)
  46. Language                                 : English
  47. Service kind                             : Complete Main
  48. Default                                  : Yes
  49. Forced                                   : No
  50. Complexity index                         : 16
  51. Number of dynamic objects                : 15
  52. Bed channel count                        : 1 channel
  53. Bed channel configuration                : LFE
  54. Text #1
  55. ID                                       : 3
  56. Format                                   : UTF-8
  57. Codec ID                                 : S_TEXT/UTF8
  58. Codec ID/Info                            : UTF-8 Plain Text
  59. Duration                                 : 2 h 10 min
  60. Bit rate                                 : 54 b/s
  61. Frame rate                               : 0.208 FPS
  62. Count of elements                        : 1620
  63. Stream size                              : 52.1 KiB (0%)
  64. Language                                 : English
  65. Default                                  : No
  66. Forced                                   : No
  67. Text #2
  68. ID                                       : 4
  69. Format                                   : UTF-8
  70. Codec ID                                 : S_TEXT/UTF8
  71. Codec ID/Info                            : UTF-8 Plain Text
  72. Duration                                 : 2 h 15 min
  73. Bit rate                                 : 66 b/s
  74. Frame rate                               : 0.251 FPS
  75. Count of elements                        : 2036
  76. Stream size                              : 66.1 KiB (0%)
  77. Title                                    : SDH
  78. Language                                 : English
  79. Default                                  : No
  80. Forced                                   : No
  81. Text #3
  82. ID                                       : 5
  83. Format                                   : UTF-8
  84. Codec ID                                 : S_TEXT/UTF8
  85. Codec ID/Info                            : UTF-8 Plain Text
  86. Duration                                 : 2 h 11 min
  87. Bit rate                                 : 85 b/s
  88. Frame rate                               : 0.211 FPS
  89. Count of elements                        : 1658
  90. Stream size                              : 82.3 KiB (0%)
  91. Language                                 : Arabic
  92. Default                                  : No
  93. Forced                                   : No
  94. Text #4
  95. ID                                       : 6
  96. Format                                   : UTF-8
  97. Codec ID                                 : S_TEXT/UTF8
  98. Codec ID/Info                            : UTF-8 Plain Text
  99. Duration                                 : 2 h 11 min
  100. Bit rate                                 : 52 b/s
  101. Frame rate                               : 0.210 FPS
  102. Count of elements                        : 1658
  103. Stream size                              : 50.1 KiB (0%)
  104. Language                                 : Czech
  105. Default                                  : No
  106. Forced                                   : No
  107. Text #5
  108. ID                                       : 7
  109. Format                                   : UTF-8
  110. Codec ID                                 : S_TEXT/UTF8
  111. Codec ID/Info                            : UTF-8 Plain Text
  112. Duration                                 : 2 h 11 min
  113. Bit rate                                 : 44 b/s
  114. Frame rate                               : 0.211 FPS
  115. Count of elements                        : 1661
  116. Stream size                              : 42.5 KiB (0%)
  117. Language                                 : Danish
  118. Default                                  : No
  119. Forced                                   : No
  120. Text #6
  121. ID                                       : 8
  122. Format                                   : UTF-8
  123. Codec ID                                 : S_TEXT/UTF8
  124. Codec ID/Info                            : UTF-8 Plain Text
  125. Duration                                 : 2 h 11 min
  126. Bit rate                                 : 50 b/s
  127. Frame rate                               : 0.185 FPS
  128. Count of elements                        : 1459
  129. Stream size                              : 48.4 KiB (0%)
  130. Language                                 : German
  131. Default                                  : No
  132. Forced                                   : No
  133. Text #7
  134. ID                                       : 9
  135. Format                                   : UTF-8
  136. Codec ID                                 : S_TEXT/UTF8
  137. Codec ID/Info                            : UTF-8 Plain Text
  138. Duration                                 : 2 h 17 min
  139. Bit rate                                 : 77 b/s
  140. Frame rate                               : 0.201 FPS
  141. Count of elements                        : 1657
  142. Stream size                              : 78.1 KiB (0%)
  143. Language                                 : Greek
  144. Default                                  : No
  145. Forced                                   : No
  146. Text #8
  147. ID                                       : 10
  148. Format                                   : UTF-8
  149. Codec ID                                 : S_TEXT/UTF8
  150. Codec ID/Info                            : UTF-8 Plain Text
  151. Duration                                 : 2 h 11 min
  152. Bit rate                                 : 47 b/s
  153. Frame rate                               : 0.204 FPS
  154. Count of elements                        : 1609
  155. Stream size                              : 45.7 KiB (0%)
  156. Title                                    : Latin American
  157. Language                                 : Spanish (Latin America)
  158. Default                                  : No
  159. Forced                                   : No
  160. Text #9
  161. ID                                       : 11
  162. Format                                   : UTF-8
  163. Codec ID                                 : S_TEXT/UTF8
  164. Codec ID/Info                            : UTF-8 Plain Text
  165. Duration                                 : 2 h 11 min
  166. Bit rate                                 : 49 b/s
  167. Frame rate                               : 0.207 FPS
  168. Count of elements                        : 1629
  169. Stream size                              : 47.8 KiB (0%)
  170. Language                                 : Spanish (ES)
  171. Default                                  : No
  172. Forced                                   : No
  173. Text #10
  174. ID                                       : 12
  175. Format                                   : UTF-8
  176. Codec ID                                 : S_TEXT/UTF8
  177. Codec ID/Info                            : UTF-8 Plain Text
  178. Duration                                 : 2 h 11 min
  179. Bit rate                                 : 50 b/s
  180. Frame rate                               : 0.204 FPS
  181. Count of elements                        : 1604
  182. Stream size                              : 48.9 KiB (0%)
  183. Language                                 : Finnish
  184. Default                                  : No
  185. Forced                                   : No
  186. Text #11
  187. ID                                       : 13
  188. Format                                   : UTF-8
  189. Codec ID                                 : S_TEXT/UTF8
  190. Codec ID/Info                            : UTF-8 Plain Text
  191. Duration                                 : 2 h 11 min
  192. Bit rate                                 : 48 b/s
  193. Frame rate                               : 0.206 FPS
  194. Count of elements                        : 1624
  195. Stream size                              : 46.5 KiB (0%)
  196. Language                                 : French
  197. Default                                  : No
  198. Forced                                   : No
  199. Text #12
  200. ID                                       : 14
  201. Format                                   : UTF-8
  202. Codec ID                                 : S_TEXT/UTF8
  203. Codec ID/Info                            : UTF-8 Plain Text
  204. Duration                                 : 2 h 11 min
  205. Bit rate                                 : 75 b/s
  206. Frame rate                               : 0.201 FPS
  207. Count of elements                        : 1584
  208. Stream size                              : 72.6 KiB (0%)
  209. Language                                 : Hebrew
  210. Default                                  : No
  211. Forced                                   : No
  212. Text #13
  213. ID                                       : 15
  214. Format                                   : UTF-8
  215. Codec ID                                 : S_TEXT/UTF8
  216. Codec ID/Info                            : UTF-8 Plain Text
  217. Duration                                 : 2 h 17 min
  218. Bit rate                                 : 44 b/s
  219. Frame rate                               : 0.199 FPS
  220. Count of elements                        : 1637
  221. Stream size                              : 44.5 KiB (0%)
  222. Language                                 : Croatian
  223. Default                                  : No
  224. Forced                                   : No
  225. Text #14
  226. ID                                       : 16
  227. Format                                   : UTF-8
  228. Codec ID                                 : S_TEXT/UTF8
  229. Codec ID/Info                            : UTF-8 Plain Text
  230. Duration                                 : 2 h 17 min
  231. Bit rate                                 : 49 b/s
  232. Frame rate                               : 0.193 FPS
  233. Count of elements                        : 1592
  234. Stream size                              : 49.9 KiB (0%)
  235. Language                                 : Hungarian
  236. Default                                  : No
  237. Forced                                   : No
  238. Text #15
  239. ID                                       : 17
  240. Format                                   : UTF-8
  241. Codec ID                                 : S_TEXT/UTF8
  242. Codec ID/Info                            : UTF-8 Plain Text
  243. Duration                                 : 2 h 11 min
  244. Bit rate                                 : 47 b/s
  245. Frame rate                               : 0.210 FPS
  246. Count of elements                        : 1656
  247. Stream size                              : 45.3 KiB (0%)
  248. Language                                 : Indonesian
  249. Default                                  : No
  250. Forced                                   : No
  251. Text #16
  252. ID                                       : 18
  253. Format                                   : UTF-8
  254. Codec ID                                 : S_TEXT/UTF8
  255. Codec ID/Info                            : UTF-8 Plain Text
  256. Duration                                 : 2 h 11 min
  257. Bit rate                                 : 51 b/s
  258. Frame rate                               : 0.192 FPS
  259. Count of elements                        : 1513
  260. Stream size                              : 49.1 KiB (0%)
  261. Language                                 : Italian
  262. Default                                  : No
  263. Forced                                   : No
  264. Text #17
  265. ID                                       : 19
  266. Format                                   : UTF-8
  267. Codec ID                                 : S_TEXT/UTF8
  268. Codec ID/Info                            : UTF-8 Plain Text
  269. Duration                                 : 2 h 11 min
  270. Bit rate                                 : 47 b/s
  271. Frame rate                               : 0.207 FPS
  272. Count of elements                        : 1630
  273. Stream size                              : 45.7 KiB (0%)
  274. Language                                 : Japanese
  275. Default                                  : No
  276. Forced                                   : No
  277. Text #18
  278. ID                                       : 20
  279. Format                                   : UTF-8
  280. Codec ID                                 : S_TEXT/UTF8
  281. Codec ID/Info                            : UTF-8 Plain Text
  282. Duration                                 : 2 h 17 min
  283. Bit rate                                 : 60 b/s
  284. Frame rate                               : 0.204 FPS
  285. Count of elements                        : 1677
  286. Stream size                              : 61.2 KiB (0%)
  287. Language                                 : Korean
  288. Default                                  : No
  289. Forced                                   : No
  290. Text #19
  291. ID                                       : 21
  292. Format                                   : UTF-8
  293. Codec ID                                 : S_TEXT/UTF8
  294. Codec ID/Info                            : UTF-8 Plain Text
  295. Duration                                 : 2 h 11 min
  296. Bit rate                                 : 48 b/s
  297. Frame rate                               : 0.209 FPS
  298. Count of elements                        : 1645
  299. Stream size                              : 46.6 KiB (0%)
  300. Language                                 : Malay
  301. Default                                  : No
  302. Forced                                   : No
  303. Text #20
  304. ID                                       : 22
  305. Format                                   : UTF-8
  306. Codec ID                                 : S_TEXT/UTF8
  307. Codec ID/Info                            : UTF-8 Plain Text
  308. Duration                                 : 2 h 11 min
  309. Bit rate                                 : 47 b/s
  310. Frame rate                               : 0.179 FPS
  311. Count of elements                        : 1411
  312. Stream size                              : 46.1 KiB (0%)
  313. Language                                 : Norwegian Bokmal
  314. Default                                  : No
  315. Forced                                   : No
  316. Text #21
  317. ID                                       : 23
  318. Format                                   : UTF-8
  319. Codec ID                                 : S_TEXT/UTF8
  320. Codec ID/Info                            : UTF-8 Plain Text
  321. Duration                                 : 2 h 11 min
  322. Bit rate                                 : 45 b/s
  323. Frame rate                               : 0.190 FPS
  324. Count of elements                        : 1493
  325. Stream size                              : 44.0 KiB (0%)
  326. Language                                 : Dutch
  327. Default                                  : No
  328. Forced                                   : No
  329. Text #22
  330. ID                                       : 24
  331. Format                                   : UTF-8
  332. Codec ID                                 : S_TEXT/UTF8
  333. Codec ID/Info                            : UTF-8 Plain Text
  334. Duration                                 : 2 h 11 min
  335. Bit rate                                 : 45 b/s
  336. Frame rate                               : 0.195 FPS
  337. Count of elements                        : 1536
  338. Stream size                              : 43.4 KiB (0%)
  339. Language                                 : Polish
  340. Default                                  : No
  341. Forced                                   : No
  342. Text #23
  343. ID                                       : 25
  344. Format                                   : UTF-8
  345. Codec ID                                 : S_TEXT/UTF8
  346. Codec ID/Info                            : UTF-8 Plain Text
  347. Duration                                 : 2 h 11 min
  348. Bit rate                                 : 52 b/s
  349. Frame rate                               : 0.206 FPS
  350. Count of elements                        : 1621
  351. Stream size                              : 50.3 KiB (0%)
  352. Title                                    : Brazilian
  353. Language                                 : Portuguese (BR)
  354. Default                                  : No
  355. Forced                                   : No
  356. Text #24
  357. ID                                       : 26
  358. Format                                   : UTF-8
  359. Codec ID                                 : S_TEXT/UTF8
  360. Codec ID/Info                            : UTF-8 Plain Text
  361. Duration                                 : 2 h 11 min
  362. Bit rate                                 : 48 b/s
  363. Frame rate                               : 0.195 FPS
  364. Count of elements                        : 1539
  365. Stream size                              : 46.6 KiB (0%)
  366. Language                                 : Portuguese (PT)
  367. Default                                  : No
  368. Forced                                   : No
  369. Text #25
  370. ID                                       : 27
  371. Format                                   : UTF-8
  372. Codec ID                                 : S_TEXT/UTF8
  373. Codec ID/Info                            : UTF-8 Plain Text
  374. Duration                                 : 2 h 11 min
  375. Bit rate                                 : 58 b/s
  376. Frame rate                               : 0.195 FPS
  377. Count of elements                        : 1539
  378. Stream size                              : 55.9 KiB (0%)
  379. Language                                 : Romanian
  380. Default                                  : No
  381. Forced                                   : No
  382. Text #26
  383. ID                                       : 28
  384. Format                                   : UTF-8
  385. Codec ID                                 : S_TEXT/UTF8
  386. Codec ID/Info                            : UTF-8 Plain Text
  387. Duration                                 : 2 h 11 min
  388. Bit rate                                 : 79 b/s
  389. Frame rate                               : 0.209 FPS
  390. Count of elements                        : 1650
  391. Stream size                              : 76.6 KiB (0%)
  392. Language                                 : Russian
  393. Default                                  : No
  394. Forced                                   : No
  395. Text #27
  396. ID                                       : 29
  397. Format                                   : UTF-8
  398. Codec ID                                 : S_TEXT/UTF8
  399. Codec ID/Info                            : UTF-8 Plain Text
  400. Duration                                 : 2 h 11 min
  401. Bit rate                                 : 46 b/s
  402. Frame rate                               : 0.202 FPS
  403. Count of elements                        : 1595
  404. Stream size                              : 44.4 KiB (0%)
  405. Language                                 : Swedish
  406. Default                                  : No
  407. Forced                                   : No
  408. Text #28
  409. ID                                       : 30
  410. Format                                   : UTF-8
  411. Codec ID                                 : S_TEXT/UTF8
  412. Codec ID/Info                            : UTF-8 Plain Text
  413. Duration                                 : 2 h 11 min
  414. Bit rate                                 : 124 b/s
  415. Frame rate                               : 0.210 FPS
  416. Count of elements                        : 1657
  417. Stream size                              : 119 KiB (0%)
  418. Language                                 : Thai
  419. Default                                  : No
  420. Forced                                   : No
  421. Text #29
  422. ID                                       : 31
  423. Format                                   : UTF-8
  424. Codec ID                                 : S_TEXT/UTF8
  425. Codec ID/Info                            : UTF-8 Plain Text
  426. Duration                                 : 2 h 11 min
  427. Bit rate                                 : 52 b/s
  428. Frame rate                               : 0.200 FPS
  429. Count of elements                        : 1578
  430. Stream size                              : 50.1 KiB (0%)
  431. Language                                 : Turkish
  432. Default                                  : No
  433. Forced                                   : No
  434. Text #30
  435. ID                                       : 32
  436. Format                                   : UTF-8
  437. Codec ID                                 : S_TEXT/UTF8
  438. Codec ID/Info                            : UTF-8 Plain Text
  439. Duration                                 : 2 h 11 min
  440. Bit rate                                 : 70 b/s
  441. Frame rate                               : 0.190 FPS
  442. Count of elements                        : 1500
  443. Stream size                              : 68.2 KiB (0%)
  444. Language                                 : Vietnamese
  445. Default                                  : No
  446. Forced                                   : No
  447. Text #31
  448. ID                                       : 33
  449. Format                                   : UTF-8
  450. Codec ID                                 : S_TEXT/UTF8
  451. Codec ID/Info                            : UTF-8 Plain Text
  452. Duration                                 : 2 h 11 min
  453. Bit rate                                 : 50 b/s
  454. Frame rate                               : 0.208 FPS
  455. Count of elements                        : 1637
  456. Stream size                              : 48.7 KiB (0%)
  457. Title                                    : Simplified
  458. Language                                 : Chinese (Simplied)
  459. Default                                  : No
  460. Forced                                   : No
  461. Text #32
  462. ID                                       : 34
  463. Format                                   : UTF-8
  464. Codec ID                                 : S_TEXT/UTF8
  465. Codec ID/Info                            : UTF-8 Plain Text
  466. Duration                                 : 2 h 11 min
  467. Bit rate                                 : 49 b/s
  468. Frame rate                               : 0.213 FPS
  469. Count of elements                        : 1677
  470. Stream size                              : 47.9 KiB (0%)
  471. Title                                    : Traditional
  472. Language                                 : Chinese (Traditional)
  473. Default                                  : No
  474. Forced                                   : No
  475. Menu
  476. 02:13:35.000                             : en:End Credits
复制代码











回复

使用道具 举报

懒得打字嘛,点击右侧快捷回复 【右侧内容,后台自定义】
您需要登录后才可以回帖 登录 | 立即加入

本版积分规则

Copyright © 2024 Comsenz Inc. Powered by 蓝光电影网

本站内容由用户自主分享和转载自互联网,转载目的在于传递更多信息,并不代表本网赞同其观点和对其真实性负责。

如有侵权、违反国家法律政策行为,请联系我们,我们会第一时间及时清除和处理!

举报反馈邮箱:4k1080.com@gmail.com

快速回复 返回顶部 返回列表