找回密码

查看: 1727|回复: 0

[2160p-WEB] 午夜天空[中文字幕].The.Midnight.Sky.2020.2160p.NF.WEB-DL.x265.10bit.HDR.DDP5.1.Atmos-COPiUM 16.48GB

[复制链接]
蓝光币
1848
发表于 2023-1-2 14:57:38 | 显示全部楼层 |阅读模式


◎标  题 半夜天空
◎译  名 永夜飘流 / 早安,半夜 / Good Morning /  Midnight
◎片  名 The Midnight Sky
◎年  代 2020
◎产  地 美国
◎类  别 剧情 / 科幻 / 惊悚 / 奇异
◎语  言 英语
◎上映日期 2020-12-23(美国收集)
◎IMDb评分 5.6/10 (84147人评价)
◎IMDb链接 https://www.imdb.com/title/tt10539608/
◎豆瓣评分 6.0/10 (4324人评价)
◎豆瓣链接 https://movie.douban.com/subject/34442667/
◎片  长 122分钟
◎导  演 乔治·克鲁尼 George Clooney
◎编  剧 马克·L·史姑娘 Mark L. Smith
◎演  员 乔治·克鲁尼 George Clooney
       菲丽希缇·琼斯 Felicity Jones
       大卫·奥伊罗 David Oyelowo
       凯尔·钱德勒 Kyle Chandler
       德米安·比齐尔 Demián Bichir
       蒂凡尼·布恩 Tiffany Boone
       苏菲·兰朵 Sophie Rundle
       伊森·派克 Ethan Peck
       蒂姆·罗斯 Tim Russ
       米利亚姆·肖尔 Miriam Shor
       利利娅·诺特·拉林斯多蒂尔 Lilja Nótt Þórarinsdóttir
       汉娜·玛丽亚·卡尔斯多蒂尔 Hanna María Karlsdóttir
       阿特利·奧斯卡·法奈森 Atli Oskar Fjalarsson
       伊登·黑赫斯特 Edan Hayhurst
       莎拉·盖林 Sarah Guerin
       尼克·欧文福特 Nick Owenford
       凯奥林·斯普林加尔 Caoilinn Springall
       珍妮·伊根 Jenny Eagan
◎简  介
  奥秘的全球性灾难爆发,一位单独驻扎北极的科学家极力与一群返回地球的宇航员获得联系,他们正要回到惨遭奥秘灾难重创的地球。
  1. Video
  2. ID                                       : 1
  3. Format                                   : HEVC
  4. Format/Info                              : High Efficiency Video Coding
  5. Format profile                           : Main 10@L5@Main
  6. HDR format                               : Dolby Vision, Version 1.0, dvhe.08.06, BL+RPU, HDR10 compatible / SMPTE ST 2086, HDR10 compatible
  7. Codec ID                                 : V_MPEGH/ISO/HEVC
  8. Duration                                 : 1 h 56 min
  9. Bit rate                                 : 19.4 Mb/s
  10. Width                                    : 3 840 pixels
  11. Height                                   : 2 160 pixels
  12. Display aspect ratio                     : 16:9
  13. Frame rate mode                          : Constant
  14. Frame rate                               : 24.000 FPS
  15. Color space                              : YUV
  16. Chroma subsampling                       : 4:2:0 (Type 2)
  17. Bit depth                                : 10 bits
  18. Bits/(Pixel*Frame)                       : 0.097
  19. Stream size                              : 15.8 GiB (96%)
  20. Language                                 : English
  21. Default                                  : Yes
  22. Forced                                   : No
  23. Color range                              : Limited
  24. Color primaries                          : BT.2020
  25. Transfer characteristics                 : PQ
  26. Matrix coefficients                      : BT.2020 non-constant
  27. Mastering display color primaries        : Display P3
  28. Mastering display luminance              : min: 0.0001 cd/m2, max: 1000 cd/m2
  29. Maximum Content Light Level              : 756 cd/m2
  30. Maximum Frame-Average Light Level        : 298 cd/m2
  31. Audio
  32. ID                                       : 2
  33. Format                                   : E-AC-3 JOC
  34. Format/Info                              : Enhanced AC-3 with Joint Object Coding
  35. Commercial name                          : Dolby Digital Plus with Dolby Atmos
  36. Codec ID                                 : A_EAC3
  37. Duration                                 : 1 h 58 min
  38. Bit rate mode                            : Constant
  39. Bit rate                                 : 768 kb/s
  40. Channel(s)                               : 6 channels
  41. Channel layout                           : L R C LFE Ls Rs
  42. Sampling rate                            : 48.0 kHz
  43. Frame rate                               : 31.250 FPS (1536 SPF)
  44. Compression mode                         : Lossy
  45. Stream size                              : 652 MiB (4%)
  46. Language                                 : English
  47. Service kind                             : Complete Main
  48. Default                                  : Yes
  49. Forced                                   : No
  50. Complexity index                         : 16
  51. Number of dynamic objects                : 15
  52. Bed channel count                        : 1 channel
  53. Bed channel configuration                : LFE
  54. Text #1
  55. ID                                       : 3
  56. Format                                   : UTF-8
  57. Codec ID                                 : S_TEXT/UTF8
  58. Codec ID/Info                            : UTF-8 Plain Text
  59. Duration                                 : 1 h 47 min
  60. Bit rate                                 : 31 b/s
  61. Frame rate                               : 0.126 FPS
  62. Count of elements                        : 807
  63. Stream size                              : 25.1 KiB (0%)
  64. Language                                 : English
  65. Default                                  : No
  66. Forced                                   : No
  67. Text #2
  68. ID                                       : 4
  69. Format                                   : UTF-8
  70. Codec ID                                 : S_TEXT/UTF8
  71. Codec ID/Info                            : UTF-8 Plain Text
  72. Duration                                 : 1 h 56 min
  73. Bit rate                                 : 36 b/s
  74. Frame rate                               : 0.146 FPS
  75. Count of elements                        : 1016
  76. Stream size                              : 31.4 KiB (0%)
  77. Title                                    : SDH
  78. Language                                 : English
  79. Default                                  : No
  80. Forced                                   : No
  81. Text #3
  82. ID                                       : 5
  83. Format                                   : UTF-8
  84. Codec ID                                 : S_TEXT/UTF8
  85. Codec ID/Info                            : UTF-8 Plain Text
  86. Duration                                 : 1 h 56 min
  87. Bit rate                                 : 48 b/s
  88. Frame rate                               : 0.115 FPS
  89. Count of elements                        : 804
  90. Stream size                              : 41.6 KiB (0%)
  91. Language                                 : Arabic
  92. Default                                  : No
  93. Forced                                   : No
  94. Text #4
  95. ID                                       : 6
  96. Format                                   : UTF-8
  97. Codec ID                                 : S_TEXT/UTF8
  98. Codec ID/Info                            : UTF-8 Plain Text
  99. Duration                                 : 1 h 56 min
  100. Bit rate                                 : 26 b/s
  101. Frame rate                               : 0.114 FPS
  102. Count of elements                        : 798
  103. Stream size                              : 22.6 KiB (0%)
  104. Language                                 : Czech
  105. Default                                  : No
  106. Forced                                   : No
  107. Text #5
  108. ID                                       : 7
  109. Format                                   : UTF-8
  110. Codec ID                                 : S_TEXT/UTF8
  111. Codec ID/Info                            : UTF-8 Plain Text
  112. Duration                                 : 1 h 56 min
  113. Bit rate                                 : 27 b/s
  114. Frame rate                               : 0.110 FPS
  115. Count of elements                        : 770
  116. Stream size                              : 23.4 KiB (0%)
  117. Language                                 : Danish
  118. Default                                  : No
  119. Forced                                   : No
  120. Text #6
  121. ID                                       : 8
  122. Format                                   : UTF-8
  123. Codec ID                                 : S_TEXT/UTF8
  124. Codec ID/Info                            : UTF-8 Plain Text
  125. Duration                                 : 1 h 56 min
  126. Bit rate                                 : 27 b/s
  127. Frame rate                               : 0.114 FPS
  128. Count of elements                        : 797
  129. Stream size                              : 23.1 KiB (0%)
  130. Language                                 : German
  131. Default                                  : No
  132. Forced                                   : No
  133. Text #7
  134. ID                                       : 9
  135. Format                                   : UTF-8
  136. Codec ID                                 : S_TEXT/UTF8
  137. Codec ID/Info                            : UTF-8 Plain Text
  138. Duration                                 : 1 h 48 min
  139. Bit rate                                 : 36 b/s
  140. Frame rate                               : 0.128 FPS
  141. Count of elements                        : 832
  142. Stream size                              : 29.2 KiB (0%)
  143. Language                                 : German
  144. Default                                  : No
  145. Forced                                   : No
  146. Text #8
  147. ID                                       : 10
  148. Format                                   : UTF-8
  149. Codec ID                                 : S_TEXT/UTF8
  150. Codec ID/Info                            : UTF-8 Plain Text
  151. Duration                                 : 1 h 56 min
  152. Bit rate                                 : 49 b/s
  153. Frame rate                               : 0.118 FPS
  154. Count of elements                        : 823
  155. Stream size                              : 41.9 KiB (0%)
  156. Language                                 : Greek
  157. Default                                  : No
  158. Forced                                   : No
  159. Text #9
  160. ID                                       : 11
  161. Format                                   : UTF-8
  162. Codec ID                                 : S_TEXT/UTF8
  163. Codec ID/Info                            : UTF-8 Plain Text
  164. Duration                                 : 1 h 48 min
  165. Bit rate                                 : 31 b/s
  166. Frame rate                               : 0.128 FPS
  167. Count of elements                        : 834
  168. Stream size                              : 25.3 KiB (0%)
  169. Title                                    : Latin American
  170. Language                                 : Spanish (Latin America)
  171. Default                                  : No
  172. Forced                                   : No
  173. Text #10
  174. ID                                       : 12
  175. Format                                   : UTF-8
  176. Codec ID                                 : S_TEXT/UTF8
  177. Codec ID/Info                            : UTF-8 Plain Text
  178. Duration                                 : 1 h 56 min
  179. Bit rate                                 : 27 b/s
  180. Frame rate                               : 0.113 FPS
  181. Count of elements                        : 789
  182. Stream size                              : 23.7 KiB (0%)
  183. Title                                    : Latin American
  184. Language                                 : Spanish (Latin America)
  185. Default                                  : No
  186. Forced                                   : No
  187. Text #11
  188. ID                                       : 13
  189. Format                                   : UTF-8
  190. Codec ID                                 : S_TEXT/UTF8
  191. Codec ID/Info                            : UTF-8 Plain Text
  192. Duration                                 : 1 h 56 min
  193. Bit rate                                 : 26 b/s
  194. Frame rate                               : 0.114 FPS
  195. Count of elements                        : 799
  196. Stream size                              : 22.9 KiB (0%)
  197. Language                                 : Spanish (ES)
  198. Default                                  : No
  199. Forced                                   : No
  200. Text #12
  201. ID                                       : 14
  202. Format                                   : UTF-8
  203. Codec ID                                 : S_TEXT/UTF8
  204. Codec ID/Info                            : UTF-8 Plain Text
  205. Duration                                 : 1 h 56 min
  206. Bit rate                                 : 27 b/s
  207. Frame rate                               : 0.114 FPS
  208. Count of elements                        : 793
  209. Stream size                              : 23.1 KiB (0%)
  210. Language                                 : Finnish
  211. Default                                  : No
  212. Forced                                   : No
  213. Text #13
  214. ID                                       : 15
  215. Format                                   : UTF-8
  216. Codec ID                                 : S_TEXT/UTF8
  217. Codec ID/Info                            : UTF-8 Plain Text
  218. Duration                                 : 1 h 48 min
  219. Bit rate                                 : 32 b/s
  220. Frame rate                               : 0.123 FPS
  221. Count of elements                        : 802
  222. Stream size                              : 25.5 KiB (0%)
  223. Language                                 : fil
  224. Default                                  : No
  225. Forced                                   : No
  226. Text #14
  227. ID                                       : 16
  228. Format                                   : UTF-8
  229. Codec ID                                 : S_TEXT/UTF8
  230. Codec ID/Info                            : UTF-8 Plain Text
  231. Duration                                 : 1 h 56 min
  232. Bit rate                                 : 28 b/s
  233. Frame rate                               : 0.108 FPS
  234. Count of elements                        : 755
  235. Stream size                              : 24.0 KiB (0%)
  236. Language                                 : French
  237. Default                                  : No
  238. Forced                                   : No
  239. Text #15
  240. ID                                       : 17
  241. Format                                   : UTF-8
  242. Codec ID                                 : S_TEXT/UTF8
  243. Codec ID/Info                            : UTF-8 Plain Text
  244. Duration                                 : 1 h 48 min
  245. Bit rate                                 : 37 b/s
  246. Frame rate                               : 0.128 FPS
  247. Count of elements                        : 832
  248. Stream size                              : 30.1 KiB (0%)
  249. Language                                 : French
  250. Default                                  : No
  251. Forced                                   : No
  252. Text #16
  253. ID                                       : 18
  254. Format                                   : UTF-8
  255. Codec ID                                 : S_TEXT/UTF8
  256. Codec ID/Info                            : UTF-8 Plain Text
  257. Duration                                 : 1 h 56 min
  258. Bit rate                                 : 43 b/s
  259. Frame rate                               : 0.115 FPS
  260. Count of elements                        : 801
  261. Stream size                              : 37.3 KiB (0%)
  262. Language                                 : Hebrew
  263. Default                                  : No
  264. Forced                                   : No
  265. Text #17
  266. ID                                       : 19
  267. Format                                   : UTF-8
  268. Codec ID                                 : S_TEXT/UTF8
  269. Codec ID/Info                            : UTF-8 Plain Text
  270. Duration                                 : 1 h 56 min
  271. Bit rate                                 : 26 b/s
  272. Frame rate                               : 0.114 FPS
  273. Count of elements                        : 797
  274. Stream size                              : 22.6 KiB (0%)
  275. Language                                 : Croatian
  276. Default                                  : No
  277. Forced                                   : No
  278. Text #18
  279. ID                                       : 20
  280. Format                                   : UTF-8
  281. Codec ID                                 : S_TEXT/UTF8
  282. Codec ID/Info                            : UTF-8 Plain Text
  283. Duration                                 : 1 h 56 min
  284. Bit rate                                 : 27 b/s
  285. Frame rate                               : 0.112 FPS
  286. Count of elements                        : 785
  287. Stream size                              : 23.5 KiB (0%)
  288. Language                                 : Hungarian
  289. Default                                  : No
  290. Forced                                   : No
  291. Text #19
  292. ID                                       : 21
  293. Format                                   : UTF-8
  294. Codec ID                                 : S_TEXT/UTF8
  295. Codec ID/Info                            : UTF-8 Plain Text
  296. Duration                                 : 1 h 56 min
  297. Bit rate                                 : 27 b/s
  298. Frame rate                               : 0.115 FPS
  299. Count of elements                        : 805
  300. Stream size                              : 23.6 KiB (0%)
  301. Language                                 : Indonesian
  302. Default                                  : No
  303. Forced                                   : No
  304. Text #20
  305. ID                                       : 22
  306. Format                                   : UTF-8
  307. Codec ID                                 : S_TEXT/UTF8
  308. Codec ID/Info                            : UTF-8 Plain Text
  309. Duration                                 : 1 h 56 min
  310. Bit rate                                 : 26 b/s
  311. Frame rate                               : 0.113 FPS
  312. Count of elements                        : 785
  313. Stream size                              : 22.8 KiB (0%)
  314. Language                                 : Italian
  315. Default                                  : No
  316. Forced                                   : No
  317. Text #21
  318. ID                                       : 23
  319. Format                                   : UTF-8
  320. Codec ID                                 : S_TEXT/UTF8
  321. Codec ID/Info                            : UTF-8 Plain Text
  322. Duration                                 : 1 h 48 min
  323. Bit rate                                 : 32 b/s
  324. Frame rate                               : 0.132 FPS
  325. Count of elements                        : 859
  326. Stream size                              : 25.7 KiB (0%)
  327. Language                                 : Italian
  328. Default                                  : No
  329. Forced                                   : No
  330. Text #22
  331. ID                                       : 24
  332. Format                                   : UTF-8
  333. Codec ID                                 : S_TEXT/UTF8
  334. Codec ID/Info                            : UTF-8 Plain Text
  335. Duration                                 : 1 h 56 min
  336. Bit rate                                 : 24 b/s
  337. Frame rate                               : 0.113 FPS
  338. Count of elements                        : 789
  339. Stream size                              : 20.7 KiB (0%)
  340. Language                                 : Japanese
  341. Default                                  : No
  342. Forced                                   : No
  343. Text #23
  344. ID                                       : 25
  345. Format                                   : UTF-8
  346. Codec ID                                 : S_TEXT/UTF8
  347. Codec ID/Info                            : UTF-8 Plain Text
  348. Duration                                 : 1 h 55 min
  349. Bit rate                                 : 29 b/s
  350. Frame rate                               : 0.116 FPS
  351. Count of elements                        : 808
  352. Stream size                              : 24.8 KiB (0%)
  353. Language                                 : Korean
  354. Default                                  : No
  355. Forced                                   : No
  356. Text #24
  357. ID                                       : 26
  358. Format                                   : UTF-8
  359. Codec ID                                 : S_TEXT/UTF8
  360. Codec ID/Info                            : UTF-8 Plain Text
  361. Duration                                 : 1 h 56 min
  362. Bit rate                                 : 28 b/s
  363. Frame rate                               : 0.113 FPS
  364. Count of elements                        : 792
  365. Stream size                              : 24.5 KiB (0%)
  366. Language                                 : Malay
  367. Default                                  : No
  368. Forced                                   : No
  369. Text #25
  370. ID                                       : 27
  371. Format                                   : UTF-8
  372. Codec ID                                 : S_TEXT/UTF8
  373. Codec ID/Info                            : UTF-8 Plain Text
  374. Duration                                 : 1 h 56 min
  375. Bit rate                                 : 27 b/s
  376. Frame rate                               : 0.110 FPS
  377. Count of elements                        : 770
  378. Stream size                              : 23.3 KiB (0%)
  379. Language                                 : Norwegian Bokmal
  380. Default                                  : No
  381. Forced                                   : No
  382. Text #26
  383. ID                                       : 28
  384. Format                                   : UTF-8
  385. Codec ID                                 : S_TEXT/UTF8
  386. Codec ID/Info                            : UTF-8 Plain Text
  387. Duration                                 : 1 h 56 min
  388. Bit rate                                 : 24 b/s
  389. Frame rate                               : 0.104 FPS
  390. Count of elements                        : 723
  391. Stream size                              : 20.6 KiB (0%)
  392. Language                                 : Dutch
  393. Default                                  : No
  394. Forced                                   : No
  395. Text #27
  396. ID                                       : 29
  397. Format                                   : UTF-8
  398. Codec ID                                 : S_TEXT/UTF8
  399. Codec ID/Info                            : UTF-8 Plain Text
  400. Duration                                 : 1 h 56 min
  401. Bit rate                                 : 26 b/s
  402. Frame rate                               : 0.112 FPS
  403. Count of elements                        : 782
  404. Stream size                              : 22.5 KiB (0%)
  405. Language                                 : Polish
  406. Default                                  : No
  407. Forced                                   : No
  408. Text #28
  409. ID                                       : 30
  410. Format                                   : UTF-8
  411. Codec ID                                 : S_TEXT/UTF8
  412. Codec ID/Info                            : UTF-8 Plain Text
  413. Duration                                 : 1 h 48 min
  414. Bit rate                                 : 31 b/s
  415. Frame rate                               : 0.127 FPS
  416. Count of elements                        : 823
  417. Stream size                              : 24.9 KiB (0%)
  418. Title                                    : Brazilian
  419. Language                                 : Portuguese (BR)
  420. Default                                  : No
  421. Forced                                   : No
  422. Text #29
  423. ID                                       : 31
  424. Format                                   : UTF-8
  425. Codec ID                                 : S_TEXT/UTF8
  426. Codec ID/Info                            : UTF-8 Plain Text
  427. Duration                                 : 1 h 56 min
  428. Bit rate                                 : 27 b/s
  429. Frame rate                               : 0.117 FPS
  430. Count of elements                        : 814
  431. Stream size                              : 23.7 KiB (0%)
  432. Title                                    : Brazilian
  433. Language                                 : Portuguese (BR)
  434. Default                                  : No
  435. Forced                                   : No
  436. Text #30
  437. ID                                       : 32
  438. Format                                   : UTF-8
  439. Codec ID                                 : S_TEXT/UTF8
  440. Codec ID/Info                            : UTF-8 Plain Text
  441. Duration                                 : 1 h 56 min
  442. Bit rate                                 : 28 b/s
  443. Frame rate                               : 0.114 FPS
  444. Count of elements                        : 799
  445. Stream size                              : 24.5 KiB (0%)
  446. Language                                 : Portuguese (PT)
  447. Default                                  : No
  448. Forced                                   : No
  449. Text #31
  450. ID                                       : 33
  451. Format                                   : UTF-8
  452. Codec ID                                 : S_TEXT/UTF8
  453. Codec ID/Info                            : UTF-8 Plain Text
  454. Duration                                 : 1 h 56 min
  455. Bit rate                                 : 31 b/s
  456. Frame rate                               : 0.114 FPS
  457. Count of elements                        : 796
  458. Stream size                              : 26.6 KiB (0%)
  459. Language                                 : Romanian
  460. Default                                  : No
  461. Forced                                   : No
  462. Text #32
  463. ID                                       : 34
  464. Format                                   : UTF-8
  465. Codec ID                                 : S_TEXT/UTF8
  466. Codec ID/Info                            : UTF-8 Plain Text
  467. Duration                                 : 1 h 56 min
  468. Bit rate                                 : 44 b/s
  469. Frame rate                               : 0.114 FPS
  470. Count of elements                        : 796
  471. Stream size                              : 37.7 KiB (0%)
  472. Language                                 : Russian
  473. Default                                  : No
  474. Forced                                   : No
  475. Text #33
  476. ID                                       : 35
  477. Format                                   : UTF-8
  478. Codec ID                                 : S_TEXT/UTF8
  479. Codec ID/Info                            : UTF-8 Plain Text
  480. Duration                                 : 1 h 56 min
  481. Bit rate                                 : 28 b/s
  482. Frame rate                               : 0.112 FPS
  483. Count of elements                        : 781
  484. Stream size                              : 23.9 KiB (0%)
  485. Language                                 : Swedish
  486. Default                                  : No
  487. Forced                                   : No
  488. Text #34
  489. ID                                       : 36
  490. Format                                   : UTF-8
  491. Codec ID                                 : S_TEXT/UTF8
  492. Codec ID/Info                            : UTF-8 Plain Text
  493. Duration                                 : 1 h 56 min
  494. Bit rate                                 : 69 b/s
  495. Frame rate                               : 0.115 FPS
  496. Count of elements                        : 802
  497. Stream size                              : 59.1 KiB (0%)
  498. Language                                 : Thai
  499. Default                                  : No
  500. Forced                                   : No
  501. Text #35
  502. ID                                       : 37
  503. Format                                   : UTF-8
  504. Codec ID                                 : S_TEXT/UTF8
  505. Codec ID/Info                            : UTF-8 Plain Text
  506. Duration                                 : 1 h 56 min
  507. Bit rate                                 : 27 b/s
  508. Frame rate                               : 0.114 FPS
  509. Count of elements                        : 795
  510. Stream size                              : 23.5 KiB (0%)
  511. Language                                 : Turkish
  512. Default                                  : No
  513. Forced                                   : No
  514. Text #36
  515. ID                                       : 38
  516. Format                                   : UTF-8
  517. Codec ID                                 : S_TEXT/UTF8
  518. Codec ID/Info                            : UTF-8 Plain Text
  519. Duration                                 : 1 h 56 min
  520. Bit rate                                 : 47 b/s
  521. Frame rate                               : 0.115 FPS
  522. Count of elements                        : 804
  523. Stream size                              : 40.2 KiB (0%)
  524. Language                                 : Ukrainian
  525. Default                                  : No
  526. Forced                                   : No
  527. Text #37
  528. ID                                       : 39
  529. Format                                   : UTF-8
  530. Codec ID                                 : S_TEXT/UTF8
  531. Codec ID/Info                            : UTF-8 Plain Text
  532. Duration                                 : 1 h 56 min
  533. Bit rate                                 : 39 b/s
  534. Frame rate                               : 0.116 FPS
  535. Count of elements                        : 808
  536. Stream size                              : 33.4 KiB (0%)
  537. Language                                 : Vietnamese
  538. Default                                  : No
  539. Forced                                   : No
  540. Text #38
  541. ID                                       : 40
  542. Format                                   : UTF-8
  543. Codec ID                                 : S_TEXT/UTF8
  544. Codec ID/Info                            : UTF-8 Plain Text
  545. Duration                                 : 1 h 56 min
  546. Bit rate                                 : 28 b/s
  547. Frame rate                               : 0.118 FPS
  548. Count of elements                        : 822
  549. Stream size                              : 24.3 KiB (0%)
  550. Title                                    : Simplified
  551. Language                                 : Chinese (Simplied)
  552. Default                                  : No
  553. Forced                                   : No
  554. Text #39
  555. ID                                       : 41
  556. Format                                   : UTF-8
  557. Codec ID                                 : S_TEXT/UTF8
  558. Codec ID/Info                            : UTF-8 Plain Text
  559. Duration                                 : 1 h 56 min
  560. Bit rate                                 : 26 b/s
  561. Frame rate                               : 0.122 FPS
  562. Count of elements                        : 848
  563. Stream size                              : 22.7 KiB (0%)
  564. Title                                    : Traditional
  565. Language                                 : Chinese (Traditional)
  566. Default                                  : No
  567. Forced                                   : No
  568. Menu
  569. 01:52:57.000                             : en:End Credits
复制代码











回复

使用道具 举报

懒得打字嘛,点击右侧快捷回复 【右侧内容,后台自定义】
您需要登录后才可以回帖 登录 | 立即加入

本版积分规则

Copyright © 2024 Comsenz Inc. Powered by 蓝光电影网

本站内容由用户自主分享和转载自互联网,转载目的在于传递更多信息,并不代表本网赞同其观点和对其真实性负责。

如有侵权、违反国家法律政策行为,请联系我们,我们会第一时间及时清除和处理!

举报反馈邮箱:4k1080.com@gmail.com

快速回复 返回顶部 返回列表