找回密码

查看: 1490|回复: 0

[2160p-WEB] 救赎之队:2008美国男篮奥运梦[中文字幕].The.Redeem.Team.2022.2160p.NF.WEB-DL.DDP5.1.Atmos.DV.MKV.x265-OPiUM 13.42GB

[复制链接]
蓝光币
1840
发表于 2023-1-2 14:57:38 | 显示全部楼层 |阅读模式


◎标  题 救赎之队:2008美国男篮奥运梦
◎译  名 死灰复然梦之队 / 救赎之队 / 救赎之队:2008奥运男篮梦(港 / 台)
◎片  名 The Redeem Team
◎年  代 2022
◎产  地 美国
◎类  别 记载片 / 活动
◎语  言 英语
◎上映日期 2022-10-07(美国收集)
◎IMDb评分 7.4/10 (7766人评价)
◎IMDb链接 https://www.imdb.com/title/tt21837726/
◎豆瓣评分 9.0/10 (4214人评价)
◎豆瓣链接 https://movie.douban.com/subject/36077772/
◎片  长 97分钟
◎导  演 乔恩·温巴赫 Jon Weinbach
◎演  员 科比·布莱恩特 Kobe Bryant
       勒布朗·詹姆斯 LeBron James
       德维恩·韦德 Dwyane Wade
       卡梅隆·安东尼 Carmelo Anthony
       卡洛斯·布泽尔 Carlos Boozer
       克里斯·保罗 Chris Paul
       克里斯·波什 Chris Bosh
       杰森·基德 Jason Kidd
       德怀特·霍华德 Dwight Howard
       杰瑞·科朗格洛 Jerry Colangelo
       迈克·克日泽夫斯基 Mike Krzyzewski
       保罗·加索尔 Pau Gasol
       道格·科林斯 Doug Collins
       J·A·艾丹 J.A. Adande
       比尔·普拉施克 Bill Plaschke
       萨姆·史姑娘 Sam Smith
       克里斯·柯林斯 Chris Collins
       麦克·德安东尼 Mike D'Antoni
◎简  介
  《救赎之队:2008 美国男篮奥运梦》收录了史无前例的奥运片断和幕后花絮,报告了继美国男篮在四年前的雅典奥运会上失利后,重征 2008 年北京奥运会的过程。这部记载片活泼刻画了球队若何培育默契,并对德维恩·韦德、勒布朗·詹姆斯、迈克·克日泽夫斯基(K 教练)等运带动和教练停止了深入访谈,他们回首了“救赎之队”如作甚美国篮球建立了新标准。
  1. Video
  2. ID                                       : 1
  3. Format                                   : HEVC
  4. Format/Info                              : High Efficiency Video Coding
  5. Format profile                           : Main 10@L5@Main
  6. HDR format                               : Dolby Vision, Version 1.0, dvhe.05.07, BL+RPU
  7. Codec ID                                 : V_MPEGH/ISO/HEVC
  8. Duration                                 : 1 h 38 min
  9. Bit rate                                 : 18.8 Mb/s
  10. Width                                    : 3 840 pixels
  11. Height                                   : 2 160 pixels
  12. Display aspect ratio                     : 16:9
  13. Frame rate mode                          : Constant
  14. Frame rate                               : 25.000 FPS
  15. Color space                              : YUV
  16. Chroma subsampling                       : 4:2:0
  17. Bit depth                                : 10 bits
  18. Bits/(Pixel*Frame)                       : 0.091
  19. Stream size                              : 12.9 GiB (96%)
  20. Language                                 : English
  21. Default                                  : Yes
  22. Forced                                   : No
  23. Color range                              : Full
  24. Audio
  25. ID                                       : 2
  26. Format                                   : E-AC-3 JOC
  27. Format/Info                              : Enhanced AC-3 with Joint Object Coding
  28. Commercial name                          : Dolby Digital Plus with Dolby Atmos
  29. Codec ID                                 : A_EAC3
  30. Duration                                 : 1 h 38 min
  31. Bit rate mode                            : Constant
  32. Bit rate                                 : 768 kb/s
  33. Channel(s)                               : 6 channels
  34. Channel layout                           : L R C LFE Ls Rs
  35. Sampling rate                            : 48.0 kHz
  36. Frame rate                               : 31.250 FPS (1536 SPF)
  37. Compression mode                         : Lossy
  38. Stream size                              : 539 MiB (4%)
  39. Language                                 : English
  40. Service kind                             : Complete Main
  41. Default                                  : Yes
  42. Forced                                   : No
  43. Complexity index                         : 16
  44. Number of dynamic objects                : 15
  45. Bed channel count                        : 1 channel
  46. Bed channel configuration                : LFE
  47. Text #1
  48. ID                                       : 3
  49. Format                                   : UTF-8
  50. Codec ID                                 : S_TEXT/UTF8
  51. Codec ID/Info                            : UTF-8 Plain Text
  52. Duration                                 : 26 min 27 s
  53. Bit rate                                 : 1 b/s
  54. Frame rate                               : 0.004 FPS
  55. Count of elements                        : 7
  56. Stream size                              : 270 Bytes (0%)
  57. Title                                    : Forced
  58. Language                                 : English
  59. Default                                  : Yes
  60. Forced                                   : Yes
  61. Text #2
  62. ID                                       : 4
  63. Format                                   : UTF-8
  64. Codec ID                                 : S_TEXT/UTF8
  65. Codec ID/Info                            : UTF-8 Plain Text
  66. Duration                                 : 1 h 34 min
  67. Bit rate                                 : 111 b/s
  68. Frame rate                               : 0.299 FPS
  69. Count of elements                        : 1690
  70. Stream size                              : 77.2 KiB (0%)
  71. Language                                 : English
  72. Default                                  : No
  73. Forced                                   : No
  74. Text #3
  75. ID                                       : 5
  76. Format                                   : UTF-8
  77. Codec ID                                 : S_TEXT/UTF8
  78. Codec ID/Info                            : UTF-8 Plain Text
  79. Duration                                 : 1 h 36 min
  80. Bit rate                                 : 121 b/s
  81. Frame rate                               : 0.325 FPS
  82. Count of elements                        : 1878
  83. Stream size                              : 85.8 KiB (0%)
  84. Title                                    : SDH
  85. Language                                 : English
  86. Default                                  : No
  87. Forced                                   : No
  88. Text #4
  89. ID                                       : 6
  90. Format                                   : UTF-8
  91. Codec ID                                 : S_TEXT/UTF8
  92. Codec ID/Info                            : UTF-8 Plain Text
  93. Duration                                 : 1 h 34 min
  94. Bit rate                                 : 183 b/s
  95. Frame rate                               : 0.296 FPS
  96. Count of elements                        : 1674
  97. Stream size                              : 127 KiB (0%)
  98. Language                                 : Arabic
  99. Default                                  : No
  100. Forced                                   : No
  101. Text #5
  102. ID                                       : 7
  103. Format                                   : UTF-8
  104. Codec ID                                 : S_TEXT/UTF8
  105. Codec ID/Info                            : UTF-8 Plain Text
  106. Duration                                 : 1 h 36 min
  107. Bit rate                                 : 98 b/s
  108. Frame rate                               : 0.284 FPS
  109. Count of elements                        : 1641
  110. Stream size                              : 69.2 KiB (0%)
  111. Language                                 : Czech
  112. Default                                  : No
  113. Forced                                   : No
  114. Text #6
  115. ID                                       : 8
  116. Format                                   : UTF-8
  117. Codec ID                                 : S_TEXT/UTF8
  118. Codec ID/Info                            : UTF-8 Plain Text
  119. Duration                                 : 1 h 36 min
  120. Bit rate                                 : 89 b/s
  121. Frame rate                               : 0.228 FPS
  122. Count of elements                        : 1318
  123. Stream size                              : 63.3 KiB (0%)
  124. Language                                 : Danish
  125. Default                                  : No
  126. Forced                                   : No
  127. Text #7
  128. ID                                       : 9
  129. Format                                   : UTF-8
  130. Codec ID                                 : S_TEXT/UTF8
  131. Codec ID/Info                            : UTF-8 Plain Text
  132. Duration                                 : 1 h 36 min
  133. Bit rate                                 : 93 b/s
  134. Frame rate                               : 0.275 FPS
  135. Count of elements                        : 1587
  136. Stream size                              : 66.0 KiB (0%)
  137. Language                                 : German
  138. Default                                  : No
  139. Forced                                   : No
  140. Text #8
  141. ID                                       : 10
  142. Format                                   : UTF-8
  143. Codec ID                                 : S_TEXT/UTF8
  144. Codec ID/Info                            : UTF-8 Plain Text
  145. Duration                                 : 1 h 36 min
  146. Bit rate                                 : 108 b/s
  147. Frame rate                               : 0.272 FPS
  148. Count of elements                        : 1572
  149. Stream size                              : 76.2 KiB (0%)
  150. Language                                 : German
  151. Default                                  : No
  152. Forced                                   : No
  153. Text #9
  154. ID                                       : 11
  155. Format                                   : UTF-8
  156. Codec ID                                 : S_TEXT/UTF8
  157. Codec ID/Info                            : UTF-8 Plain Text
  158. Duration                                 : 1 h 36 min
  159. Bit rate                                 : 116 b/s
  160. Frame rate                               : 0.288 FPS
  161. Count of elements                        : 1666
  162. Stream size                              : 81.9 KiB (0%)
  163. Title                                    : SDH
  164. Language                                 : German
  165. Default                                  : No
  166. Forced                                   : No
  167. Text #10
  168. ID                                       : 12
  169. Format                                   : UTF-8
  170. Codec ID                                 : S_TEXT/UTF8
  171. Codec ID/Info                            : UTF-8 Plain Text
  172. Duration                                 : 1 h 36 min
  173. Bit rate                                 : 173 b/s
  174. Frame rate                               : 0.290 FPS
  175. Count of elements                        : 1676
  176. Stream size                              : 123 KiB (0%)
  177. Language                                 : Greek
  178. Default                                  : No
  179. Forced                                   : No
  180. Text #11
  181. ID                                       : 13
  182. Format                                   : UTF-8
  183. Codec ID                                 : S_TEXT/UTF8
  184. Codec ID/Info                            : UTF-8 Plain Text
  185. Duration                                 : 1 h 34 min
  186. Bit rate                                 : 101 b/s
  187. Frame rate                               : 0.297 FPS
  188. Count of elements                        : 1681
  189. Stream size                              : 70.3 KiB (0%)
  190. Title                                    : Latin American
  191. Language                                 : Spanish (Latin America)
  192. Default                                  : No
  193. Forced                                   : No
  194. Text #12
  195. ID                                       : 14
  196. Format                                   : UTF-8
  197. Codec ID                                 : S_TEXT/UTF8
  198. Codec ID/Info                            : UTF-8 Plain Text
  199. Duration                                 : 1 h 36 min
  200. Bit rate                                 : 97 b/s
  201. Frame rate                               : 0.273 FPS
  202. Count of elements                        : 1576
  203. Stream size                              : 68.8 KiB (0%)
  204. Title                                    : Latin American
  205. Language                                 : Spanish (Latin America)
  206. Default                                  : No
  207. Forced                                   : No
  208. Text #13
  209. ID                                       : 15
  210. Format                                   : UTF-8
  211. Codec ID                                 : S_TEXT/UTF8
  212. Codec ID/Info                            : UTF-8 Plain Text
  213. Duration                                 : 1 h 34 min
  214. Bit rate                                 : 109 b/s
  215. Frame rate                               : 0.315 FPS
  216. Count of elements                        : 1780
  217. Stream size                              : 75.9 KiB (0%)
  218. Title                                    : Latin American (SDH)
  219. Language                                 : Spanish (Latin America)
  220. Default                                  : No
  221. Forced                                   : No
  222. Text #14
  223. ID                                       : 16
  224. Format                                   : UTF-8
  225. Codec ID                                 : S_TEXT/UTF8
  226. Codec ID/Info                            : UTF-8 Plain Text
  227. Duration                                 : 1 h 36 min
  228. Bit rate                                 : 87 b/s
  229. Frame rate                               : 0.281 FPS
  230. Count of elements                        : 1624
  231. Stream size                              : 61.5 KiB (0%)
  232. Language                                 : Spanish (ES)
  233. Default                                  : No
  234. Forced                                   : No
  235. Text #15
  236. ID                                       : 17
  237. Format                                   : UTF-8
  238. Codec ID                                 : S_TEXT/UTF8
  239. Codec ID/Info                            : UTF-8 Plain Text
  240. Duration                                 : 1 h 36 min
  241. Bit rate                                 : 86 b/s
  242. Frame rate                               : 0.257 FPS
  243. Count of elements                        : 1484
  244. Stream size                              : 60.9 KiB (0%)
  245. Language                                 : Finnish
  246. Default                                  : No
  247. Forced                                   : No
  248. Text #16
  249. ID                                       : 18
  250. Format                                   : UTF-8
  251. Codec ID                                 : S_TEXT/UTF8
  252. Codec ID/Info                            : UTF-8 Plain Text
  253. Duration                                 : 1 h 36 min
  254. Bit rate                                 : 96 b/s
  255. Frame rate                               : 0.282 FPS
  256. Count of elements                        : 1632
  257. Stream size                              : 68.1 KiB (0%)
  258. Language                                 : fil
  259. Default                                  : No
  260. Forced                                   : No
  261. Text #17
  262. ID                                       : 19
  263. Format                                   : UTF-8
  264. Codec ID                                 : S_TEXT/UTF8
  265. Codec ID/Info                            : UTF-8 Plain Text
  266. Duration                                 : 1 h 36 min
  267. Bit rate                                 : 97 b/s
  268. Frame rate                               : 0.286 FPS
  269. Count of elements                        : 1655
  270. Stream size                              : 69.1 KiB (0%)
  271. Language                                 : French
  272. Default                                  : No
  273. Forced                                   : No
  274. Text #18
  275. ID                                       : 20
  276. Format                                   : UTF-8
  277. Codec ID                                 : S_TEXT/UTF8
  278. Codec ID/Info                            : UTF-8 Plain Text
  279. Duration                                 : 1 h 36 min
  280. Bit rate                                 : 155 b/s
  281. Frame rate                               : 0.277 FPS
  282. Count of elements                        : 1603
  283. Stream size                              : 110 KiB (0%)
  284. Language                                 : Hebrew
  285. Default                                  : No
  286. Forced                                   : No
  287. Text #19
  288. ID                                       : 21
  289. Format                                   : UTF-8
  290. Codec ID                                 : S_TEXT/UTF8
  291. Codec ID/Info                            : UTF-8 Plain Text
  292. Duration                                 : 1 h 36 min
  293. Bit rate                                 : 89 b/s
  294. Frame rate                               : 0.258 FPS
  295. Count of elements                        : 1492
  296. Stream size                              : 63.1 KiB (0%)
  297. Language                                 : Croatian
  298. Default                                  : No
  299. Forced                                   : No
  300. Text #20
  301. ID                                       : 22
  302. Format                                   : UTF-8
  303. Codec ID                                 : S_TEXT/UTF8
  304. Codec ID/Info                            : UTF-8 Plain Text
  305. Duration                                 : 1 h 36 min
  306. Bit rate                                 : 102 b/s
  307. Frame rate                               : 0.271 FPS
  308. Count of elements                        : 1568
  309. Stream size                              : 72.0 KiB (0%)
  310. Language                                 : Hungarian
  311. Default                                  : No
  312. Forced                                   : No
  313. Text #21
  314. ID                                       : 23
  315. Format                                   : UTF-8
  316. Codec ID                                 : S_TEXT/UTF8
  317. Codec ID/Info                            : UTF-8 Plain Text
  318. Duration                                 : 1 h 36 min
  319. Bit rate                                 : 94 b/s
  320. Frame rate                               : 0.271 FPS
  321. Count of elements                        : 1566
  322. Stream size                              : 66.8 KiB (0%)
  323. Language                                 : Indonesian
  324. Default                                  : No
  325. Forced                                   : No
  326. Text #22
  327. ID                                       : 24
  328. Format                                   : UTF-8
  329. Codec ID                                 : S_TEXT/UTF8
  330. Codec ID/Info                            : UTF-8 Plain Text
  331. Duration                                 : 1 h 36 min
  332. Bit rate                                 : 92 b/s
  333. Frame rate                               : 0.275 FPS
  334. Count of elements                        : 1592
  335. Stream size                              : 64.9 KiB (0%)
  336. Language                                 : Italian
  337. Default                                  : No
  338. Forced                                   : No
  339. Text #23
  340. ID                                       : 25
  341. Format                                   : UTF-8
  342. Codec ID                                 : S_TEXT/UTF8
  343. Codec ID/Info                            : UTF-8 Plain Text
  344. Duration                                 : 1 h 36 min
  345. Bit rate                                 : 123 b/s
  346. Frame rate                               : 0.312 FPS
  347. Count of elements                        : 1801
  348. Stream size                              : 87.4 KiB (0%)
  349. Language                                 : Japanese
  350. Default                                  : No
  351. Forced                                   : No
  352. Text #24
  353. ID                                       : 26
  354. Format                                   : UTF-8
  355. Codec ID                                 : S_TEXT/UTF8
  356. Codec ID/Info                            : UTF-8 Plain Text
  357. Duration                                 : 1 h 36 min
  358. Bit rate                                 : 121 b/s
  359. Frame rate                               : 0.302 FPS
  360. Count of elements                        : 1742
  361. Stream size                              : 85.5 KiB (0%)
  362. Language                                 : Korean
  363. Default                                  : No
  364. Forced                                   : No
  365. Text #25
  366. ID                                       : 27
  367. Format                                   : UTF-8
  368. Codec ID                                 : S_TEXT/UTF8
  369. Codec ID/Info                            : UTF-8 Plain Text
  370. Duration                                 : 1 h 36 min
  371. Bit rate                                 : 91 b/s
  372. Frame rate                               : 0.280 FPS
  373. Count of elements                        : 1616
  374. Stream size                              : 64.8 KiB (0%)
  375. Language                                 : Malay
  376. Default                                  : No
  377. Forced                                   : No
  378. Text #26
  379. ID                                       : 28
  380. Format                                   : UTF-8
  381. Codec ID                                 : S_TEXT/UTF8
  382. Codec ID/Info                            : UTF-8 Plain Text
  383. Duration                                 : 1 h 36 min
  384. Bit rate                                 : 88 b/s
  385. Frame rate                               : 0.243 FPS
  386. Count of elements                        : 1402
  387. Stream size                              : 62.7 KiB (0%)
  388. Language                                 : Norwegian Bokmal
  389. Default                                  : No
  390. Forced                                   : No
  391. Text #27
  392. ID                                       : 29
  393. Format                                   : UTF-8
  394. Codec ID                                 : S_TEXT/UTF8
  395. Codec ID/Info                            : UTF-8 Plain Text
  396. Duration                                 : 1 h 36 min
  397. Bit rate                                 : 86 b/s
  398. Frame rate                               : 0.262 FPS
  399. Count of elements                        : 1515
  400. Stream size                              : 61.2 KiB (0%)
  401. Language                                 : Dutch
  402. Default                                  : No
  403. Forced                                   : No
  404. Text #28
  405. ID                                       : 30
  406. Format                                   : UTF-8
  407. Codec ID                                 : S_TEXT/UTF8
  408. Codec ID/Info                            : UTF-8 Plain Text
  409. Duration                                 : 1 h 36 min
  410. Bit rate                                 : 87 b/s
  411. Frame rate                               : 0.259 FPS
  412. Count of elements                        : 1496
  413. Stream size                              : 61.9 KiB (0%)
  414. Language                                 : Polish
  415. Default                                  : No
  416. Forced                                   : No
  417. Text #29
  418. ID                                       : 31
  419. Format                                   : UTF-8
  420. Codec ID                                 : S_TEXT/UTF8
  421. Codec ID/Info                            : UTF-8 Plain Text
  422. Duration                                 : 1 h 36 min
  423. Bit rate                                 : 97 b/s
  424. Frame rate                               : 0.290 FPS
  425. Count of elements                        : 1676
  426. Stream size                              : 69.0 KiB (0%)
  427. Title                                    : Brazilian
  428. Language                                 : Portuguese (BR)
  429. Default                                  : No
  430. Forced                                   : No
  431. Text #30
  432. ID                                       : 32
  433. Format                                   : UTF-8
  434. Codec ID                                 : S_TEXT/UTF8
  435. Codec ID/Info                            : UTF-8 Plain Text
  436. Duration                                 : 1 h 36 min
  437. Bit rate                                 : 98 b/s
  438. Frame rate                               : 0.288 FPS
  439. Count of elements                        : 1665
  440. Stream size                              : 69.6 KiB (0%)
  441. Language                                 : Portuguese (PT)
  442. Default                                  : No
  443. Forced                                   : No
  444. Text #31
  445. ID                                       : 33
  446. Format                                   : UTF-8
  447. Codec ID                                 : S_TEXT/UTF8
  448. Codec ID/Info                            : UTF-8 Plain Text
  449. Duration                                 : 1 h 36 min
  450. Bit rate                                 : 110 b/s
  451. Frame rate                               : 0.281 FPS
  452. Count of elements                        : 1623
  453. Stream size                              : 78.0 KiB (0%)
  454. Language                                 : Romanian
  455. Default                                  : No
  456. Forced                                   : No
  457. Text #32
  458. ID                                       : 34
  459. Format                                   : UTF-8
  460. Codec ID                                 : S_TEXT/UTF8
  461. Codec ID/Info                            : UTF-8 Plain Text
  462. Duration                                 : 1 h 36 min
  463. Bit rate                                 : 166 b/s
  464. Frame rate                               : 0.299 FPS
  465. Count of elements                        : 1727
  466. Stream size                              : 117 KiB (0%)
  467. Language                                 : Russian
  468. Default                                  : No
  469. Forced                                   : No
  470. Text #33
  471. ID                                       : 35
  472. Format                                   : UTF-8
  473. Codec ID                                 : S_TEXT/UTF8
  474. Codec ID/Info                            : UTF-8 Plain Text
  475. Duration                                 : 1 h 36 min
  476. Bit rate                                 : 91 b/s
  477. Frame rate                               : 0.283 FPS
  478. Count of elements                        : 1635
  479. Stream size                              : 64.7 KiB (0%)
  480. Language                                 : Swedish
  481. Default                                  : No
  482. Forced                                   : No
  483. Text #34
  484. ID                                       : 36
  485. Format                                   : UTF-8
  486. Codec ID                                 : S_TEXT/UTF8
  487. Codec ID/Info                            : UTF-8 Plain Text
  488. Duration                                 : 1 h 36 min
  489. Bit rate                                 : 255 b/s
  490. Frame rate                               : 0.297 FPS
  491. Count of elements                        : 1713
  492. Stream size                              : 180 KiB (0%)
  493. Language                                 : Thai
  494. Default                                  : No
  495. Forced                                   : No
  496. Text #35
  497. ID                                       : 37
  498. Format                                   : UTF-8
  499. Codec ID                                 : S_TEXT/UTF8
  500. Codec ID/Info                            : UTF-8 Plain Text
  501. Duration                                 : 1 h 36 min
  502. Bit rate                                 : 95 b/s
  503. Frame rate                               : 0.283 FPS
  504. Count of elements                        : 1637
  505. Stream size                              : 67.1 KiB (0%)
  506. Language                                 : Turkish
  507. Default                                  : No
  508. Forced                                   : No
  509. Text #36
  510. ID                                       : 38
  511. Format                                   : UTF-8
  512. Codec ID                                 : S_TEXT/UTF8
  513. Codec ID/Info                            : UTF-8 Plain Text
  514. Duration                                 : 1 h 36 min
  515. Bit rate                                 : 163 b/s
  516. Frame rate                               : 0.288 FPS
  517. Count of elements                        : 1667
  518. Stream size                              : 115 KiB (0%)
  519. Language                                 : Ukrainian
  520. Default                                  : No
  521. Forced                                   : No
  522. Text #37
  523. ID                                       : 39
  524. Format                                   : UTF-8
  525. Codec ID                                 : S_TEXT/UTF8
  526. Codec ID/Info                            : UTF-8 Plain Text
  527. Duration                                 : 1 h 36 min
  528. Bit rate                                 : 135 b/s
  529. Frame rate                               : 0.287 FPS
  530. Count of elements                        : 1659
  531. Stream size                              : 95.9 KiB (0%)
  532. Language                                 : Vietnamese
  533. Default                                  : No
  534. Forced                                   : No
  535. Text #38
  536. ID                                       : 40
  537. Format                                   : UTF-8
  538. Codec ID                                 : S_TEXT/UTF8
  539. Codec ID/Info                            : UTF-8 Plain Text
  540. Duration                                 : 1 h 36 min
  541. Bit rate                                 : 84 b/s
  542. Frame rate                               : 0.290 FPS
  543. Count of elements                        : 1678
  544. Stream size                              : 59.9 KiB (0%)
  545. Title                                    : Simplified
  546. Language                                 : Chinese (Simplied)
  547. Default                                  : No
  548. Forced                                   : No
  549. Text #39
  550. ID                                       : 41
  551. Format                                   : UTF-8
  552. Codec ID                                 : S_TEXT/UTF8
  553. Codec ID/Info                            : UTF-8 Plain Text
  554. Duration                                 : 1 h 36 min
  555. Bit rate                                 : 94 b/s
  556. Frame rate                               : 0.294 FPS
  557. Count of elements                        : 1699
  558. Stream size                              : 66.6 KiB (0%)
  559. Title                                    : Traditional
  560. Language                                 : Chinese (Traditional)
  561. Default                                  : No
  562. Forced                                   : No
  563. Menu
  564. 01:34:25.000                             : en:End Credits
复制代码











回复

使用道具 举报

懒得打字嘛,点击右侧快捷回复 【右侧内容,后台自定义】
您需要登录后才可以回帖 登录 | 立即加入

本版积分规则

Copyright © 2024 Comsenz Inc. Powered by 蓝光电影网

本站内容由用户自主分享和转载自互联网,转载目的在于传递更多信息,并不代表本网赞同其观点和对其真实性负责。

如有侵权、违反国家法律政策行为,请联系我们,我们会第一时间及时清除和处理!

举报反馈邮箱:4k1080.com@gmail.com

快速回复 返回顶部 返回列表