找回密码

查看: 1363|回复: 0

[2160p-WEB] 救赎之队:2008美国男篮奥运梦[中文字幕].The.Redeem.Team.2022.2160p.NF.WEB-DL.DDP5.1.Atmos.DV.MP4.x265-DVSUX 13.42GB

[复制链接]
蓝光币
1840
发表于 2023-1-2 14:57:38 | 显示全部楼层 |阅读模式


◎标  题 救赎之队:2008美国男篮奥运梦
◎译  名 死灰复然梦之队 / 救赎之队 / 救赎之队:2008奥运男篮梦(港 / 台)
◎片  名 The Redeem Team
◎年  代 2022
◎产  地 美国
◎类  别 记载片 / 活动
◎语  言 英语
◎上映日期 2022-10-07(美国收集)
◎IMDb评分 7.4/10 (7766人评价)
◎IMDb链接 https://www.imdb.com/title/tt21837726/
◎豆瓣评分 9.0/10 (4214人评价)
◎豆瓣链接 https://movie.douban.com/subject/36077772/
◎片  长 97分钟
◎导  演 乔恩·温巴赫 Jon Weinbach
◎演  员 科比·布莱恩特 Kobe Bryant
       勒布朗·詹姆斯 LeBron James
       德维恩·韦德 Dwyane Wade
       卡梅隆·安东尼 Carmelo Anthony
       卡洛斯·布泽尔 Carlos Boozer
       克里斯·保罗 Chris Paul
       克里斯·波什 Chris Bosh
       杰森·基德 Jason Kidd
       德怀特·霍华德 Dwight Howard
       杰瑞·科朗格洛 Jerry Colangelo
       迈克·克日泽夫斯基 Mike Krzyzewski
       保罗·加索尔 Pau Gasol
       道格·科林斯 Doug Collins
       J·A·艾丹 J.A. Adande
       比尔·普拉施克 Bill Plaschke
       萨姆·史姑娘 Sam Smith
       克里斯·柯林斯 Chris Collins
       麦克·德安东尼 Mike D'Antoni
◎简  介
  《救赎之队:2008 美国男篮奥运梦》收录了史无前例的奥运片断和幕后花絮,报告了继美国男篮在四年前的雅典奥运会上失利后,重征 2008 年北京奥运会的过程。这部记载片活泼刻画了球队若何培育默契,并对德维恩·韦德、勒布朗·詹姆斯、迈克·克日泽夫斯基(K 教练)等运带动和教练停止了深入访谈,他们回首了“救赎之队”如作甚美国篮球建立了新标准。
  1. Video
  2. ID                                       : 1
  3. Format                                   : HEVC
  4. Format/Info                              : High Efficiency Video Coding
  5. Format profile                           : Main 10@L5@Main
  6. HDR format                               : Dolby Vision, Version 1.0, dvhe.05.07, BL+RPU
  7. Codec ID                                 : dvhe
  8. Codec ID/Info                            : High Efficiency Video Coding with Dolby Vision
  9. Duration                                 : 1 h 38 min
  10. Bit rate                                 : 18.8 Mb/s
  11. Width                                    : 3 840 pixels
  12. Height                                   : 2 160 pixels
  13. Display aspect ratio                     : 16:9
  14. Frame rate mode                          : Constant
  15. Frame rate                               : 25.000 FPS
  16. Color space                              : YUV
  17. Chroma subsampling                       : 4:2:0
  18. Bit depth                                : 10 bits
  19. Bits/(Pixel*Frame)                       : 0.091
  20. Stream size                              : 12.9 GiB (96%)
  21. Default                                  : Yes
  22. Alternate group                          : 1
  23. Encoded date                             : UTC 2023-01-01 14:13:40
  24. Tagged date                              : UTC 2023-01-01 14:16:55
  25. Color range                              : Full
  26. Codec configuration box                  : hvcC+dvcC
  27. Audio
  28. ID                                       : 2
  29. Format                                   : E-AC-3 JOC
  30. Format/Info                              : Enhanced AC-3 with Joint Object Coding
  31. Commercial name                          : Dolby Digital Plus with Dolby Atmos
  32. Codec ID                                 : ec-3
  33. Duration                                 : 1 h 38 min
  34. Bit rate mode                            : Constant
  35. Bit rate                                 : 768 kb/s
  36. Maximum bit rate                         : 811 kb/s
  37. Channel(s)                               : 6 channels
  38. Channel layout                           : L R C LFE Ls Rs
  39. Sampling rate                            : 48.0 kHz
  40. Frame rate                               : 31.250 FPS (1536 SPF)
  41. Compression mode                         : Lossy
  42. Stream size                              : 539 MiB (4%)
  43. Title                                    : English
  44. Language                                 : English
  45. Service kind                             : Complete Main
  46. Default                                  : Yes
  47. Alternate group                          : 1
  48. Tagged date                              : UTC 2023-01-01 14:16:55
  49. Complexity index                         : Not present / 16
  50. Number of dynamic objects                : 15
  51. Bed channel count                        : 1 channel
  52. Bed channel configuration                : LFE
  53. Text #1
  54. ID                                       : 3
  55. Format                                   : Timed Text
  56. Codec ID                                 : tx3g
  57. Duration                                 : 1 h 34 min
  58. Bit rate mode                            : Variable
  59. Bit rate                                 : 130 b/s
  60. Frame rate                               : 0.597 FPS
  61. Stream size                              : 90.1 KiB (0%)
  62. Title                                    : English
  63. Language                                 : English
  64. Forced                                   : No
  65. Encoded date                             : UTC 2023-01-01 14:16:51
  66. Tagged date                              : UTC 2023-01-01 14:16:55
  67. Text #2
  68. ID                                       : 4
  69. Format                                   : Timed Text
  70. Codec ID                                 : tx3g
  71. Duration                                 : 1 h 36 min
  72. Bit rate mode                            : Variable
  73. Bit rate                                 : 141 b/s
  74. Frame rate                               : 0.649 FPS
  75. Stream size                              : 99.8 KiB (0%)
  76. Title                                    : English
  77. Language                                 : English
  78. Forced                                   : No
  79. Encoded date                             : UTC 2023-01-01 14:16:51
  80. Tagged date                              : UTC 2023-01-01 14:16:55
  81. Text #3
  82. ID                                       : 5
  83. Format                                   : Timed Text
  84. Codec ID                                 : tx3g
  85. Duration                                 : 1 h 33 min
  86. Bit rate mode                            : Variable
  87. Bit rate                                 : 0 b/s
  88. Frame rate                               : 0.003 FPS
  89. Stream size                              : 296 Bytes (0%)
  90. Title                                    : English
  91. Language                                 : English
  92. Forced                                   : No
  93. Encoded date                             : UTC 2023-01-01 14:16:51
  94. Tagged date                              : UTC 2023-01-01 14:16:55
  95. Text #4
  96. ID                                       : 6
  97. Format                                   : Timed Text
  98. Codec ID                                 : tx3g
  99. Duration                                 : 1 h 34 min
  100. Bit rate mode                            : Variable
  101. Bit rate                                 : 192 b/s
  102. Frame rate                               : 0.591 FPS
  103. Stream size                              : 133 KiB (0%)
  104. Title                                    : Arabic
  105. Language                                 : Arabic
  106. Forced                                   : No
  107. Encoded date                             : UTC 2023-01-01 14:16:51
  108. Tagged date                              : UTC 2023-01-01 14:16:55
  109. Text #5
  110. ID                                       : 7
  111. Format                                   : Timed Text
  112. Codec ID                                 : tx3g
  113. Duration                                 : 1 h 36 min
  114. Bit rate mode                            : Variable
  115. Bit rate                                 : 94 b/s
  116. Frame rate                               : 0.580 FPS
  117. Stream size                              : 66.2 KiB (0%)
  118. Title                                    : Chinese-Simplified
  119. Language                                 : Chinese (Simplied)
  120. Forced                                   : No
  121. Encoded date                             : UTC 2023-01-01 14:16:51
  122. Tagged date                              : UTC 2023-01-01 14:16:55
  123. Text #6
  124. ID                                       : 8
  125. Format                                   : Timed Text
  126. Codec ID                                 : tx3g
  127. Duration                                 : 1 h 36 min
  128. Bit rate mode                            : Variable
  129. Bit rate                                 : 103 b/s
  130. Frame rate                               : 0.587 FPS
  131. Stream size                              : 72.9 KiB (0%)
  132. Title                                    : Chinese-Traditional
  133. Language                                 : Chinese (Traditional)
  134. Forced                                   : No
  135. Encoded date                             : UTC 2023-01-01 14:16:52
  136. Tagged date                              : UTC 2023-01-01 14:16:55
  137. Text #7
  138. ID                                       : 9
  139. Format                                   : Timed Text
  140. Codec ID                                 : tx3g
  141. Duration                                 : 1 h 36 min
  142. Bit rate mode                            : Variable
  143. Bit rate                                 : 105 b/s
  144. Frame rate                               : 0.516 FPS
  145. Stream size                              : 74.0 KiB (0%)
  146. Title                                    : Croatian
  147. Language                                 : Croatian
  148. Forced                                   : No
  149. Encoded date                             : UTC 2023-01-01 14:16:52
  150. Tagged date                              : UTC 2023-01-01 14:16:55
  151. Text #8
  152. ID                                       : 10
  153. Format                                   : Timed Text
  154. Codec ID                                 : tx3g
  155. Duration                                 : 1 h 36 min
  156. Bit rate mode                            : Variable
  157. Bit rate                                 : 116 b/s
  158. Frame rate                               : 0.567 FPS
  159. Stream size                              : 81.7 KiB (0%)
  160. Title                                    : Czech
  161. Language                                 : Czech
  162. Forced                                   : No
  163. Encoded date                             : UTC 2023-01-01 14:16:52
  164. Tagged date                              : UTC 2023-01-01 14:16:55
  165. Text #9
  166. ID                                       : 11
  167. Format                                   : Timed Text
  168. Codec ID                                 : tx3g
  169. Duration                                 : 1 h 36 min
  170. Bit rate mode                            : Variable
  171. Bit rate                                 : 104 b/s
  172. Frame rate                               : 0.456 FPS
  173. Stream size                              : 73.5 KiB (0%)
  174. Title                                    : Danish
  175. Language                                 : Danish
  176. Forced                                   : No
  177. Encoded date                             : UTC 2023-01-01 14:16:52
  178. Tagged date                              : UTC 2023-01-01 14:16:55
  179. Text #10
  180. ID                                       : 12
  181. Format                                   : Timed Text
  182. Codec ID                                 : tx3g
  183. Duration                                 : 1 h 36 min
  184. Bit rate mode                            : Variable
  185. Bit rate                                 : 94 b/s
  186. Frame rate                               : 0.524 FPS
  187. Stream size                              : 66.6 KiB (0%)
  188. Title                                    : Dutch
  189. Language                                 : Dutch
  190. Forced                                   : No
  191. Encoded date                             : UTC 2023-01-01 14:16:52
  192. Tagged date                              : UTC 2023-01-01 14:16:55
  193. Text #11
  194. ID                                       : 13
  195. Format                                   : Timed Text
  196. Codec ID                                 : tx3g
  197. Duration                                 : 1 h 36 min
  198. Bit rate mode                            : Variable
  199. Bit rate                                 : 114 b/s
  200. Frame rate                               : 0.564 FPS
  201. Stream size                              : 80.3 KiB (0%)
  202. Title                                    : Filipino
  203. Language                                 : fil
  204. Forced                                   : No
  205. Encoded date                             : UTC 2023-01-01 14:16:52
  206. Tagged date                              : UTC 2023-01-01 14:16:55
  207. Text #12
  208. ID                                       : 14
  209. Format                                   : Timed Text
  210. Codec ID                                 : tx3g
  211. Duration                                 : 1 h 36 min
  212. Bit rate mode                            : Variable
  213. Bit rate                                 : 102 b/s
  214. Frame rate                               : 0.513 FPS
  215. Stream size                              : 72.1 KiB (0%)
  216. Title                                    : Finnish
  217. Language                                 : Finnish
  218. Forced                                   : No
  219. Encoded date                             : UTC 2023-01-01 14:16:52
  220. Tagged date                              : UTC 2023-01-01 14:16:55
  221. Text #13
  222. ID                                       : 15
  223. Format                                   : Timed Text
  224. Codec ID                                 : tx3g
  225. Duration                                 : 1 h 36 min
  226. Bit rate mode                            : Variable
  227. Bit rate                                 : 116 b/s
  228. Frame rate                               : 0.572 FPS
  229. Stream size                              : 81.8 KiB (0%)
  230. Title                                    : French
  231. Language                                 : French
  232. Forced                                   : No
  233. Encoded date                             : UTC 2023-01-01 14:16:52
  234. Tagged date                              : UTC 2023-01-01 14:16:55
  235. Text #14
  236. ID                                       : 16
  237. Format                                   : Timed Text
  238. Codec ID                                 : tx3g
  239. Duration                                 : 1 h 36 min
  240. Bit rate mode                            : Variable
  241. Bit rate                                 : 133 b/s
  242. Frame rate                               : 0.576 FPS
  243. Stream size                              : 94.2 KiB (0%)
  244. Title                                    : German
  245. Language                                 : German
  246. Forced                                   : No
  247. Encoded date                             : UTC 2023-01-01 14:16:52
  248. Tagged date                              : UTC 2023-01-01 14:16:55
  249. Text #15
  250. ID                                       : 17
  251. Format                                   : Timed Text
  252. Codec ID                                 : tx3g
  253. Duration                                 : 1 h 36 min
  254. Bit rate mode                            : Variable
  255. Bit rate                                 : 110 b/s
  256. Frame rate                               : 0.549 FPS
  257. Stream size                              : 77.8 KiB (0%)
  258. Title                                    : German
  259. Language                                 : German
  260. Forced                                   : No
  261. Encoded date                             : UTC 2023-01-01 14:16:53
  262. Tagged date                              : UTC 2023-01-01 14:16:55
  263. Text #16
  264. ID                                       : 18
  265. Format                                   : Timed Text
  266. Codec ID                                 : tx3g
  267. Duration                                 : 1 h 36 min
  268. Bit rate mode                            : Variable
  269. Bit rate                                 : 125 b/s
  270. Frame rate                               : 0.543 FPS
  271. Stream size                              : 88.1 KiB (0%)
  272. Title                                    : German
  273. Language                                 : German
  274. Forced                                   : No
  275. Encoded date                             : UTC 2023-01-01 14:16:53
  276. Tagged date                              : UTC 2023-01-01 14:16:55
  277. Text #17
  278. ID                                       : 19
  279. Format                                   : Timed Text
  280. Codec ID                                 : tx3g
  281. Duration                                 : 1 h 36 min
  282. Bit rate mode                            : Variable
  283. Bit rate                                 : 191 b/s
  284. Frame rate                               : 0.579 FPS
  285. Stream size                              : 135 KiB (0%)
  286. Title                                    : Greek
  287. Language                                 : Greek
  288. Forced                                   : No
  289. Encoded date                             : UTC 2023-01-01 14:16:53
  290. Tagged date                              : UTC 2023-01-01 14:16:55
  291. Text #18
  292. ID                                       : 20
  293. Format                                   : Timed Text
  294. Codec ID                                 : tx3g
  295. Duration                                 : 1 h 36 min
  296. Bit rate mode                            : Variable
  297. Bit rate                                 : 163 b/s
  298. Frame rate                               : 0.554 FPS
  299. Stream size                              : 115 KiB (0%)
  300. Title                                    : Hebrew
  301. Language                                 : Hebrew
  302. Forced                                   : No
  303. Encoded date                             : UTC 2023-01-01 14:16:53
  304. Tagged date                              : UTC 2023-01-01 14:16:55
  305. Text #19
  306. ID                                       : 21
  307. Format                                   : Timed Text
  308. Codec ID                                 : tx3g
  309. Duration                                 : 1 h 36 min
  310. Bit rate mode                            : Variable
  311. Bit rate                                 : 119 b/s
  312. Frame rate                               : 0.542 FPS
  313. Stream size                              : 83.8 KiB (0%)
  314. Title                                    : Hungarian
  315. Language                                 : Hungarian
  316. Forced                                   : No
  317. Encoded date                             : UTC 2023-01-01 14:16:53
  318. Tagged date                              : UTC 2023-01-01 14:16:55
  319. Text #20
  320. ID                                       : 22
  321. Format                                   : Timed Text
  322. Codec ID                                 : tx3g
  323. Duration                                 : 1 h 36 min
  324. Bit rate mode                            : Variable
  325. Bit rate                                 : 112 b/s
  326. Frame rate                               : 0.541 FPS
  327. Stream size                              : 78.8 KiB (0%)
  328. Title                                    : Indonesian
  329. Language                                 : Indonesian
  330. Forced                                   : No
  331. Encoded date                             : UTC 2023-01-01 14:16:53
  332. Tagged date                              : UTC 2023-01-01 14:16:55
  333. Text #21
  334. ID                                       : 23
  335. Format                                   : Timed Text
  336. Codec ID                                 : tx3g
  337. Duration                                 : 1 h 36 min
  338. Bit rate mode                            : Variable
  339. Bit rate                                 : 109 b/s
  340. Frame rate                               : 0.550 FPS
  341. Stream size                              : 77.1 KiB (0%)
  342. Title                                    : Italian
  343. Language                                 : Italian
  344. Forced                                   : No
  345. Encoded date                             : UTC 2023-01-01 14:16:53
  346. Tagged date                              : UTC 2023-01-01 14:16:55
  347. Text #22
  348. ID                                       : 24
  349. Format                                   : Timed Text
  350. Codec ID                                 : tx3g
  351. Duration                                 : 1 h 36 min
  352. Bit rate mode                            : Variable
  353. Bit rate                                 : 131 b/s
  354. Frame rate                               : 0.569 FPS
  355. Stream size                              : 92.6 KiB (0%)
  356. Title                                    : Japanese
  357. Language                                 : Japanese
  358. Forced                                   : No
  359. Encoded date                             : UTC 2023-01-01 14:16:53
  360. Tagged date                              : UTC 2023-01-01 14:16:55
  361. Text #23
  362. ID                                       : 25
  363. Format                                   : Timed Text
  364. Codec ID                                 : tx3g
  365. Duration                                 : 1 h 36 min
  366. Bit rate mode                            : Variable
  367. Bit rate                                 : 130 b/s
  368. Frame rate                               : 0.603 FPS
  369. Stream size                              : 91.4 KiB (0%)
  370. Title                                    : Korean
  371. Language                                 : Korean
  372. Forced                                   : No
  373. Encoded date                             : UTC 2023-01-01 14:16:53
  374. Tagged date                              : UTC 2023-01-01 14:16:55
  375. Text #24
  376. ID                                       : 26
  377. Format                                   : Timed Text
  378. Codec ID                                 : tx3g
  379. Duration                                 : 1 h 36 min
  380. Bit rate mode                            : Variable
  381. Bit rate                                 : 109 b/s
  382. Frame rate                               : 0.559 FPS
  383. Stream size                              : 77.1 KiB (0%)
  384. Title                                    : Malay
  385. Language                                 : Malay
  386. Forced                                   : No
  387. Encoded date                             : UTC 2023-01-01 14:16:54
  388. Tagged date                              : UTC 2023-01-01 14:16:55
  389. Text #25
  390. ID                                       : 27
  391. Format                                   : Timed Text
  392. Codec ID                                 : tx3g
  393. Duration                                 : 1 h 36 min
  394. Bit rate mode                            : Variable
  395. Bit rate                                 : 104 b/s
  396. Frame rate                               : 0.485 FPS
  397. Stream size                              : 73.4 KiB (0%)
  398. Title                                    : Norwegian
  399. Language                                 : Norwegian Bokmal
  400. Forced                                   : No
  401. Encoded date                             : UTC 2023-01-01 14:16:54
  402. Tagged date                              : UTC 2023-01-01 14:16:55
  403. Text #26
  404. ID                                       : 28
  405. Format                                   : Timed Text
  406. Codec ID                                 : tx3g
  407. Duration                                 : 1 h 36 min
  408. Bit rate mode                            : Variable
  409. Bit rate                                 : 104 b/s
  410. Frame rate                               : 0.517 FPS
  411. Stream size                              : 73.4 KiB (0%)
  412. Title                                    : Polish
  413. Language                                 : Polish
  414. Forced                                   : No
  415. Encoded date                             : UTC 2023-01-01 14:16:54
  416. Tagged date                              : UTC 2023-01-01 14:16:55
  417. Text #27
  418. ID                                       : 29
  419. Format                                   : Timed Text
  420. Codec ID                                 : tx3g
  421. Duration                                 : 1 h 36 min
  422. Bit rate mode                            : Variable
  423. Bit rate                                 : 116 b/s
  424. Frame rate                               : 0.576 FPS
  425. Stream size                              : 82.2 KiB (0%)
  426. Title                                    : Portuguese
  427. Language                                 : Portuguese
  428. Forced                                   : No
  429. Encoded date                             : UTC 2023-01-01 14:16:54
  430. Tagged date                              : UTC 2023-01-01 14:16:55
  431. Text #28
  432. ID                                       : 30
  433. Format                                   : Timed Text
  434. Codec ID                                 : tx3g
  435. Duration                                 : 1 h 36 min
  436. Bit rate mode                            : Variable
  437. Bit rate                                 : 116 b/s
  438. Frame rate                               : 0.579 FPS
  439. Stream size                              : 81.8 KiB (0%)
  440. Title                                    : Portuguese-BR
  441. Language                                 : Portuguese (BR)
  442. Forced                                   : No
  443. Encoded date                             : UTC 2023-01-01 14:16:54
  444. Tagged date                              : UTC 2023-01-01 14:16:55
  445. Text #29
  446. ID                                       : 31
  447. Format                                   : Timed Text
  448. Codec ID                                 : tx3g
  449. Duration                                 : 1 h 36 min
  450. Bit rate mode                            : Variable
  451. Bit rate                                 : 128 b/s
  452. Frame rate                               : 0.561 FPS
  453. Stream size                              : 90.1 KiB (0%)
  454. Title                                    : Romanian
  455. Language                                 : Romanian
  456. Forced                                   : No
  457. Encoded date                             : UTC 2023-01-01 14:16:54
  458. Tagged date                              : UTC 2023-01-01 14:16:55
  459. Text #30
  460. ID                                       : 32
  461. Format                                   : Timed Text
  462. Codec ID                                 : tx3g
  463. Duration                                 : 1 h 36 min
  464. Bit rate mode                            : Variable
  465. Bit rate                                 : 185 b/s
  466. Frame rate                               : 0.597 FPS
  467. Stream size                              : 131 KiB (0%)
  468. Title                                    : Russian
  469. Language                                 : Russian
  470. Forced                                   : No
  471. Encoded date                             : UTC 2023-01-01 14:16:54
  472. Tagged date                              : UTC 2023-01-01 14:16:55
  473. Text #31
  474. ID                                       : 33
  475. Format                                   : Timed Text
  476. Codec ID                                 : tx3g
  477. Duration                                 : 1 h 34 min
  478. Bit rate mode                            : Variable
  479. Bit rate                                 : 129 b/s
  480. Frame rate                               : 0.629 FPS
  481. Stream size                              : 89.1 KiB (0%)
  482. Title                                    : Spanish
  483. Language                                 : Spanish (150)
  484. Forced                                   : No
  485. Encoded date                             : UTC 2023-01-01 14:16:54
  486. Tagged date                              : UTC 2023-01-01 14:16:55
  487. Text #32
  488. ID                                       : 34
  489. Format                                   : Timed Text
  490. Codec ID                                 : tx3g
  491. Duration                                 : 1 h 34 min
  492. Bit rate mode                            : Variable
  493. Bit rate                                 : 120 b/s
  494. Frame rate                               : 0.594 FPS
  495. Stream size                              : 83.0 KiB (0%)
  496. Title                                    : Spanish
  497. Language                                 : Spanish (150)
  498. Forced                                   : No
  499. Encoded date                             : UTC 2023-01-01 14:16:54
  500. Tagged date                              : UTC 2023-01-01 14:16:55
  501. Text #33
  502. ID                                       : 35
  503. Format                                   : Timed Text
  504. Codec ID                                 : tx3g
  505. Duration                                 : 1 h 36 min
  506. Bit rate mode                            : Variable
  507. Bit rate                                 : 114 b/s
  508. Frame rate                               : 0.545 FPS
  509. Stream size                              : 80.7 KiB (0%)
  510. Title                                    : Spanish
  511. Language                                 : Spanish (150)
  512. Forced                                   : No
  513. Encoded date                             : UTC 2023-01-01 14:16:55
  514. Tagged date                              : UTC 2023-01-01 14:16:55
  515. Text #34
  516. ID                                       : 36
  517. Format                                   : Timed Text
  518. Codec ID                                 : tx3g
  519. Duration                                 : 1 h 36 min
  520. Bit rate mode                            : Variable
  521. Bit rate                                 : 104 b/s
  522. Frame rate                               : 0.561 FPS
  523. Stream size                              : 73.8 KiB (0%)
  524. Title                                    : Spanish-EU
  525. Language                                 : Spanish
  526. Forced                                   : No
  527. Encoded date                             : UTC 2023-01-01 14:16:55
  528. Tagged date                              : UTC 2023-01-01 14:16:55
  529. Text #35
  530. ID                                       : 37
  531. Format                                   : Timed Text
  532. Codec ID                                 : tx3g
  533. Duration                                 : 1 h 36 min
  534. Bit rate mode                            : Variable
  535. Bit rate                                 : 109 b/s
  536. Frame rate                               : 0.565 FPS
  537. Stream size                              : 77.0 KiB (0%)
  538. Title                                    : Swedish
  539. Language                                 : Swedish
  540. Forced                                   : No
  541. Encoded date                             : UTC 2023-01-01 14:16:55
  542. Tagged date                              : UTC 2023-01-01 14:16:55
  543. Text #36
  544. ID                                       : 38
  545. Format                                   : Timed Text
  546. Codec ID                                 : tx3g
  547. Duration                                 : 1 h 36 min
  548. Bit rate mode                            : Variable
  549. Bit rate                                 : 264 b/s
  550. Frame rate                               : 0.593 FPS
  551. Stream size                              : 186 KiB (0%)
  552. Title                                    : Thai
  553. Language                                 : Thai
  554. Forced                                   : No
  555. Encoded date                             : UTC 2023-01-01 14:16:55
  556. Tagged date                              : UTC 2023-01-01 14:16:55
  557. Text #37
  558. ID                                       : 39
  559. Format                                   : Timed Text
  560. Codec ID                                 : tx3g
  561. Duration                                 : 1 h 36 min
  562. Bit rate mode                            : Variable
  563. Bit rate                                 : 113 b/s
  564. Frame rate                               : 0.566 FPS
  565. Stream size                              : 79.7 KiB (0%)
  566. Title                                    : Turkish
  567. Language                                 : Turkish
  568. Forced                                   : No
  569. Encoded date                             : UTC 2023-01-01 14:16:55
  570. Tagged date                              : UTC 2023-01-01 14:16:55
  571. Text #38
  572. ID                                       : 40
  573. Format                                   : Timed Text
  574. Codec ID                                 : tx3g
  575. Duration                                 : 1 h 36 min
  576. Bit rate mode                            : Variable
  577. Bit rate                                 : 181 b/s
  578. Frame rate                               : 0.576 FPS
  579. Stream size                              : 128 KiB (0%)
  580. Title                                    : Ukrainian
  581. Language                                 : Ukrainian
  582. Forced                                   : No
  583. Encoded date                             : UTC 2023-01-01 14:16:55
  584. Tagged date                              : UTC 2023-01-01 14:16:55
  585. Text #39
  586. ID                                       : 41
  587. Format                                   : Timed Text
  588. Codec ID                                 : tx3g
  589. Duration                                 : 1 h 36 min
  590. Bit rate mode                            : Variable
  591. Bit rate                                 : 153 b/s
  592. Frame rate                               : 0.574 FPS
  593. Stream size                              : 108 KiB (0%)
  594. Title                                    : Vietnamese
  595. Language                                 : Vietnamese
  596. Forced                                   : No
  597. Encoded date                             : UTC 2023-01-01 14:16:55
  598. Tagged date                              : UTC 2023-01-01 14:16:55
复制代码











回复

使用道具 举报

懒得打字嘛,点击右侧快捷回复 【右侧内容,后台自定义】
您需要登录后才可以回帖 登录 | 立即加入

本版积分规则

Copyright © 2024 Comsenz Inc. Powered by 蓝光电影网

本站内容由用户自主分享和转载自互联网,转载目的在于传递更多信息,并不代表本网赞同其观点和对其真实性负责。

如有侵权、违反国家法律政策行为,请联系我们,我们会第一时间及时清除和处理!

举报反馈邮箱:4k1080.com@gmail.com

快速回复 返回顶部 返回列表