找回密码

查看: 1500|回复: 0

[2160p-WEB] 正义黑客[中文字幕].The.Takeover.2022.DUTCH.2160p.NF.WEB-DL.x265.10bit.HDR.DDP5.1-PMS 7.18GB

[复制链接]
蓝光币
1840
发表于 2023-1-2 14:57:39 | 显示全部楼层 |阅读模式


◎标  题 正义黑客
◎译  名 黑客英雌 / 接收
◎片  名 The Takeover
◎年  代 2022
◎产  地 荷兰
◎类  别 行动 / 惊悚
◎语  言 荷兰语 / 英语
◎上映日期 2022-11-01(奈飞收集)
◎IMDb评分 5.2/10 (3356人评价)
◎IMDb链接 https://www.imdb.com/title/tt18082758/
◎豆瓣评分 4.7/10 (151人评价)
◎豆瓣链接 https://movie.douban.com/subject/36118242/
◎片  长 87分钟
◎导  演 安玛丽·范·德蒙 Annemarie van de Mond
◎编  剧 Tijs van Marle Tijs van Marle
◎演  员 盖扎·威兹 Geza Weisz
       弗兰克·拉默斯 Frank Lammers
       苏珊·雷德尔 Susan Radder
       Walid Benmbarek Walid Benmbarek
        Jenny Hsia
◎简  介
  自诩为道德黑客的梅尔·班迪森阻止了一路数据泄露事务,同时也封闭了一个国际犯罪收集,这让她的生活发生了天翻地覆的变化。然后她就成为了方针,并被一段深度捏造的视频“显现”她谋杀了某人。她在一个相亲时熟悉的熟人帮助下开启流亡生活,然后尽一切尽力证实自己的明净。
  1. Video
  2. ID                                       : 1
  3. Format                                   : HEVC
  4. Format/Info                              : High Efficiency Video Coding
  5. Format profile                           : Main 10@L5@Main
  6. HDR format                               : Dolby Vision, Version 1.0, dvhe.08.07, BL+RPU, HDR10 compatible / SMPTE ST 2086, HDR10 compatible
  7. Codec ID                                 : V_MPEGH/ISO/HEVC
  8. Duration                                 : 1 h 26 min
  9. Bit rate                                 : 11.2 Mb/s
  10. Width                                    : 3 840 pixels
  11. Height                                   : 2 160 pixels
  12. Display aspect ratio                     : 16:9
  13. Frame rate mode                          : Constant
  14. Frame rate                               : 25.000 FPS
  15. Color space                              : YUV
  16. Chroma subsampling                       : 4:2:0 (Type 2)
  17. Bit depth                                : 10 bits
  18. Bits/(Pixel*Frame)                       : 0.054
  19. Stream size                              : 6.78 GiB (94%)
  20. Language                                 : Dutch
  21. Default                                  : Yes
  22. Forced                                   : No
  23. Color range                              : Limited
  24. Color primaries                          : BT.2020
  25. Transfer characteristics                 : PQ
  26. Matrix coefficients                      : BT.2020 non-constant
  27. Mastering display color primaries        : Display P3
  28. Mastering display luminance              : min: 0.0001 cd/m2, max: 1000 cd/m2
  29. Maximum Content Light Level              : 1267 cd/m2
  30. Maximum Frame-Average Light Level        : 552 cd/m2
  31. Audio
  32. ID                                       : 2
  33. Format                                   : E-AC-3
  34. Format/Info                              : Enhanced AC-3
  35. Commercial name                          : Dolby Digital Plus
  36. Codec ID                                 : A_EAC3
  37. Duration                                 : 1 h 28 min
  38. Bit rate mode                            : Constant
  39. Bit rate                                 : 640 kb/s
  40. Channel(s)                               : 6 channels
  41. Channel layout                           : L R C LFE Ls Rs
  42. Sampling rate                            : 48.0 kHz
  43. Frame rate                               : 31.250 FPS (1536 SPF)
  44. Compression mode                         : Lossy
  45. Stream size                              : 405 MiB (6%)
  46. Language                                 : Dutch
  47. Service kind                             : Complete Main
  48. Default                                  : Yes
  49. Forced                                   : No
  50. Text #1
  51. ID                                       : 3
  52. Format                                   : UTF-8
  53. Codec ID                                 : S_TEXT/UTF8
  54. Codec ID/Info                            : UTF-8 Plain Text
  55. Duration                                 : 1 h 23 min
  56. Bit rate                                 : 11 b/s
  57. Frame rate                               : 0.035 FPS
  58. Count of elements                        : 177
  59. Stream size                              : 6.77 KiB (0%)
  60. Title                                    : Forced
  61. Language                                 : Dutch
  62. Default                                  : Yes
  63. Forced                                   : Yes
  64. Text #2
  65. ID                                       : 4
  66. Format                                   : UTF-8
  67. Codec ID                                 : S_TEXT/UTF8
  68. Codec ID/Info                            : UTF-8 Plain Text
  69. Duration                                 : 1 h 23 min
  70. Bit rate                                 : 51 b/s
  71. Frame rate                               : 0.176 FPS
  72. Count of elements                        : 885
  73. Stream size                              : 31.3 KiB (0%)
  74. Language                                 : Dutch
  75. Default                                  : No
  76. Forced                                   : No
  77. Text #3
  78. ID                                       : 5
  79. Format                                   : UTF-8
  80. Codec ID                                 : S_TEXT/UTF8
  81. Codec ID/Info                            : UTF-8 Plain Text
  82. Duration                                 : 1 h 24 min
  83. Bit rate                                 : 61 b/s
  84. Frame rate                               : 0.225 FPS
  85. Count of elements                        : 1135
  86. Stream size                              : 37.6 KiB (0%)
  87. Title                                    : SDH
  88. Language                                 : Dutch
  89. Default                                  : No
  90. Forced                                   : No
  91. Text #4
  92. ID                                       : 6
  93. Format                                   : UTF-8
  94. Codec ID                                 : S_TEXT/UTF8
  95. Codec ID/Info                            : UTF-8 Plain Text
  96. Duration                                 : 1 h 26 min
  97. Bit rate                                 : 80 b/s
  98. Frame rate                               : 0.206 FPS
  99. Count of elements                        : 1074
  100. Stream size                              : 51.3 KiB (0%)
  101. Language                                 : Arabic
  102. Default                                  : No
  103. Forced                                   : No
  104. Text #5
  105. ID                                       : 7
  106. Format                                   : UTF-8
  107. Codec ID                                 : S_TEXT/UTF8
  108. Codec ID/Info                            : UTF-8 Plain Text
  109. Duration                                 : 1 h 26 min
  110. Bit rate                                 : 44 b/s
  111. Frame rate                               : 0.195 FPS
  112. Count of elements                        : 1015
  113. Stream size                              : 28.5 KiB (0%)
  114. Language                                 : Czech
  115. Default                                  : No
  116. Forced                                   : No
  117. Text #6
  118. ID                                       : 8
  119. Format                                   : UTF-8
  120. Codec ID                                 : S_TEXT/UTF8
  121. Codec ID/Info                            : UTF-8 Plain Text
  122. Duration                                 : 1 h 26 min
  123. Bit rate                                 : 43 b/s
  124. Frame rate                               : 0.180 FPS
  125. Count of elements                        : 939
  126. Stream size                              : 27.7 KiB (0%)
  127. Language                                 : Danish
  128. Default                                  : No
  129. Forced                                   : No
  130. Text #7
  131. ID                                       : 9
  132. Format                                   : UTF-8
  133. Codec ID                                 : S_TEXT/UTF8
  134. Codec ID/Info                            : UTF-8 Plain Text
  135. Duration                                 : 1 h 26 min
  136. Bit rate                                 : 44 b/s
  137. Frame rate                               : 0.190 FPS
  138. Count of elements                        : 986
  139. Stream size                              : 28.4 KiB (0%)
  140. Language                                 : German
  141. Default                                  : No
  142. Forced                                   : No
  143. Text #8
  144. ID                                       : 10
  145. Format                                   : UTF-8
  146. Codec ID                                 : S_TEXT/UTF8
  147. Codec ID/Info                            : UTF-8 Plain Text
  148. Duration                                 : 1 h 26 min
  149. Bit rate                                 : 75 b/s
  150. Frame rate                               : 0.195 FPS
  151. Count of elements                        : 1017
  152. Stream size                              : 48.1 KiB (0%)
  153. Language                                 : Greek
  154. Default                                  : No
  155. Forced                                   : No
  156. Text #9
  157. ID                                       : 11
  158. Format                                   : UTF-8
  159. Codec ID                                 : S_TEXT/UTF8
  160. Codec ID/Info                            : UTF-8 Plain Text
  161. Duration                                 : 1 h 23 min
  162. Bit rate                                 : 53 b/s
  163. Frame rate                               : 0.213 FPS
  164. Count of elements                        : 1075
  165. Stream size                              : 32.8 KiB (0%)
  166. Language                                 : English
  167. Default                                  : No
  168. Forced                                   : No
  169. Text #10
  170. ID                                       : 12
  171. Format                                   : UTF-8
  172. Codec ID                                 : S_TEXT/UTF8
  173. Codec ID/Info                            : UTF-8 Plain Text
  174. Duration                                 : 1 h 26 min
  175. Bit rate                                 : 36 b/s
  176. Frame rate                               : 0.153 FPS
  177. Count of elements                        : 794
  178. Stream size                              : 23.4 KiB (0%)
  179. Language                                 : English
  180. Default                                  : No
  181. Forced                                   : No
  182. Text #11
  183. ID                                       : 13
  184. Format                                   : UTF-8
  185. Codec ID                                 : S_TEXT/UTF8
  186. Codec ID/Info                            : UTF-8 Plain Text
  187. Duration                                 : 1 h 25 min
  188. Bit rate                                 : 63 b/s
  189. Frame rate                               : 0.263 FPS
  190. Count of elements                        : 1353
  191. Stream size                              : 40.1 KiB (0%)
  192. Title                                    : SDH
  193. Language                                 : English
  194. Default                                  : No
  195. Forced                                   : No
  196. Text #12
  197. ID                                       : 14
  198. Format                                   : UTF-8
  199. Codec ID                                 : S_TEXT/UTF8
  200. Codec ID/Info                            : UTF-8 Plain Text
  201. Duration                                 : 1 h 24 min
  202. Bit rate                                 : 47 b/s
  203. Frame rate                               : 0.194 FPS
  204. Count of elements                        : 980
  205. Stream size                              : 29.2 KiB (0%)
  206. Title                                    : Latin American
  207. Language                                 : Spanish (Latin America)
  208. Default                                  : No
  209. Forced                                   : No
  210. Text #13
  211. ID                                       : 15
  212. Format                                   : UTF-8
  213. Codec ID                                 : S_TEXT/UTF8
  214. Codec ID/Info                            : UTF-8 Plain Text
  215. Duration                                 : 1 h 26 min
  216. Bit rate                                 : 45 b/s
  217. Frame rate                               : 0.189 FPS
  218. Count of elements                        : 986
  219. Stream size                              : 28.6 KiB (0%)
  220. Language                                 : Spanish (ES)
  221. Default                                  : No
  222. Forced                                   : No
  223. Text #14
  224. ID                                       : 16
  225. Format                                   : UTF-8
  226. Codec ID                                 : S_TEXT/UTF8
  227. Codec ID/Info                            : UTF-8 Plain Text
  228. Duration                                 : 1 h 26 min
  229. Bit rate                                 : 48 b/s
  230. Frame rate                               : 0.151 FPS
  231. Count of elements                        : 788
  232. Stream size                              : 30.7 KiB (0%)
  233. Language                                 : Finnish
  234. Default                                  : No
  235. Forced                                   : No
  236. Text #15
  237. ID                                       : 17
  238. Format                                   : UTF-8
  239. Codec ID                                 : S_TEXT/UTF8
  240. Codec ID/Info                            : UTF-8 Plain Text
  241. Duration                                 : 1 h 23 min
  242. Bit rate                                 : 48 b/s
  243. Frame rate                               : 0.196 FPS
  244. Count of elements                        : 986
  245. Stream size                              : 30.1 KiB (0%)
  246. Language                                 : fil
  247. Default                                  : No
  248. Forced                                   : No
  249. Text #16
  250. ID                                       : 18
  251. Format                                   : UTF-8
  252. Codec ID                                 : S_TEXT/UTF8
  253. Codec ID/Info                            : UTF-8 Plain Text
  254. Duration                                 : 1 h 26 min
  255. Bit rate                                 : 43 b/s
  256. Frame rate                               : 0.193 FPS
  257. Count of elements                        : 1004
  258. Stream size                              : 27.7 KiB (0%)
  259. Language                                 : French
  260. Default                                  : No
  261. Forced                                   : No
  262. Text #17
  263. ID                                       : 19
  264. Format                                   : UTF-8
  265. Codec ID                                 : S_TEXT/UTF8
  266. Codec ID/Info                            : UTF-8 Plain Text
  267. Duration                                 : 1 h 26 min
  268. Bit rate                                 : 75 b/s
  269. Frame rate                               : 0.200 FPS
  270. Count of elements                        : 1040
  271. Stream size                              : 48.2 KiB (0%)
  272. Language                                 : Hebrew
  273. Default                                  : No
  274. Forced                                   : No
  275. Text #18
  276. ID                                       : 20
  277. Format                                   : UTF-8
  278. Codec ID                                 : S_TEXT/UTF8
  279. Codec ID/Info                            : UTF-8 Plain Text
  280. Duration                                 : 1 h 26 min
  281. Bit rate                                 : 43 b/s
  282. Frame rate                               : 0.187 FPS
  283. Count of elements                        : 971
  284. Stream size                              : 27.5 KiB (0%)
  285. Language                                 : Croatian
  286. Default                                  : No
  287. Forced                                   : No
  288. Text #19
  289. ID                                       : 21
  290. Format                                   : UTF-8
  291. Codec ID                                 : S_TEXT/UTF8
  292. Codec ID/Info                            : UTF-8 Plain Text
  293. Duration                                 : 1 h 26 min
  294. Bit rate                                 : 47 b/s
  295. Frame rate                               : 0.185 FPS
  296. Count of elements                        : 963
  297. Stream size                              : 30.0 KiB (0%)
  298. Language                                 : Hungarian
  299. Default                                  : No
  300. Forced                                   : No
  301. Text #20
  302. ID                                       : 22
  303. Format                                   : UTF-8
  304. Codec ID                                 : S_TEXT/UTF8
  305. Codec ID/Info                            : UTF-8 Plain Text
  306. Duration                                 : 1 h 26 min
  307. Bit rate                                 : 47 b/s
  308. Frame rate                               : 0.198 FPS
  309. Count of elements                        : 1032
  310. Stream size                              : 30.1 KiB (0%)
  311. Language                                 : Indonesian
  312. Default                                  : No
  313. Forced                                   : No
  314. Text #21
  315. ID                                       : 23
  316. Format                                   : UTF-8
  317. Codec ID                                 : S_TEXT/UTF8
  318. Codec ID/Info                            : UTF-8 Plain Text
  319. Duration                                 : 1 h 26 min
  320. Bit rate                                 : 44 b/s
  321. Frame rate                               : 0.194 FPS
  322. Count of elements                        : 1012
  323. Stream size                              : 28.3 KiB (0%)
  324. Language                                 : Italian
  325. Default                                  : No
  326. Forced                                   : No
  327. Text #22
  328. ID                                       : 24
  329. Format                                   : UTF-8
  330. Codec ID                                 : S_TEXT/UTF8
  331. Codec ID/Info                            : UTF-8 Plain Text
  332. Duration                                 : 1 h 26 min
  333. Bit rate                                 : 46 b/s
  334. Frame rate                               : 0.203 FPS
  335. Count of elements                        : 1055
  336. Stream size                              : 29.4 KiB (0%)
  337. Language                                 : Japanese
  338. Default                                  : No
  339. Forced                                   : No
  340. Text #23
  341. ID                                       : 25
  342. Format                                   : UTF-8
  343. Codec ID                                 : S_TEXT/UTF8
  344. Codec ID/Info                            : UTF-8 Plain Text
  345. Duration                                 : 1 h 26 min
  346. Bit rate                                 : 55 b/s
  347. Frame rate                               : 0.198 FPS
  348. Count of elements                        : 1030
  349. Stream size                              : 35.0 KiB (0%)
  350. Language                                 : Korean
  351. Default                                  : No
  352. Forced                                   : No
  353. Text #24
  354. ID                                       : 26
  355. Format                                   : UTF-8
  356. Codec ID                                 : S_TEXT/UTF8
  357. Codec ID/Info                            : UTF-8 Plain Text
  358. Duration                                 : 1 h 26 min
  359. Bit rate                                 : 45 b/s
  360. Frame rate                               : 0.197 FPS
  361. Count of elements                        : 1024
  362. Stream size                              : 28.7 KiB (0%)
  363. Language                                 : Malay
  364. Default                                  : No
  365. Forced                                   : No
  366. Text #25
  367. ID                                       : 27
  368. Format                                   : UTF-8
  369. Codec ID                                 : S_TEXT/UTF8
  370. Codec ID/Info                            : UTF-8 Plain Text
  371. Duration                                 : 1 h 26 min
  372. Bit rate                                 : 43 b/s
  373. Frame rate                               : 0.172 FPS
  374. Count of elements                        : 893
  375. Stream size                              : 27.3 KiB (0%)
  376. Language                                 : Norwegian Bokmal
  377. Default                                  : No
  378. Forced                                   : No
  379. Text #26
  380. ID                                       : 28
  381. Format                                   : UTF-8
  382. Codec ID                                 : S_TEXT/UTF8
  383. Codec ID/Info                            : UTF-8 Plain Text
  384. Duration                                 : 1 h 26 min
  385. Bit rate                                 : 44 b/s
  386. Frame rate                               : 0.196 FPS
  387. Count of elements                        : 1022
  388. Stream size                              : 28.3 KiB (0%)
  389. Language                                 : Polish
  390. Default                                  : No
  391. Forced                                   : No
  392. Text #27
  393. ID                                       : 29
  394. Format                                   : UTF-8
  395. Codec ID                                 : S_TEXT/UTF8
  396. Codec ID/Info                            : UTF-8 Plain Text
  397. Duration                                 : 1 h 23 min
  398. Bit rate                                 : 56 b/s
  399. Frame rate                               : 0.222 FPS
  400. Count of elements                        : 1115
  401. Stream size                              : 34.5 KiB (0%)
  402. Title                                    : Brazilian
  403. Language                                 : Portuguese (BR)
  404. Default                                  : No
  405. Forced                                   : No
  406. Text #28
  407. ID                                       : 30
  408. Format                                   : UTF-8
  409. Codec ID                                 : S_TEXT/UTF8
  410. Codec ID/Info                            : UTF-8 Plain Text
  411. Duration                                 : 1 h 26 min
  412. Bit rate                                 : 49 b/s
  413. Frame rate                               : 0.190 FPS
  414. Count of elements                        : 985
  415. Stream size                              : 31.4 KiB (0%)
  416. Title                                    : Brazilian
  417. Language                                 : Portuguese (BR)
  418. Default                                  : No
  419. Forced                                   : No
  420. Text #29
  421. ID                                       : 31
  422. Format                                   : UTF-8
  423. Codec ID                                 : S_TEXT/UTF8
  424. Codec ID/Info                            : UTF-8 Plain Text
  425. Duration                                 : 1 h 25 min
  426. Bit rate                                 : 68 b/s
  427. Frame rate                               : 0.274 FPS
  428. Count of elements                        : 1412
  429. Stream size                              : 42.8 KiB (0%)
  430. Title                                    : Brazilian (SDH)
  431. Language                                 : Portuguese (BR)
  432. Default                                  : No
  433. Forced                                   : No
  434. Text #30
  435. ID                                       : 32
  436. Format                                   : UTF-8
  437. Codec ID                                 : S_TEXT/UTF8
  438. Codec ID/Info                            : UTF-8 Plain Text
  439. Duration                                 : 1 h 26 min
  440. Bit rate                                 : 47 b/s
  441. Frame rate                               : 0.198 FPS
  442. Count of elements                        : 1029
  443. Stream size                              : 30.2 KiB (0%)
  444. Language                                 : Portuguese (PT)
  445. Default                                  : No
  446. Forced                                   : No
  447. Text #31
  448. ID                                       : 33
  449. Format                                   : UTF-8
  450. Codec ID                                 : S_TEXT/UTF8
  451. Codec ID/Info                            : UTF-8 Plain Text
  452. Duration                                 : 1 h 26 min
  453. Bit rate                                 : 51 b/s
  454. Frame rate                               : 0.178 FPS
  455. Count of elements                        : 927
  456. Stream size                              : 32.5 KiB (0%)
  457. Language                                 : Romanian
  458. Default                                  : No
  459. Forced                                   : No
  460. Text #32
  461. ID                                       : 34
  462. Format                                   : UTF-8
  463. Codec ID                                 : S_TEXT/UTF8
  464. Codec ID/Info                            : UTF-8 Plain Text
  465. Duration                                 : 1 h 26 min
  466. Bit rate                                 : 76 b/s
  467. Frame rate                               : 0.194 FPS
  468. Count of elements                        : 1009
  469. Stream size                              : 48.6 KiB (0%)
  470. Language                                 : Russian
  471. Default                                  : No
  472. Forced                                   : No
  473. Text #33
  474. ID                                       : 35
  475. Format                                   : UTF-8
  476. Codec ID                                 : S_TEXT/UTF8
  477. Codec ID/Info                            : UTF-8 Plain Text
  478. Duration                                 : 1 h 26 min
  479. Bit rate                                 : 44 b/s
  480. Frame rate                               : 0.185 FPS
  481. Count of elements                        : 964
  482. Stream size                              : 28.2 KiB (0%)
  483. Language                                 : Swedish
  484. Default                                  : No
  485. Forced                                   : No
  486. Text #34
  487. ID                                       : 36
  488. Format                                   : UTF-8
  489. Codec ID                                 : S_TEXT/UTF8
  490. Codec ID/Info                            : UTF-8 Plain Text
  491. Duration                                 : 1 h 26 min
  492. Bit rate                                 : 117 b/s
  493. Frame rate                               : 0.228 FPS
  494. Count of elements                        : 1184
  495. Stream size                              : 74.9 KiB (0%)
  496. Language                                 : Thai
  497. Default                                  : No
  498. Forced                                   : No
  499. Text #35
  500. ID                                       : 37
  501. Format                                   : UTF-8
  502. Codec ID                                 : S_TEXT/UTF8
  503. Codec ID/Info                            : UTF-8 Plain Text
  504. Duration                                 : 1 h 26 min
  505. Bit rate                                 : 46 b/s
  506. Frame rate                               : 0.197 FPS
  507. Count of elements                        : 1025
  508. Stream size                              : 29.4 KiB (0%)
  509. Language                                 : Turkish
  510. Default                                  : No
  511. Forced                                   : No
  512. Text #36
  513. ID                                       : 38
  514. Format                                   : UTF-8
  515. Codec ID                                 : S_TEXT/UTF8
  516. Codec ID/Info                            : UTF-8 Plain Text
  517. Duration                                 : 1 h 26 min
  518. Bit rate                                 : 74 b/s
  519. Frame rate                               : 0.197 FPS
  520. Count of elements                        : 1025
  521. Stream size                              : 47.0 KiB (0%)
  522. Language                                 : Ukrainian
  523. Default                                  : No
  524. Forced                                   : No
  525. Text #37
  526. ID                                       : 39
  527. Format                                   : UTF-8
  528. Codec ID                                 : S_TEXT/UTF8
  529. Codec ID/Info                            : UTF-8 Plain Text
  530. Duration                                 : 1 h 26 min
  531. Bit rate                                 : 63 b/s
  532. Frame rate                               : 0.199 FPS
  533. Count of elements                        : 1033
  534. Stream size                              : 40.3 KiB (0%)
  535. Language                                 : Vietnamese
  536. Default                                  : No
  537. Forced                                   : No
  538. Text #38
  539. ID                                       : 40
  540. Format                                   : UTF-8
  541. Codec ID                                 : S_TEXT/UTF8
  542. Codec ID/Info                            : UTF-8 Plain Text
  543. Duration                                 : 1 h 26 min
  544. Bit rate                                 : 52 b/s
  545. Frame rate                               : 0.203 FPS
  546. Count of elements                        : 1054
  547. Stream size                              : 33.3 KiB (0%)
  548. Title                                    : Simplified
  549. Language                                 : Chinese (Simplied)
  550. Default                                  : No
  551. Forced                                   : No
  552. Text #39
  553. ID                                       : 41
  554. Format                                   : UTF-8
  555. Codec ID                                 : S_TEXT/UTF8
  556. Codec ID/Info                            : UTF-8 Plain Text
  557. Duration                                 : 1 h 26 min
  558. Bit rate                                 : 49 b/s
  559. Frame rate                               : 0.211 FPS
  560. Count of elements                        : 1095
  561. Stream size                              : 31.4 KiB (0%)
  562. Title                                    : Traditional
  563. Language                                 : Chinese (Traditional)
  564. Default                                  : No
  565. Forced                                   : No
  566. Menu
  567. 01:24:11.000                             : en:End Credits
复制代码











回复

使用道具 举报

懒得打字嘛,点击右侧快捷回复 【右侧内容,后台自定义】
您需要登录后才可以回帖 登录 | 立即加入

本版积分规则

Copyright © 2024 Comsenz Inc. Powered by 蓝光电影网

本站内容由用户自主分享和转载自互联网,转载目的在于传递更多信息,并不代表本网赞同其观点和对其真实性负责。

如有侵权、违反国家法律政策行为,请联系我们,我们会第一时间及时清除和处理!

举报反馈邮箱:4k1080.com@gmail.com

快速回复 返回顶部 返回列表