找回密码

查看: 1463|回复: 0

[2160p-WEB] 乌龙小姐[中文字幕].The.Wrong.Missy.2020.2160p.NF.WEB-DL.x265.10bit.HDR.DDP5.1-SiSSY 7.64GB

[复制链接]
蓝光币
1848
发表于 2023-1-2 14:57:39 | 显示全部楼层 |阅读模式


◎标  题 乌龙蜜斯
◎译  名 谬爱蜜斯(港) / 蜜斯你哪位?(台) / 错了,蜜斯
◎片  名 The Wrong Missy
◎年  代 2020
◎产  地 美国
◎类  别 笑剧 / 恋爱
◎语  言 英语
◎上映日期 2020-05-13(美国)
◎IMDb评分 5.7/10 (40585人评价)
◎IMDb链接 https://www.imdb.com/title/tt9619798/
◎豆瓣评分 5.5/10 (1243人评价)
◎豆瓣链接 https://movie.douban.com/subject/33406938/
◎导  演 泰勒·斯宾德尔 Tyler Spindel
◎编  剧 凯文·巴尼特 Kevin Barnett
       克里斯·帕帕斯 Chris Pappas
◎演  员 萨拉·乔克 Sarah Chalke
       劳伦·拉普库斯 Lauren Lapkus
       大卫·斯佩德 David Spade
       尼克·斯旺森 Nick Swardson
       莫莉·西姆斯 Molly Sims
       吉奥夫·皮尔森 Geoff Pierson
       维尼拉·艾斯 Vanilla Ice
       约翰·法利 John Farley
       克里斯·维塔斯凯 Chris Witaske
       坎迪斯·史姑娘 Candace Smith
       克里斯·蒂昂 Chris Titone
       艾梅伯·瓦尔斯 Amber Walls
       乔丹·帕森斯 Jordan Parsons
       伊丽莎白·P·卡朋特 Elisabeth P. Carpenter
◎简  介
  蒂姆·莫里斯碰到了他的梦中情人,而且两人的豪情通太短信敏捷升温,他不再谨慎谨慎,并约请她去岛上度假胜地加入他的公司观光…但是,当曩昔的糟糕相亲工具出现在周末出游的机场时,他才意想到自己一向以来都发错了短信,闹出了乌龙事务。
  1. Video
  2. ID                                       : 1
  3. Format                                   : HEVC
  4. Format/Info                              : High Efficiency Video Coding
  5. Format profile                           : Main 10@L5@Main
  6. HDR format                               : Dolby Vision, Version 1.0, dvhe.08.06, BL+RPU, HDR10 compatible / SMPTE ST 2086, HDR10 compatible
  7. Codec ID                                 : V_MPEGH/ISO/HEVC
  8. Duration                                 : 1 h 29 min
  9. Bit rate                                 : 11.6 Mb/s
  10. Width                                    : 3 840 pixels
  11. Height                                   : 2 160 pixels
  12. Display aspect ratio                     : 16:9
  13. Frame rate mode                          : Constant
  14. Frame rate                               : 24.000 FPS
  15. Color space                              : YUV
  16. Chroma subsampling                       : 4:2:0 (Type 2)
  17. Bit depth                                : 10 bits
  18. Bits/(Pixel*Frame)                       : 0.058
  19. Stream size                              : 7.23 GiB (95%)
  20. Language                                 : English
  21. Default                                  : Yes
  22. Forced                                   : No
  23. Color range                              : Limited
  24. Color primaries                          : BT.2020
  25. Transfer characteristics                 : PQ
  26. Matrix coefficients                      : BT.2020 non-constant
  27. Mastering display color primaries        : Display P3
  28. Mastering display luminance              : min: 0.0001 cd/m2, max: 1000 cd/m2
  29. Maximum Content Light Level              : 9171 cd/m2
  30. Maximum Frame-Average Light Level        : 185 cd/m2
  31. Audio
  32. ID                                       : 2
  33. Format                                   : E-AC-3
  34. Format/Info                              : Enhanced AC-3
  35. Commercial name                          : Dolby Digital Plus
  36. Codec ID                                 : A_EAC3
  37. Duration                                 : 1 h 30 min
  38. Bit rate mode                            : Constant
  39. Bit rate                                 : 640 kb/s
  40. Channel(s)                               : 6 channels
  41. Channel layout                           : L R C LFE Ls Rs
  42. Sampling rate                            : 48.0 kHz
  43. Frame rate                               : 31.250 FPS (1536 SPF)
  44. Compression mode                         : Lossy
  45. Stream size                              : 412 MiB (5%)
  46. Language                                 : English
  47. Service kind                             : Complete Main
  48. Default                                  : Yes
  49. Forced                                   : No
  50. Text #1
  51. ID                                       : 3
  52. Format                                   : UTF-8
  53. Codec ID                                 : S_TEXT/UTF8
  54. Codec ID/Info                            : UTF-8 Plain Text
  55. Duration                                 : 1 h 25 min
  56. Bit rate                                 : 87 b/s
  57. Frame rate                               : 0.332 FPS
  58. Count of elements                        : 1712
  59. Stream size                              : 54.9 KiB (0%)
  60. Language                                 : English
  61. Default                                  : No
  62. Forced                                   : No
  63. Text #2
  64. ID                                       : 4
  65. Format                                   : UTF-8
  66. Codec ID                                 : S_TEXT/UTF8
  67. Codec ID/Info                            : UTF-8 Plain Text
  68. Duration                                 : 1 h 29 min
  69. Bit rate                                 : 105 b/s
  70. Frame rate                               : 0.395 FPS
  71. Count of elements                        : 2114
  72. Stream size                              : 68.8 KiB (0%)
  73. Title                                    : SDH
  74. Language                                 : English
  75. Default                                  : No
  76. Forced                                   : No
  77. Text #3
  78. ID                                       : 5
  79. Format                                   : UTF-8
  80. Codec ID                                 : S_TEXT/UTF8
  81. Codec ID/Info                            : UTF-8 Plain Text
  82. Duration                                 : 1 h 29 min
  83. Bit rate                                 : 137 b/s
  84. Frame rate                               : 0.293 FPS
  85. Count of elements                        : 1565
  86. Stream size                              : 89.5 KiB (0%)
  87. Language                                 : Arabic
  88. Default                                  : No
  89. Forced                                   : No
  90. Text #4
  91. ID                                       : 6
  92. Format                                   : UTF-8
  93. Codec ID                                 : S_TEXT/UTF8
  94. Codec ID/Info                            : UTF-8 Plain Text
  95. Duration                                 : 1 h 28 min
  96. Bit rate                                 : 70 b/s
  97. Frame rate                               : 0.288 FPS
  98. Count of elements                        : 1538
  99. Stream size                              : 45.9 KiB (0%)
  100. Language                                 : Czech
  101. Default                                  : No
  102. Forced                                   : No
  103. Text #5
  104. ID                                       : 7
  105. Format                                   : UTF-8
  106. Codec ID                                 : S_TEXT/UTF8
  107. Codec ID/Info                            : UTF-8 Plain Text
  108. Duration                                 : 1 h 29 min
  109. Bit rate                                 : 73 b/s
  110. Frame rate                               : 0.274 FPS
  111. Count of elements                        : 1461
  112. Stream size                              : 47.8 KiB (0%)
  113. Language                                 : Danish
  114. Default                                  : No
  115. Forced                                   : No
  116. Text #6
  117. ID                                       : 8
  118. Format                                   : UTF-8
  119. Codec ID                                 : S_TEXT/UTF8
  120. Codec ID/Info                            : UTF-8 Plain Text
  121. Duration                                 : 1 h 29 min
  122. Bit rate                                 : 73 b/s
  123. Frame rate                               : 0.284 FPS
  124. Count of elements                        : 1519
  125. Stream size                              : 48.0 KiB (0%)
  126. Language                                 : German
  127. Default                                  : No
  128. Forced                                   : No
  129. Text #7
  130. ID                                       : 9
  131. Format                                   : UTF-8
  132. Codec ID                                 : S_TEXT/UTF8
  133. Codec ID/Info                            : UTF-8 Plain Text
  134. Duration                                 : 1 h 29 min
  135. Bit rate                                 : 115 b/s
  136. Frame rate                               : 0.303 FPS
  137. Count of elements                        : 1621
  138. Stream size                              : 75.6 KiB (0%)
  139. Language                                 : Greek
  140. Default                                  : No
  141. Forced                                   : No
  142. Text #8
  143. ID                                       : 10
  144. Format                                   : UTF-8
  145. Codec ID                                 : S_TEXT/UTF8
  146. Codec ID/Info                            : UTF-8 Plain Text
  147. Duration                                 : 1 h 29 min
  148. Bit rate                                 : 74 b/s
  149. Frame rate                               : 0.282 FPS
  150. Count of elements                        : 1506
  151. Stream size                              : 48.4 KiB (0%)
  152. Title                                    : Latin American
  153. Language                                 : Spanish (Latin America)
  154. Default                                  : No
  155. Forced                                   : No
  156. Text #9
  157. ID                                       : 11
  158. Format                                   : UTF-8
  159. Codec ID                                 : S_TEXT/UTF8
  160. Codec ID/Info                            : UTF-8 Plain Text
  161. Duration                                 : 1 h 29 min
  162. Bit rate                                 : 73 b/s
  163. Frame rate                               : 0.294 FPS
  164. Count of elements                        : 1570
  165. Stream size                              : 48.2 KiB (0%)
  166. Language                                 : Spanish (ES)
  167. Default                                  : No
  168. Forced                                   : No
  169. Text #10
  170. ID                                       : 12
  171. Format                                   : UTF-8
  172. Codec ID                                 : S_TEXT/UTF8
  173. Codec ID/Info                            : UTF-8 Plain Text
  174. Duration                                 : 1 h 29 min
  175. Bit rate                                 : 66 b/s
  176. Frame rate                               : 0.209 FPS
  177. Count of elements                        : 1116
  178. Stream size                              : 43.5 KiB (0%)
  179. Language                                 : Finnish
  180. Default                                  : No
  181. Forced                                   : No
  182. Text #11
  183. ID                                       : 13
  184. Format                                   : UTF-8
  185. Codec ID                                 : S_TEXT/UTF8
  186. Codec ID/Info                            : UTF-8 Plain Text
  187. Duration                                 : 1 h 29 min
  188. Bit rate                                 : 69 b/s
  189. Frame rate                               : 0.276 FPS
  190. Count of elements                        : 1475
  191. Stream size                              : 45.3 KiB (0%)
  192. Language                                 : French
  193. Default                                  : No
  194. Forced                                   : No
  195. Text #12
  196. ID                                       : 14
  197. Format                                   : UTF-8
  198. Codec ID                                 : S_TEXT/UTF8
  199. Codec ID/Info                            : UTF-8 Plain Text
  200. Duration                                 : 1 h 25 min
  201. Bit rate                                 : 128 b/s
  202. Frame rate                               : 0.276 FPS
  203. Count of elements                        : 1421
  204. Stream size                              : 80.9 KiB (0%)
  205. Language                                 : Hebrew
  206. Default                                  : No
  207. Forced                                   : No
  208. Text #13
  209. ID                                       : 15
  210. Format                                   : UTF-8
  211. Codec ID                                 : S_TEXT/UTF8
  212. Codec ID/Info                            : UTF-8 Plain Text
  213. Duration                                 : 1 h 29 min
  214. Bit rate                                 : 217 b/s
  215. Frame rate                               : 0.293 FPS
  216. Count of elements                        : 1565
  217. Stream size                              : 142 KiB (0%)
  218. Language                                 : Hindi
  219. Default                                  : No
  220. Forced                                   : No
  221. Text #14
  222. ID                                       : 16
  223. Format                                   : UTF-8
  224. Codec ID                                 : S_TEXT/UTF8
  225. Codec ID/Info                            : UTF-8 Plain Text
  226. Duration                                 : 1 h 28 min
  227. Bit rate                                 : 67 b/s
  228. Frame rate                               : 0.282 FPS
  229. Count of elements                        : 1507
  230. Stream size                              : 44.0 KiB (0%)
  231. Language                                 : Hungarian
  232. Default                                  : No
  233. Forced                                   : No
  234. Text #15
  235. ID                                       : 17
  236. Format                                   : UTF-8
  237. Codec ID                                 : S_TEXT/UTF8
  238. Codec ID/Info                            : UTF-8 Plain Text
  239. Duration                                 : 1 h 29 min
  240. Bit rate                                 : 65 b/s
  241. Frame rate                               : 0.289 FPS
  242. Count of elements                        : 1545
  243. Stream size                              : 42.6 KiB (0%)
  244. Language                                 : Indonesian
  245. Default                                  : No
  246. Forced                                   : No
  247. Text #16
  248. ID                                       : 18
  249. Format                                   : UTF-8
  250. Codec ID                                 : S_TEXT/UTF8
  251. Codec ID/Info                            : UTF-8 Plain Text
  252. Duration                                 : 1 h 29 min
  253. Bit rate                                 : 72 b/s
  254. Frame rate                               : 0.276 FPS
  255. Count of elements                        : 1475
  256. Stream size                              : 47.3 KiB (0%)
  257. Language                                 : Italian
  258. Default                                  : No
  259. Forced                                   : No
  260. Text #17
  261. ID                                       : 19
  262. Format                                   : UTF-8
  263. Codec ID                                 : S_TEXT/UTF8
  264. Codec ID/Info                            : UTF-8 Plain Text
  265. Duration                                 : 1 h 29 min
  266. Bit rate                                 : 68 b/s
  267. Frame rate                               : 0.303 FPS
  268. Count of elements                        : 1622
  269. Stream size                              : 44.8 KiB (0%)
  270. Language                                 : Japanese
  271. Default                                  : No
  272. Forced                                   : No
  273. Text #18
  274. ID                                       : 20
  275. Format                                   : UTF-8
  276. Codec ID                                 : S_TEXT/UTF8
  277. Codec ID/Info                            : UTF-8 Plain Text
  278. Duration                                 : 1 h 29 min
  279. Bit rate                                 : 104 b/s
  280. Frame rate                               : 0.318 FPS
  281. Count of elements                        : 1701
  282. Stream size                              : 68.1 KiB (0%)
  283. Language                                 : Korean
  284. Default                                  : No
  285. Forced                                   : No
  286. Text #19
  287. ID                                       : 21
  288. Format                                   : UTF-8
  289. Codec ID                                 : S_TEXT/UTF8
  290. Codec ID/Info                            : UTF-8 Plain Text
  291. Duration                                 : 1 h 29 min
  292. Bit rate                                 : 70 b/s
  293. Frame rate                               : 0.260 FPS
  294. Count of elements                        : 1391
  295. Stream size                              : 45.7 KiB (0%)
  296. Language                                 : Norwegian Bokmal
  297. Default                                  : No
  298. Forced                                   : No
  299. Text #20
  300. ID                                       : 22
  301. Format                                   : UTF-8
  302. Codec ID                                 : S_TEXT/UTF8
  303. Codec ID/Info                            : UTF-8 Plain Text
  304. Duration                                 : 1 h 29 min
  305. Bit rate                                 : 69 b/s
  306. Frame rate                               : 0.274 FPS
  307. Count of elements                        : 1462
  308. Stream size                              : 45.4 KiB (0%)
  309. Language                                 : Dutch
  310. Default                                  : No
  311. Forced                                   : No
  312. Text #21
  313. ID                                       : 23
  314. Format                                   : UTF-8
  315. Codec ID                                 : S_TEXT/UTF8
  316. Codec ID/Info                            : UTF-8 Plain Text
  317. Duration                                 : 1 h 29 min
  318. Bit rate                                 : 70 b/s
  319. Frame rate                               : 0.282 FPS
  320. Count of elements                        : 1508
  321. Stream size                              : 45.8 KiB (0%)
  322. Language                                 : Polish
  323. Default                                  : No
  324. Forced                                   : No
  325. Text #22
  326. ID                                       : 24
  327. Format                                   : UTF-8
  328. Codec ID                                 : S_TEXT/UTF8
  329. Codec ID/Info                            : UTF-8 Plain Text
  330. Duration                                 : 1 h 29 min
  331. Bit rate                                 : 78 b/s
  332. Frame rate                               : 0.278 FPS
  333. Count of elements                        : 1487
  334. Stream size                              : 50.9 KiB (0%)
  335. Title                                    : Brazilian
  336. Language                                 : Portuguese (BR)
  337. Default                                  : No
  338. Forced                                   : No
  339. Text #23
  340. ID                                       : 25
  341. Format                                   : UTF-8
  342. Codec ID                                 : S_TEXT/UTF8
  343. Codec ID/Info                            : UTF-8 Plain Text
  344. Duration                                 : 1 h 29 min
  345. Bit rate                                 : 78 b/s
  346. Frame rate                               : 0.283 FPS
  347. Count of elements                        : 1510
  348. Stream size                              : 51.2 KiB (0%)
  349. Language                                 : Portuguese (PT)
  350. Default                                  : No
  351. Forced                                   : No
  352. Text #24
  353. ID                                       : 26
  354. Format                                   : UTF-8
  355. Codec ID                                 : S_TEXT/UTF8
  356. Codec ID/Info                            : UTF-8 Plain Text
  357. Duration                                 : 1 h 29 min
  358. Bit rate                                 : 80 b/s
  359. Frame rate                               : 0.279 FPS
  360. Count of elements                        : 1492
  361. Stream size                              : 52.5 KiB (0%)
  362. Language                                 : Romanian
  363. Default                                  : No
  364. Forced                                   : No
  365. Text #25
  366. ID                                       : 27
  367. Format                                   : UTF-8
  368. Codec ID                                 : S_TEXT/UTF8
  369. Codec ID/Info                            : UTF-8 Plain Text
  370. Duration                                 : 1 h 29 min
  371. Bit rate                                 : 112 b/s
  372. Frame rate                               : 0.285 FPS
  373. Count of elements                        : 1522
  374. Stream size                              : 73.7 KiB (0%)
  375. Language                                 : Russian
  376. Default                                  : No
  377. Forced                                   : No
  378. Text #26
  379. ID                                       : 28
  380. Format                                   : UTF-8
  381. Codec ID                                 : S_TEXT/UTF8
  382. Codec ID/Info                            : UTF-8 Plain Text
  383. Duration                                 : 1 h 29 min
  384. Bit rate                                 : 73 b/s
  385. Frame rate                               : 0.276 FPS
  386. Count of elements                        : 1473
  387. Stream size                              : 48.2 KiB (0%)
  388. Language                                 : Swedish
  389. Default                                  : No
  390. Forced                                   : No
  391. Text #27
  392. ID                                       : 29
  393. Format                                   : UTF-8
  394. Codec ID                                 : S_TEXT/UTF8
  395. Codec ID/Info                            : UTF-8 Plain Text
  396. Duration                                 : 1 h 29 min
  397. Bit rate                                 : 181 b/s
  398. Frame rate                               : 0.291 FPS
  399. Count of elements                        : 1556
  400. Stream size                              : 118 KiB (0%)
  401. Language                                 : Thai
  402. Default                                  : No
  403. Forced                                   : No
  404. Text #28
  405. ID                                       : 30
  406. Format                                   : UTF-8
  407. Codec ID                                 : S_TEXT/UTF8
  408. Codec ID/Info                            : UTF-8 Plain Text
  409. Duration                                 : 1 h 29 min
  410. Bit rate                                 : 73 b/s
  411. Frame rate                               : 0.294 FPS
  412. Count of elements                        : 1571
  413. Stream size                              : 48.1 KiB (0%)
  414. Language                                 : Turkish
  415. Default                                  : No
  416. Forced                                   : No
  417. Text #29
  418. ID                                       : 31
  419. Format                                   : UTF-8
  420. Codec ID                                 : S_TEXT/UTF8
  421. Codec ID/Info                            : UTF-8 Plain Text
  422. Duration                                 : 1 h 29 min
  423. Bit rate                                 : 106 b/s
  424. Frame rate                               : 0.293 FPS
  425. Count of elements                        : 1563
  426. Stream size                              : 69.2 KiB (0%)
  427. Language                                 : Vietnamese
  428. Default                                  : No
  429. Forced                                   : No
  430. Text #30
  431. ID                                       : 32
  432. Format                                   : UTF-8
  433. Codec ID                                 : S_TEXT/UTF8
  434. Codec ID/Info                            : UTF-8 Plain Text
  435. Duration                                 : 1 h 29 min
  436. Bit rate                                 : 82 b/s
  437. Frame rate                               : 0.293 FPS
  438. Count of elements                        : 1565
  439. Stream size                              : 53.6 KiB (0%)
  440. Title                                    : Simplified
  441. Language                                 : Chinese (Simplied)
  442. Default                                  : No
  443. Forced                                   : No
  444. Text #31
  445. ID                                       : 33
  446. Format                                   : UTF-8
  447. Codec ID                                 : S_TEXT/UTF8
  448. Codec ID/Info                            : UTF-8 Plain Text
  449. Duration                                 : 1 h 29 min
  450. Bit rate                                 : 87 b/s
  451. Frame rate                               : 0.304 FPS
  452. Count of elements                        : 1622
  453. Stream size                              : 56.9 KiB (0%)
  454. Title                                    : Traditional
  455. Language                                 : Chinese (Traditional)
  456. Default                                  : No
  457. Forced                                   : No
  458. Menu
  459. 01:26:13.000                             : en:End Credits
复制代码











回复

使用道具 举报

懒得打字嘛,点击右侧快捷回复 【右侧内容,后台自定义】
您需要登录后才可以回帖 登录 | 立即加入

本版积分规则

Copyright © 2024 Comsenz Inc. Powered by 蓝光电影网

本站内容由用户自主分享和转载自互联网,转载目的在于传递更多信息,并不代表本网赞同其观点和对其真实性负责。

如有侵权、违反国家法律政策行为,请联系我们,我们会第一时间及时清除和处理!

举报反馈邮箱:4k1080.com@gmail.com

快速回复 返回顶部 返回列表