找回密码

查看: 1424|回复: 0

[2160p-WEB] 救赎之队:2008美国男篮奥运梦[中文字幕].The.Redeem.Team.2022.2160p.NF.WEB-DL.x265.10bit.SDR.DDP5.1.Atmos-COPiUM 8.59GB

[复制链接]
蓝光币
1848
发表于 2023-1-2 14:57:40 | 显示全部楼层 |阅读模式


◎标  题 救赎之队:2008美国男篮奥运梦
◎译  名 死灰复然梦之队 / 救赎之队 / 救赎之队:2008奥运男篮梦(港 / 台)
◎片  名 The Redeem Team
◎年  代 2022
◎产  地 美国
◎类  别 记载片 / 活动
◎语  言 英语
◎上映日期 2022-10-07(美国收集)
◎IMDb评分 7.4/10 (7766人评价)
◎IMDb链接 https://www.imdb.com/title/tt21837726/
◎豆瓣评分 9.0/10 (4214人评价)
◎豆瓣链接 https://movie.douban.com/subject/36077772/
◎片  长 97分钟
◎导  演 乔恩·温巴赫 Jon Weinbach
◎演  员 科比·布莱恩特 Kobe Bryant
       勒布朗·詹姆斯 LeBron James
       德维恩·韦德 Dwyane Wade
       卡梅隆·安东尼 Carmelo Anthony
       卡洛斯·布泽尔 Carlos Boozer
       克里斯·保罗 Chris Paul
       克里斯·波什 Chris Bosh
       杰森·基德 Jason Kidd
       德怀特·霍华德 Dwight Howard
       杰瑞·科朗格洛 Jerry Colangelo
       迈克·克日泽夫斯基 Mike Krzyzewski
       保罗·加索尔 Pau Gasol
       道格·科林斯 Doug Collins
       J·A·艾丹 J.A. Adande
       比尔·普拉施克 Bill Plaschke
       萨姆·史姑娘 Sam Smith
       克里斯·柯林斯 Chris Collins
       麦克·德安东尼 Mike D'Antoni
◎简  介
  《救赎之队:2008 美国男篮奥运梦》收录了史无前例的奥运片断和幕后花絮,报告了继美国男篮在四年前的雅典奥运会上失利后,重征 2008 年北京奥运会的过程。这部记载片活泼刻画了球队若何培育默契,并对德维恩·韦德、勒布朗·詹姆斯、迈克·克日泽夫斯基(K 教练)等运带动和教练停止了深入访谈,他们回首了“救赎之队”如作甚美国篮球建立了新标准。
  1. Video
  2. ID                                       : 1
  3. Format                                   : HEVC
  4. Format/Info                              : High Efficiency Video Coding
  5. Format profile                           : Main 10@L5@Main
  6. Codec ID                                 : V_MPEGH/ISO/HEVC
  7. Duration                                 : 1 h 38 min
  8. Bit rate                                 : 11.7 Mb/s
  9. Width                                    : 3 840 pixels
  10. Height                                   : 2 160 pixels
  11. Display aspect ratio                     : 16:9
  12. Frame rate mode                          : Constant
  13. Frame rate                               : 25.000 FPS
  14. Color space                              : YUV
  15. Chroma subsampling                       : 4:2:0
  16. Bit depth                                : 10 bits
  17. Bits/(Pixel*Frame)                       : 0.057
  18. Stream size                              : 8.05 GiB (94%)
  19. Language                                 : English
  20. Default                                  : Yes
  21. Forced                                   : No
  22. Color range                              : Limited
  23. Color primaries                          : BT.709
  24. Transfer characteristics                 : BT.709
  25. Matrix coefficients                      : BT.709
  26. Audio
  27. ID                                       : 2
  28. Format                                   : E-AC-3 JOC
  29. Format/Info                              : Enhanced AC-3 with Joint Object Coding
  30. Commercial name                          : Dolby Digital Plus with Dolby Atmos
  31. Codec ID                                 : A_EAC3
  32. Duration                                 : 1 h 38 min
  33. Bit rate mode                            : Constant
  34. Bit rate                                 : 768 kb/s
  35. Channel(s)                               : 6 channels
  36. Channel layout                           : L R C LFE Ls Rs
  37. Sampling rate                            : 48.0 kHz
  38. Frame rate                               : 31.250 FPS (1536 SPF)
  39. Compression mode                         : Lossy
  40. Stream size                              : 539 MiB (6%)
  41. Language                                 : English
  42. Service kind                             : Complete Main
  43. Default                                  : Yes
  44. Forced                                   : No
  45. Complexity index                         : 16
  46. Number of dynamic objects                : 15
  47. Bed channel count                        : 1 channel
  48. Bed channel configuration                : LFE
  49. Text #1
  50. ID                                       : 3
  51. Format                                   : UTF-8
  52. Codec ID                                 : S_TEXT/UTF8
  53. Codec ID/Info                            : UTF-8 Plain Text
  54. Duration                                 : 26 min 27 s
  55. Bit rate                                 : 1 b/s
  56. Frame rate                               : 0.004 FPS
  57. Count of elements                        : 7
  58. Stream size                              : 270 Bytes (0%)
  59. Title                                    : Forced
  60. Language                                 : English
  61. Default                                  : Yes
  62. Forced                                   : Yes
  63. Text #2
  64. ID                                       : 4
  65. Format                                   : UTF-8
  66. Codec ID                                 : S_TEXT/UTF8
  67. Codec ID/Info                            : UTF-8 Plain Text
  68. Duration                                 : 1 h 34 min
  69. Bit rate                                 : 111 b/s
  70. Frame rate                               : 0.299 FPS
  71. Count of elements                        : 1690
  72. Stream size                              : 77.2 KiB (0%)
  73. Language                                 : English
  74. Default                                  : No
  75. Forced                                   : No
  76. Text #3
  77. ID                                       : 5
  78. Format                                   : UTF-8
  79. Codec ID                                 : S_TEXT/UTF8
  80. Codec ID/Info                            : UTF-8 Plain Text
  81. Duration                                 : 1 h 36 min
  82. Bit rate                                 : 121 b/s
  83. Frame rate                               : 0.325 FPS
  84. Count of elements                        : 1878
  85. Stream size                              : 85.8 KiB (0%)
  86. Title                                    : SDH
  87. Language                                 : English
  88. Default                                  : No
  89. Forced                                   : No
  90. Text #4
  91. ID                                       : 6
  92. Format                                   : UTF-8
  93. Codec ID                                 : S_TEXT/UTF8
  94. Codec ID/Info                            : UTF-8 Plain Text
  95. Duration                                 : 1 h 34 min
  96. Bit rate                                 : 183 b/s
  97. Frame rate                               : 0.296 FPS
  98. Count of elements                        : 1674
  99. Stream size                              : 127 KiB (0%)
  100. Language                                 : Arabic
  101. Default                                  : No
  102. Forced                                   : No
  103. Text #5
  104. ID                                       : 7
  105. Format                                   : UTF-8
  106. Codec ID                                 : S_TEXT/UTF8
  107. Codec ID/Info                            : UTF-8 Plain Text
  108. Duration                                 : 1 h 36 min
  109. Bit rate                                 : 98 b/s
  110. Frame rate                               : 0.284 FPS
  111. Count of elements                        : 1641
  112. Stream size                              : 69.2 KiB (0%)
  113. Language                                 : Czech
  114. Default                                  : No
  115. Forced                                   : No
  116. Text #6
  117. ID                                       : 8
  118. Format                                   : UTF-8
  119. Codec ID                                 : S_TEXT/UTF8
  120. Codec ID/Info                            : UTF-8 Plain Text
  121. Duration                                 : 1 h 36 min
  122. Bit rate                                 : 89 b/s
  123. Frame rate                               : 0.228 FPS
  124. Count of elements                        : 1318
  125. Stream size                              : 63.3 KiB (0%)
  126. Language                                 : Danish
  127. Default                                  : No
  128. Forced                                   : No
  129. Text #7
  130. ID                                       : 9
  131. Format                                   : UTF-8
  132. Codec ID                                 : S_TEXT/UTF8
  133. Codec ID/Info                            : UTF-8 Plain Text
  134. Duration                                 : 1 h 36 min
  135. Bit rate                                 : 93 b/s
  136. Frame rate                               : 0.275 FPS
  137. Count of elements                        : 1587
  138. Stream size                              : 66.0 KiB (0%)
  139. Language                                 : German
  140. Default                                  : No
  141. Forced                                   : No
  142. Text #8
  143. ID                                       : 10
  144. Format                                   : UTF-8
  145. Codec ID                                 : S_TEXT/UTF8
  146. Codec ID/Info                            : UTF-8 Plain Text
  147. Duration                                 : 1 h 36 min
  148. Bit rate                                 : 108 b/s
  149. Frame rate                               : 0.272 FPS
  150. Count of elements                        : 1572
  151. Stream size                              : 76.2 KiB (0%)
  152. Language                                 : German
  153. Default                                  : No
  154. Forced                                   : No
  155. Text #9
  156. ID                                       : 11
  157. Format                                   : UTF-8
  158. Codec ID                                 : S_TEXT/UTF8
  159. Codec ID/Info                            : UTF-8 Plain Text
  160. Duration                                 : 1 h 36 min
  161. Bit rate                                 : 116 b/s
  162. Frame rate                               : 0.288 FPS
  163. Count of elements                        : 1666
  164. Stream size                              : 81.9 KiB (0%)
  165. Title                                    : SDH
  166. Language                                 : German
  167. Default                                  : No
  168. Forced                                   : No
  169. Text #10
  170. ID                                       : 12
  171. Format                                   : UTF-8
  172. Codec ID                                 : S_TEXT/UTF8
  173. Codec ID/Info                            : UTF-8 Plain Text
  174. Duration                                 : 1 h 36 min
  175. Bit rate                                 : 173 b/s
  176. Frame rate                               : 0.290 FPS
  177. Count of elements                        : 1676
  178. Stream size                              : 123 KiB (0%)
  179. Language                                 : Greek
  180. Default                                  : No
  181. Forced                                   : No
  182. Text #11
  183. ID                                       : 13
  184. Format                                   : UTF-8
  185. Codec ID                                 : S_TEXT/UTF8
  186. Codec ID/Info                            : UTF-8 Plain Text
  187. Duration                                 : 1 h 34 min
  188. Bit rate                                 : 101 b/s
  189. Frame rate                               : 0.297 FPS
  190. Count of elements                        : 1681
  191. Stream size                              : 70.3 KiB (0%)
  192. Title                                    : Latin American
  193. Language                                 : Spanish (Latin America)
  194. Default                                  : No
  195. Forced                                   : No
  196. Text #12
  197. ID                                       : 14
  198. Format                                   : UTF-8
  199. Codec ID                                 : S_TEXT/UTF8
  200. Codec ID/Info                            : UTF-8 Plain Text
  201. Duration                                 : 1 h 36 min
  202. Bit rate                                 : 97 b/s
  203. Frame rate                               : 0.273 FPS
  204. Count of elements                        : 1576
  205. Stream size                              : 68.8 KiB (0%)
  206. Title                                    : Latin American
  207. Language                                 : Spanish (Latin America)
  208. Default                                  : No
  209. Forced                                   : No
  210. Text #13
  211. ID                                       : 15
  212. Format                                   : UTF-8
  213. Codec ID                                 : S_TEXT/UTF8
  214. Codec ID/Info                            : UTF-8 Plain Text
  215. Duration                                 : 1 h 34 min
  216. Bit rate                                 : 109 b/s
  217. Frame rate                               : 0.315 FPS
  218. Count of elements                        : 1780
  219. Stream size                              : 75.9 KiB (0%)
  220. Title                                    : Latin American (SDH)
  221. Language                                 : Spanish (Latin America)
  222. Default                                  : No
  223. Forced                                   : No
  224. Text #14
  225. ID                                       : 16
  226. Format                                   : UTF-8
  227. Codec ID                                 : S_TEXT/UTF8
  228. Codec ID/Info                            : UTF-8 Plain Text
  229. Duration                                 : 1 h 36 min
  230. Bit rate                                 : 87 b/s
  231. Frame rate                               : 0.281 FPS
  232. Count of elements                        : 1624
  233. Stream size                              : 61.5 KiB (0%)
  234. Language                                 : Spanish (ES)
  235. Default                                  : No
  236. Forced                                   : No
  237. Text #15
  238. ID                                       : 17
  239. Format                                   : UTF-8
  240. Codec ID                                 : S_TEXT/UTF8
  241. Codec ID/Info                            : UTF-8 Plain Text
  242. Duration                                 : 1 h 36 min
  243. Bit rate                                 : 86 b/s
  244. Frame rate                               : 0.257 FPS
  245. Count of elements                        : 1484
  246. Stream size                              : 60.9 KiB (0%)
  247. Language                                 : Finnish
  248. Default                                  : No
  249. Forced                                   : No
  250. Text #16
  251. ID                                       : 18
  252. Format                                   : UTF-8
  253. Codec ID                                 : S_TEXT/UTF8
  254. Codec ID/Info                            : UTF-8 Plain Text
  255. Duration                                 : 1 h 36 min
  256. Bit rate                                 : 96 b/s
  257. Frame rate                               : 0.282 FPS
  258. Count of elements                        : 1632
  259. Stream size                              : 68.1 KiB (0%)
  260. Language                                 : fil
  261. Default                                  : No
  262. Forced                                   : No
  263. Text #17
  264. ID                                       : 19
  265. Format                                   : UTF-8
  266. Codec ID                                 : S_TEXT/UTF8
  267. Codec ID/Info                            : UTF-8 Plain Text
  268. Duration                                 : 1 h 36 min
  269. Bit rate                                 : 97 b/s
  270. Frame rate                               : 0.286 FPS
  271. Count of elements                        : 1655
  272. Stream size                              : 69.1 KiB (0%)
  273. Language                                 : French
  274. Default                                  : No
  275. Forced                                   : No
  276. Text #18
  277. ID                                       : 20
  278. Format                                   : UTF-8
  279. Codec ID                                 : S_TEXT/UTF8
  280. Codec ID/Info                            : UTF-8 Plain Text
  281. Duration                                 : 1 h 36 min
  282. Bit rate                                 : 155 b/s
  283. Frame rate                               : 0.277 FPS
  284. Count of elements                        : 1603
  285. Stream size                              : 110 KiB (0%)
  286. Language                                 : Hebrew
  287. Default                                  : No
  288. Forced                                   : No
  289. Text #19
  290. ID                                       : 21
  291. Format                                   : UTF-8
  292. Codec ID                                 : S_TEXT/UTF8
  293. Codec ID/Info                            : UTF-8 Plain Text
  294. Duration                                 : 1 h 36 min
  295. Bit rate                                 : 89 b/s
  296. Frame rate                               : 0.258 FPS
  297. Count of elements                        : 1492
  298. Stream size                              : 63.1 KiB (0%)
  299. Language                                 : Croatian
  300. Default                                  : No
  301. Forced                                   : No
  302. Text #20
  303. ID                                       : 22
  304. Format                                   : UTF-8
  305. Codec ID                                 : S_TEXT/UTF8
  306. Codec ID/Info                            : UTF-8 Plain Text
  307. Duration                                 : 1 h 36 min
  308. Bit rate                                 : 102 b/s
  309. Frame rate                               : 0.271 FPS
  310. Count of elements                        : 1568
  311. Stream size                              : 72.0 KiB (0%)
  312. Language                                 : Hungarian
  313. Default                                  : No
  314. Forced                                   : No
  315. Text #21
  316. ID                                       : 23
  317. Format                                   : UTF-8
  318. Codec ID                                 : S_TEXT/UTF8
  319. Codec ID/Info                            : UTF-8 Plain Text
  320. Duration                                 : 1 h 36 min
  321. Bit rate                                 : 94 b/s
  322. Frame rate                               : 0.271 FPS
  323. Count of elements                        : 1566
  324. Stream size                              : 66.8 KiB (0%)
  325. Language                                 : Indonesian
  326. Default                                  : No
  327. Forced                                   : No
  328. Text #22
  329. ID                                       : 24
  330. Format                                   : UTF-8
  331. Codec ID                                 : S_TEXT/UTF8
  332. Codec ID/Info                            : UTF-8 Plain Text
  333. Duration                                 : 1 h 36 min
  334. Bit rate                                 : 92 b/s
  335. Frame rate                               : 0.275 FPS
  336. Count of elements                        : 1592
  337. Stream size                              : 64.9 KiB (0%)
  338. Language                                 : Italian
  339. Default                                  : No
  340. Forced                                   : No
  341. Text #23
  342. ID                                       : 25
  343. Format                                   : UTF-8
  344. Codec ID                                 : S_TEXT/UTF8
  345. Codec ID/Info                            : UTF-8 Plain Text
  346. Duration                                 : 1 h 36 min
  347. Bit rate                                 : 123 b/s
  348. Frame rate                               : 0.312 FPS
  349. Count of elements                        : 1801
  350. Stream size                              : 87.4 KiB (0%)
  351. Language                                 : Japanese
  352. Default                                  : No
  353. Forced                                   : No
  354. Text #24
  355. ID                                       : 26
  356. Format                                   : UTF-8
  357. Codec ID                                 : S_TEXT/UTF8
  358. Codec ID/Info                            : UTF-8 Plain Text
  359. Duration                                 : 1 h 36 min
  360. Bit rate                                 : 121 b/s
  361. Frame rate                               : 0.302 FPS
  362. Count of elements                        : 1742
  363. Stream size                              : 85.5 KiB (0%)
  364. Language                                 : Korean
  365. Default                                  : No
  366. Forced                                   : No
  367. Text #25
  368. ID                                       : 27
  369. Format                                   : UTF-8
  370. Codec ID                                 : S_TEXT/UTF8
  371. Codec ID/Info                            : UTF-8 Plain Text
  372. Duration                                 : 1 h 36 min
  373. Bit rate                                 : 91 b/s
  374. Frame rate                               : 0.280 FPS
  375. Count of elements                        : 1616
  376. Stream size                              : 64.8 KiB (0%)
  377. Language                                 : Malay
  378. Default                                  : No
  379. Forced                                   : No
  380. Text #26
  381. ID                                       : 28
  382. Format                                   : UTF-8
  383. Codec ID                                 : S_TEXT/UTF8
  384. Codec ID/Info                            : UTF-8 Plain Text
  385. Duration                                 : 1 h 36 min
  386. Bit rate                                 : 88 b/s
  387. Frame rate                               : 0.243 FPS
  388. Count of elements                        : 1402
  389. Stream size                              : 62.7 KiB (0%)
  390. Language                                 : Norwegian Bokmal
  391. Default                                  : No
  392. Forced                                   : No
  393. Text #27
  394. ID                                       : 29
  395. Format                                   : UTF-8
  396. Codec ID                                 : S_TEXT/UTF8
  397. Codec ID/Info                            : UTF-8 Plain Text
  398. Duration                                 : 1 h 36 min
  399. Bit rate                                 : 86 b/s
  400. Frame rate                               : 0.262 FPS
  401. Count of elements                        : 1515
  402. Stream size                              : 61.2 KiB (0%)
  403. Language                                 : Dutch
  404. Default                                  : No
  405. Forced                                   : No
  406. Text #28
  407. ID                                       : 30
  408. Format                                   : UTF-8
  409. Codec ID                                 : S_TEXT/UTF8
  410. Codec ID/Info                            : UTF-8 Plain Text
  411. Duration                                 : 1 h 36 min
  412. Bit rate                                 : 87 b/s
  413. Frame rate                               : 0.259 FPS
  414. Count of elements                        : 1496
  415. Stream size                              : 61.9 KiB (0%)
  416. Language                                 : Polish
  417. Default                                  : No
  418. Forced                                   : No
  419. Text #29
  420. ID                                       : 31
  421. Format                                   : UTF-8
  422. Codec ID                                 : S_TEXT/UTF8
  423. Codec ID/Info                            : UTF-8 Plain Text
  424. Duration                                 : 1 h 36 min
  425. Bit rate                                 : 97 b/s
  426. Frame rate                               : 0.290 FPS
  427. Count of elements                        : 1676
  428. Stream size                              : 69.0 KiB (0%)
  429. Title                                    : Brazilian
  430. Language                                 : Portuguese (BR)
  431. Default                                  : No
  432. Forced                                   : No
  433. Text #30
  434. ID                                       : 32
  435. Format                                   : UTF-8
  436. Codec ID                                 : S_TEXT/UTF8
  437. Codec ID/Info                            : UTF-8 Plain Text
  438. Duration                                 : 1 h 36 min
  439. Bit rate                                 : 98 b/s
  440. Frame rate                               : 0.288 FPS
  441. Count of elements                        : 1665
  442. Stream size                              : 69.6 KiB (0%)
  443. Language                                 : Portuguese (PT)
  444. Default                                  : No
  445. Forced                                   : No
  446. Text #31
  447. ID                                       : 33
  448. Format                                   : UTF-8
  449. Codec ID                                 : S_TEXT/UTF8
  450. Codec ID/Info                            : UTF-8 Plain Text
  451. Duration                                 : 1 h 36 min
  452. Bit rate                                 : 110 b/s
  453. Frame rate                               : 0.281 FPS
  454. Count of elements                        : 1623
  455. Stream size                              : 78.0 KiB (0%)
  456. Language                                 : Romanian
  457. Default                                  : No
  458. Forced                                   : No
  459. Text #32
  460. ID                                       : 34
  461. Format                                   : UTF-8
  462. Codec ID                                 : S_TEXT/UTF8
  463. Codec ID/Info                            : UTF-8 Plain Text
  464. Duration                                 : 1 h 36 min
  465. Bit rate                                 : 166 b/s
  466. Frame rate                               : 0.299 FPS
  467. Count of elements                        : 1727
  468. Stream size                              : 117 KiB (0%)
  469. Language                                 : Russian
  470. Default                                  : No
  471. Forced                                   : No
  472. Text #33
  473. ID                                       : 35
  474. Format                                   : UTF-8
  475. Codec ID                                 : S_TEXT/UTF8
  476. Codec ID/Info                            : UTF-8 Plain Text
  477. Duration                                 : 1 h 36 min
  478. Bit rate                                 : 91 b/s
  479. Frame rate                               : 0.283 FPS
  480. Count of elements                        : 1635
  481. Stream size                              : 64.7 KiB (0%)
  482. Language                                 : Swedish
  483. Default                                  : No
  484. Forced                                   : No
  485. Text #34
  486. ID                                       : 36
  487. Format                                   : UTF-8
  488. Codec ID                                 : S_TEXT/UTF8
  489. Codec ID/Info                            : UTF-8 Plain Text
  490. Duration                                 : 1 h 36 min
  491. Bit rate                                 : 255 b/s
  492. Frame rate                               : 0.297 FPS
  493. Count of elements                        : 1713
  494. Stream size                              : 180 KiB (0%)
  495. Language                                 : Thai
  496. Default                                  : No
  497. Forced                                   : No
  498. Text #35
  499. ID                                       : 37
  500. Format                                   : UTF-8
  501. Codec ID                                 : S_TEXT/UTF8
  502. Codec ID/Info                            : UTF-8 Plain Text
  503. Duration                                 : 1 h 36 min
  504. Bit rate                                 : 95 b/s
  505. Frame rate                               : 0.283 FPS
  506. Count of elements                        : 1637
  507. Stream size                              : 67.1 KiB (0%)
  508. Language                                 : Turkish
  509. Default                                  : No
  510. Forced                                   : No
  511. Text #36
  512. ID                                       : 38
  513. Format                                   : UTF-8
  514. Codec ID                                 : S_TEXT/UTF8
  515. Codec ID/Info                            : UTF-8 Plain Text
  516. Duration                                 : 1 h 36 min
  517. Bit rate                                 : 163 b/s
  518. Frame rate                               : 0.288 FPS
  519. Count of elements                        : 1667
  520. Stream size                              : 115 KiB (0%)
  521. Language                                 : Ukrainian
  522. Default                                  : No
  523. Forced                                   : No
  524. Text #37
  525. ID                                       : 39
  526. Format                                   : UTF-8
  527. Codec ID                                 : S_TEXT/UTF8
  528. Codec ID/Info                            : UTF-8 Plain Text
  529. Duration                                 : 1 h 36 min
  530. Bit rate                                 : 135 b/s
  531. Frame rate                               : 0.287 FPS
  532. Count of elements                        : 1659
  533. Stream size                              : 95.9 KiB (0%)
  534. Language                                 : Vietnamese
  535. Default                                  : No
  536. Forced                                   : No
  537. Text #38
  538. ID                                       : 40
  539. Format                                   : UTF-8
  540. Codec ID                                 : S_TEXT/UTF8
  541. Codec ID/Info                            : UTF-8 Plain Text
  542. Duration                                 : 1 h 36 min
  543. Bit rate                                 : 84 b/s
  544. Frame rate                               : 0.290 FPS
  545. Count of elements                        : 1678
  546. Stream size                              : 59.9 KiB (0%)
  547. Title                                    : Simplified
  548. Language                                 : Chinese (Simplied)
  549. Default                                  : No
  550. Forced                                   : No
  551. Text #39
  552. ID                                       : 41
  553. Format                                   : UTF-8
  554. Codec ID                                 : S_TEXT/UTF8
  555. Codec ID/Info                            : UTF-8 Plain Text
  556. Duration                                 : 1 h 36 min
  557. Bit rate                                 : 94 b/s
  558. Frame rate                               : 0.294 FPS
  559. Count of elements                        : 1699
  560. Stream size                              : 66.6 KiB (0%)
  561. Title                                    : Traditional
  562. Language                                 : Chinese (Traditional)
  563. Default                                  : No
  564. Forced                                   : No
  565. Menu
  566. 01:34:25.000                             : en:End Credits
复制代码











回复

使用道具 举报

懒得打字嘛,点击右侧快捷回复 【右侧内容,后台自定义】
您需要登录后才可以回帖 登录 | 立即加入

本版积分规则

Copyright © 2024 Comsenz Inc. Powered by 蓝光电影网

本站内容由用户自主分享和转载自互联网,转载目的在于传递更多信息,并不代表本网赞同其观点和对其真实性负责。

如有侵权、违反国家法律政策行为,请联系我们,我们会第一时间及时清除和处理!

举报反馈邮箱:4k1080.com@gmail.com

快速回复 返回顶部 返回列表