找回密码

查看: 1771|回复: 2

[2160p-WEB] 救赎之队:2008美国男篮奥运梦[中文字幕].The.Redeem.Team.2022.2160p.NF.WEB-DL.x265.10bit.HDR.DDP5.1.Atmos-COPiUM 7.99GB

[复制链接]
蓝光币
1848
发表于 2023-1-2 14:57:41 | 显示全部楼层 |阅读模式


◎标  题 救赎之队:2008美国男篮奥运梦
◎译  名 死灰复然梦之队 / 救赎之队 / 救赎之队:2008奥运男篮梦(港 / 台)
◎片  名 The Redeem Team
◎年  代 2022
◎产  地 美国
◎类  别 记载片 / 活动
◎语  言 英语
◎上映日期 2022-10-07(美国收集)
◎IMDb评分 7.4/10 (7766人评价)
◎IMDb链接 https://www.imdb.com/title/tt21837726/
◎豆瓣评分 9.0/10 (4214人评价)
◎豆瓣链接 https://movie.douban.com/subject/36077772/
◎片  长 97分钟
◎导  演 乔恩·温巴赫 Jon Weinbach
◎演  员 科比·布莱恩特 Kobe Bryant
       勒布朗·詹姆斯 LeBron James
       德维恩·韦德 Dwyane Wade
       卡梅隆·安东尼 Carmelo Anthony
       卡洛斯·布泽尔 Carlos Boozer
       克里斯·保罗 Chris Paul
       克里斯·波什 Chris Bosh
       杰森·基德 Jason Kidd
       德怀特·霍华德 Dwight Howard
       杰瑞·科朗格洛 Jerry Colangelo
       迈克·克日泽夫斯基 Mike Krzyzewski
       保罗·加索尔 Pau Gasol
       道格·科林斯 Doug Collins
       J·A·艾丹 J.A. Adande
       比尔·普拉施克 Bill Plaschke
       萨姆·史姑娘 Sam Smith
       克里斯·柯林斯 Chris Collins
       麦克·德安东尼 Mike D'Antoni
◎简  介
  《救赎之队:2008 美国男篮奥运梦》收录了史无前例的奥运片断和幕后花絮,报告了继美国男篮在四年前的雅典奥运会上失利后,重征 2008 年北京奥运会的过程。这部记载片活泼刻画了球队若何培育默契,并对德维恩·韦德、勒布朗·詹姆斯、迈克·克日泽夫斯基(K 教练)等运带动和教练停止了深入访谈,他们回首了“救赎之队”如作甚美国篮球建立了新标准。
  1. Video
  2. ID                                       : 1
  3. Format                                   : HEVC
  4. Format/Info                              : High Efficiency Video Coding
  5. Format profile                           : Main 10@L5@Main
  6. HDR format                               : Dolby Vision, Version 1.0, dvhe.08.07, BL+RPU, HDR10 compatible / SMPTE ST 2086, HDR10 compatible
  7. Codec ID                                 : V_MPEGH/ISO/HEVC
  8. Duration                                 : 1 h 36 min
  9. Bit rate                                 : 11.0 Mb/s
  10. Width                                    : 3 840 pixels
  11. Height                                   : 2 160 pixels
  12. Display aspect ratio                     : 16:9
  13. Frame rate mode                          : Constant
  14. Frame rate                               : 25.000 FPS
  15. Color space                              : YUV
  16. Chroma subsampling                       : 4:2:0 (Type 2)
  17. Bit depth                                : 10 bits
  18. Bits/(Pixel*Frame)                       : 0.053
  19. Stream size                              : 7.46 GiB (93%)
  20. Language                                 : English
  21. Default                                  : Yes
  22. Forced                                   : No
  23. Color range                              : Limited
  24. Color primaries                          : BT.2020
  25. Transfer characteristics                 : PQ
  26. Matrix coefficients                      : BT.2020 non-constant
  27. Mastering display color primaries        : Display P3
  28. Mastering display luminance              : min: 0.0001 cd/m2, max: 1000 cd/m2
  29. Maximum Content Light Level              : 996 cd/m2
  30. Maximum Frame-Average Light Level        : 211 cd/m2
  31. Audio
  32. ID                                       : 2
  33. Format                                   : E-AC-3 JOC
  34. Format/Info                              : Enhanced AC-3 with Joint Object Coding
  35. Commercial name                          : Dolby Digital Plus with Dolby Atmos
  36. Codec ID                                 : A_EAC3
  37. Duration                                 : 1 h 38 min
  38. Bit rate mode                            : Constant
  39. Bit rate                                 : 768 kb/s
  40. Channel(s)                               : 6 channels
  41. Channel layout                           : L R C LFE Ls Rs
  42. Sampling rate                            : 48.0 kHz
  43. Frame rate                               : 31.250 FPS (1536 SPF)
  44. Compression mode                         : Lossy
  45. Stream size                              : 539 MiB (7%)
  46. Language                                 : English
  47. Service kind                             : Complete Main
  48. Default                                  : Yes
  49. Forced                                   : No
  50. Complexity index                         : 16
  51. Number of dynamic objects                : 15
  52. Bed channel count                        : 1 channel
  53. Bed channel configuration                : LFE
  54. Text #1
  55. ID                                       : 3
  56. Format                                   : UTF-8
  57. Codec ID                                 : S_TEXT/UTF8
  58. Codec ID/Info                            : UTF-8 Plain Text
  59. Duration                                 : 26 min 27 s
  60. Bit rate                                 : 1 b/s
  61. Frame rate                               : 0.004 FPS
  62. Count of elements                        : 7
  63. Stream size                              : 270 Bytes (0%)
  64. Title                                    : Forced
  65. Language                                 : English
  66. Default                                  : Yes
  67. Forced                                   : Yes
  68. Text #2
  69. ID                                       : 4
  70. Format                                   : UTF-8
  71. Codec ID                                 : S_TEXT/UTF8
  72. Codec ID/Info                            : UTF-8 Plain Text
  73. Duration                                 : 1 h 34 min
  74. Bit rate                                 : 111 b/s
  75. Frame rate                               : 0.299 FPS
  76. Count of elements                        : 1690
  77. Stream size                              : 77.2 KiB (0%)
  78. Language                                 : English
  79. Default                                  : No
  80. Forced                                   : No
  81. Text #3
  82. ID                                       : 5
  83. Format                                   : UTF-8
  84. Codec ID                                 : S_TEXT/UTF8
  85. Codec ID/Info                            : UTF-8 Plain Text
  86. Duration                                 : 1 h 36 min
  87. Bit rate                                 : 121 b/s
  88. Frame rate                               : 0.325 FPS
  89. Count of elements                        : 1878
  90. Stream size                              : 85.8 KiB (0%)
  91. Title                                    : SDH
  92. Language                                 : English
  93. Default                                  : No
  94. Forced                                   : No
  95. Text #4
  96. ID                                       : 6
  97. Format                                   : UTF-8
  98. Codec ID                                 : S_TEXT/UTF8
  99. Codec ID/Info                            : UTF-8 Plain Text
  100. Duration                                 : 1 h 34 min
  101. Bit rate                                 : 183 b/s
  102. Frame rate                               : 0.296 FPS
  103. Count of elements                        : 1674
  104. Stream size                              : 127 KiB (0%)
  105. Language                                 : Arabic
  106. Default                                  : No
  107. Forced                                   : No
  108. Text #5
  109. ID                                       : 7
  110. Format                                   : UTF-8
  111. Codec ID                                 : S_TEXT/UTF8
  112. Codec ID/Info                            : UTF-8 Plain Text
  113. Duration                                 : 1 h 36 min
  114. Bit rate                                 : 98 b/s
  115. Frame rate                               : 0.284 FPS
  116. Count of elements                        : 1641
  117. Stream size                              : 69.2 KiB (0%)
  118. Language                                 : Czech
  119. Default                                  : No
  120. Forced                                   : No
  121. Text #6
  122. ID                                       : 8
  123. Format                                   : UTF-8
  124. Codec ID                                 : S_TEXT/UTF8
  125. Codec ID/Info                            : UTF-8 Plain Text
  126. Duration                                 : 1 h 36 min
  127. Bit rate                                 : 89 b/s
  128. Frame rate                               : 0.228 FPS
  129. Count of elements                        : 1318
  130. Stream size                              : 63.3 KiB (0%)
  131. Language                                 : Danish
  132. Default                                  : No
  133. Forced                                   : No
  134. Text #7
  135. ID                                       : 9
  136. Format                                   : UTF-8
  137. Codec ID                                 : S_TEXT/UTF8
  138. Codec ID/Info                            : UTF-8 Plain Text
  139. Duration                                 : 1 h 36 min
  140. Bit rate                                 : 93 b/s
  141. Frame rate                               : 0.275 FPS
  142. Count of elements                        : 1587
  143. Stream size                              : 66.0 KiB (0%)
  144. Language                                 : German
  145. Default                                  : No
  146. Forced                                   : No
  147. Text #8
  148. ID                                       : 10
  149. Format                                   : UTF-8
  150. Codec ID                                 : S_TEXT/UTF8
  151. Codec ID/Info                            : UTF-8 Plain Text
  152. Duration                                 : 1 h 36 min
  153. Bit rate                                 : 108 b/s
  154. Frame rate                               : 0.272 FPS
  155. Count of elements                        : 1572
  156. Stream size                              : 76.2 KiB (0%)
  157. Language                                 : German
  158. Default                                  : No
  159. Forced                                   : No
  160. Text #9
  161. ID                                       : 11
  162. Format                                   : UTF-8
  163. Codec ID                                 : S_TEXT/UTF8
  164. Codec ID/Info                            : UTF-8 Plain Text
  165. Duration                                 : 1 h 36 min
  166. Bit rate                                 : 116 b/s
  167. Frame rate                               : 0.288 FPS
  168. Count of elements                        : 1666
  169. Stream size                              : 81.9 KiB (0%)
  170. Title                                    : SDH
  171. Language                                 : German
  172. Default                                  : No
  173. Forced                                   : No
  174. Text #10
  175. ID                                       : 12
  176. Format                                   : UTF-8
  177. Codec ID                                 : S_TEXT/UTF8
  178. Codec ID/Info                            : UTF-8 Plain Text
  179. Duration                                 : 1 h 36 min
  180. Bit rate                                 : 173 b/s
  181. Frame rate                               : 0.290 FPS
  182. Count of elements                        : 1676
  183. Stream size                              : 123 KiB (0%)
  184. Language                                 : Greek
  185. Default                                  : No
  186. Forced                                   : No
  187. Text #11
  188. ID                                       : 13
  189. Format                                   : UTF-8
  190. Codec ID                                 : S_TEXT/UTF8
  191. Codec ID/Info                            : UTF-8 Plain Text
  192. Duration                                 : 1 h 34 min
  193. Bit rate                                 : 101 b/s
  194. Frame rate                               : 0.297 FPS
  195. Count of elements                        : 1681
  196. Stream size                              : 70.3 KiB (0%)
  197. Title                                    : Latin American
  198. Language                                 : Spanish (Latin America)
  199. Default                                  : No
  200. Forced                                   : No
  201. Text #12
  202. ID                                       : 14
  203. Format                                   : UTF-8
  204. Codec ID                                 : S_TEXT/UTF8
  205. Codec ID/Info                            : UTF-8 Plain Text
  206. Duration                                 : 1 h 36 min
  207. Bit rate                                 : 97 b/s
  208. Frame rate                               : 0.273 FPS
  209. Count of elements                        : 1576
  210. Stream size                              : 68.8 KiB (0%)
  211. Title                                    : Latin American
  212. Language                                 : Spanish (Latin America)
  213. Default                                  : No
  214. Forced                                   : No
  215. Text #13
  216. ID                                       : 15
  217. Format                                   : UTF-8
  218. Codec ID                                 : S_TEXT/UTF8
  219. Codec ID/Info                            : UTF-8 Plain Text
  220. Duration                                 : 1 h 34 min
  221. Bit rate                                 : 109 b/s
  222. Frame rate                               : 0.315 FPS
  223. Count of elements                        : 1780
  224. Stream size                              : 75.9 KiB (0%)
  225. Title                                    : Latin American (SDH)
  226. Language                                 : Spanish (Latin America)
  227. Default                                  : No
  228. Forced                                   : No
  229. Text #14
  230. ID                                       : 16
  231. Format                                   : UTF-8
  232. Codec ID                                 : S_TEXT/UTF8
  233. Codec ID/Info                            : UTF-8 Plain Text
  234. Duration                                 : 1 h 36 min
  235. Bit rate                                 : 87 b/s
  236. Frame rate                               : 0.281 FPS
  237. Count of elements                        : 1624
  238. Stream size                              : 61.5 KiB (0%)
  239. Language                                 : Spanish (ES)
  240. Default                                  : No
  241. Forced                                   : No
  242. Text #15
  243. ID                                       : 17
  244. Format                                   : UTF-8
  245. Codec ID                                 : S_TEXT/UTF8
  246. Codec ID/Info                            : UTF-8 Plain Text
  247. Duration                                 : 1 h 36 min
  248. Bit rate                                 : 86 b/s
  249. Frame rate                               : 0.257 FPS
  250. Count of elements                        : 1484
  251. Stream size                              : 60.9 KiB (0%)
  252. Language                                 : Finnish
  253. Default                                  : No
  254. Forced                                   : No
  255. Text #16
  256. ID                                       : 18
  257. Format                                   : UTF-8
  258. Codec ID                                 : S_TEXT/UTF8
  259. Codec ID/Info                            : UTF-8 Plain Text
  260. Duration                                 : 1 h 36 min
  261. Bit rate                                 : 96 b/s
  262. Frame rate                               : 0.282 FPS
  263. Count of elements                        : 1632
  264. Stream size                              : 68.1 KiB (0%)
  265. Language                                 : fil
  266. Default                                  : No
  267. Forced                                   : No
  268. Text #17
  269. ID                                       : 19
  270. Format                                   : UTF-8
  271. Codec ID                                 : S_TEXT/UTF8
  272. Codec ID/Info                            : UTF-8 Plain Text
  273. Duration                                 : 1 h 36 min
  274. Bit rate                                 : 97 b/s
  275. Frame rate                               : 0.286 FPS
  276. Count of elements                        : 1655
  277. Stream size                              : 69.1 KiB (0%)
  278. Language                                 : French
  279. Default                                  : No
  280. Forced                                   : No
  281. Text #18
  282. ID                                       : 20
  283. Format                                   : UTF-8
  284. Codec ID                                 : S_TEXT/UTF8
  285. Codec ID/Info                            : UTF-8 Plain Text
  286. Duration                                 : 1 h 36 min
  287. Bit rate                                 : 155 b/s
  288. Frame rate                               : 0.277 FPS
  289. Count of elements                        : 1603
  290. Stream size                              : 110 KiB (0%)
  291. Language                                 : Hebrew
  292. Default                                  : No
  293. Forced                                   : No
  294. Text #19
  295. ID                                       : 21
  296. Format                                   : UTF-8
  297. Codec ID                                 : S_TEXT/UTF8
  298. Codec ID/Info                            : UTF-8 Plain Text
  299. Duration                                 : 1 h 36 min
  300. Bit rate                                 : 89 b/s
  301. Frame rate                               : 0.258 FPS
  302. Count of elements                        : 1492
  303. Stream size                              : 63.1 KiB (0%)
  304. Language                                 : Croatian
  305. Default                                  : No
  306. Forced                                   : No
  307. Text #20
  308. ID                                       : 22
  309. Format                                   : UTF-8
  310. Codec ID                                 : S_TEXT/UTF8
  311. Codec ID/Info                            : UTF-8 Plain Text
  312. Duration                                 : 1 h 36 min
  313. Bit rate                                 : 102 b/s
  314. Frame rate                               : 0.271 FPS
  315. Count of elements                        : 1568
  316. Stream size                              : 72.0 KiB (0%)
  317. Language                                 : Hungarian
  318. Default                                  : No
  319. Forced                                   : No
  320. Text #21
  321. ID                                       : 23
  322. Format                                   : UTF-8
  323. Codec ID                                 : S_TEXT/UTF8
  324. Codec ID/Info                            : UTF-8 Plain Text
  325. Duration                                 : 1 h 36 min
  326. Bit rate                                 : 94 b/s
  327. Frame rate                               : 0.271 FPS
  328. Count of elements                        : 1566
  329. Stream size                              : 66.8 KiB (0%)
  330. Language                                 : Indonesian
  331. Default                                  : No
  332. Forced                                   : No
  333. Text #22
  334. ID                                       : 24
  335. Format                                   : UTF-8
  336. Codec ID                                 : S_TEXT/UTF8
  337. Codec ID/Info                            : UTF-8 Plain Text
  338. Duration                                 : 1 h 36 min
  339. Bit rate                                 : 92 b/s
  340. Frame rate                               : 0.275 FPS
  341. Count of elements                        : 1592
  342. Stream size                              : 64.9 KiB (0%)
  343. Language                                 : Italian
  344. Default                                  : No
  345. Forced                                   : No
  346. Text #23
  347. ID                                       : 25
  348. Format                                   : UTF-8
  349. Codec ID                                 : S_TEXT/UTF8
  350. Codec ID/Info                            : UTF-8 Plain Text
  351. Duration                                 : 1 h 36 min
  352. Bit rate                                 : 123 b/s
  353. Frame rate                               : 0.312 FPS
  354. Count of elements                        : 1801
  355. Stream size                              : 87.4 KiB (0%)
  356. Language                                 : Japanese
  357. Default                                  : No
  358. Forced                                   : No
  359. Text #24
  360. ID                                       : 26
  361. Format                                   : UTF-8
  362. Codec ID                                 : S_TEXT/UTF8
  363. Codec ID/Info                            : UTF-8 Plain Text
  364. Duration                                 : 1 h 36 min
  365. Bit rate                                 : 121 b/s
  366. Frame rate                               : 0.302 FPS
  367. Count of elements                        : 1742
  368. Stream size                              : 85.5 KiB (0%)
  369. Language                                 : Korean
  370. Default                                  : No
  371. Forced                                   : No
  372. Text #25
  373. ID                                       : 27
  374. Format                                   : UTF-8
  375. Codec ID                                 : S_TEXT/UTF8
  376. Codec ID/Info                            : UTF-8 Plain Text
  377. Duration                                 : 1 h 36 min
  378. Bit rate                                 : 91 b/s
  379. Frame rate                               : 0.280 FPS
  380. Count of elements                        : 1616
  381. Stream size                              : 64.8 KiB (0%)
  382. Language                                 : Malay
  383. Default                                  : No
  384. Forced                                   : No
  385. Text #26
  386. ID                                       : 28
  387. Format                                   : UTF-8
  388. Codec ID                                 : S_TEXT/UTF8
  389. Codec ID/Info                            : UTF-8 Plain Text
  390. Duration                                 : 1 h 36 min
  391. Bit rate                                 : 88 b/s
  392. Frame rate                               : 0.243 FPS
  393. Count of elements                        : 1402
  394. Stream size                              : 62.7 KiB (0%)
  395. Language                                 : Norwegian Bokmal
  396. Default                                  : No
  397. Forced                                   : No
  398. Text #27
  399. ID                                       : 29
  400. Format                                   : UTF-8
  401. Codec ID                                 : S_TEXT/UTF8
  402. Codec ID/Info                            : UTF-8 Plain Text
  403. Duration                                 : 1 h 36 min
  404. Bit rate                                 : 86 b/s
  405. Frame rate                               : 0.262 FPS
  406. Count of elements                        : 1515
  407. Stream size                              : 61.2 KiB (0%)
  408. Language                                 : Dutch
  409. Default                                  : No
  410. Forced                                   : No
  411. Text #28
  412. ID                                       : 30
  413. Format                                   : UTF-8
  414. Codec ID                                 : S_TEXT/UTF8
  415. Codec ID/Info                            : UTF-8 Plain Text
  416. Duration                                 : 1 h 36 min
  417. Bit rate                                 : 87 b/s
  418. Frame rate                               : 0.259 FPS
  419. Count of elements                        : 1496
  420. Stream size                              : 61.9 KiB (0%)
  421. Language                                 : Polish
  422. Default                                  : No
  423. Forced                                   : No
  424. Text #29
  425. ID                                       : 31
  426. Format                                   : UTF-8
  427. Codec ID                                 : S_TEXT/UTF8
  428. Codec ID/Info                            : UTF-8 Plain Text
  429. Duration                                 : 1 h 36 min
  430. Bit rate                                 : 97 b/s
  431. Frame rate                               : 0.290 FPS
  432. Count of elements                        : 1676
  433. Stream size                              : 69.0 KiB (0%)
  434. Title                                    : Brazilian
  435. Language                                 : Portuguese (BR)
  436. Default                                  : No
  437. Forced                                   : No
  438. Text #30
  439. ID                                       : 32
  440. Format                                   : UTF-8
  441. Codec ID                                 : S_TEXT/UTF8
  442. Codec ID/Info                            : UTF-8 Plain Text
  443. Duration                                 : 1 h 36 min
  444. Bit rate                                 : 98 b/s
  445. Frame rate                               : 0.288 FPS
  446. Count of elements                        : 1665
  447. Stream size                              : 69.6 KiB (0%)
  448. Language                                 : Portuguese (PT)
  449. Default                                  : No
  450. Forced                                   : No
  451. Text #31
  452. ID                                       : 33
  453. Format                                   : UTF-8
  454. Codec ID                                 : S_TEXT/UTF8
  455. Codec ID/Info                            : UTF-8 Plain Text
  456. Duration                                 : 1 h 36 min
  457. Bit rate                                 : 110 b/s
  458. Frame rate                               : 0.281 FPS
  459. Count of elements                        : 1623
  460. Stream size                              : 78.0 KiB (0%)
  461. Language                                 : Romanian
  462. Default                                  : No
  463. Forced                                   : No
  464. Text #32
  465. ID                                       : 34
  466. Format                                   : UTF-8
  467. Codec ID                                 : S_TEXT/UTF8
  468. Codec ID/Info                            : UTF-8 Plain Text
  469. Duration                                 : 1 h 36 min
  470. Bit rate                                 : 166 b/s
  471. Frame rate                               : 0.299 FPS
  472. Count of elements                        : 1727
  473. Stream size                              : 117 KiB (0%)
  474. Language                                 : Russian
  475. Default                                  : No
  476. Forced                                   : No
  477. Text #33
  478. ID                                       : 35
  479. Format                                   : UTF-8
  480. Codec ID                                 : S_TEXT/UTF8
  481. Codec ID/Info                            : UTF-8 Plain Text
  482. Duration                                 : 1 h 36 min
  483. Bit rate                                 : 91 b/s
  484. Frame rate                               : 0.283 FPS
  485. Count of elements                        : 1635
  486. Stream size                              : 64.7 KiB (0%)
  487. Language                                 : Swedish
  488. Default                                  : No
  489. Forced                                   : No
  490. Text #34
  491. ID                                       : 36
  492. Format                                   : UTF-8
  493. Codec ID                                 : S_TEXT/UTF8
  494. Codec ID/Info                            : UTF-8 Plain Text
  495. Duration                                 : 1 h 36 min
  496. Bit rate                                 : 255 b/s
  497. Frame rate                               : 0.297 FPS
  498. Count of elements                        : 1713
  499. Stream size                              : 180 KiB (0%)
  500. Language                                 : Thai
  501. Default                                  : No
  502. Forced                                   : No
  503. Text #35
  504. ID                                       : 37
  505. Format                                   : UTF-8
  506. Codec ID                                 : S_TEXT/UTF8
  507. Codec ID/Info                            : UTF-8 Plain Text
  508. Duration                                 : 1 h 36 min
  509. Bit rate                                 : 95 b/s
  510. Frame rate                               : 0.283 FPS
  511. Count of elements                        : 1637
  512. Stream size                              : 67.1 KiB (0%)
  513. Language                                 : Turkish
  514. Default                                  : No
  515. Forced                                   : No
  516. Text #36
  517. ID                                       : 38
  518. Format                                   : UTF-8
  519. Codec ID                                 : S_TEXT/UTF8
  520. Codec ID/Info                            : UTF-8 Plain Text
  521. Duration                                 : 1 h 36 min
  522. Bit rate                                 : 163 b/s
  523. Frame rate                               : 0.288 FPS
  524. Count of elements                        : 1667
  525. Stream size                              : 115 KiB (0%)
  526. Language                                 : Ukrainian
  527. Default                                  : No
  528. Forced                                   : No
  529. Text #37
  530. ID                                       : 39
  531. Format                                   : UTF-8
  532. Codec ID                                 : S_TEXT/UTF8
  533. Codec ID/Info                            : UTF-8 Plain Text
  534. Duration                                 : 1 h 36 min
  535. Bit rate                                 : 135 b/s
  536. Frame rate                               : 0.287 FPS
  537. Count of elements                        : 1659
  538. Stream size                              : 95.9 KiB (0%)
  539. Language                                 : Vietnamese
  540. Default                                  : No
  541. Forced                                   : No
  542. Text #38
  543. ID                                       : 40
  544. Format                                   : UTF-8
  545. Codec ID                                 : S_TEXT/UTF8
  546. Codec ID/Info                            : UTF-8 Plain Text
  547. Duration                                 : 1 h 36 min
  548. Bit rate                                 : 84 b/s
  549. Frame rate                               : 0.290 FPS
  550. Count of elements                        : 1678
  551. Stream size                              : 59.9 KiB (0%)
  552. Title                                    : Simplified
  553. Language                                 : Chinese (Simplied)
  554. Default                                  : No
  555. Forced                                   : No
  556. Text #39
  557. ID                                       : 41
  558. Format                                   : UTF-8
  559. Codec ID                                 : S_TEXT/UTF8
  560. Codec ID/Info                            : UTF-8 Plain Text
  561. Duration                                 : 1 h 36 min
  562. Bit rate                                 : 94 b/s
  563. Frame rate                               : 0.294 FPS
  564. Count of elements                        : 1699
  565. Stream size                              : 66.6 KiB (0%)
  566. Title                                    : Traditional
  567. Language                                 : Chinese (Traditional)
  568. Default                                  : No
  569. Forced                                   : No
  570. Menu
  571. 01:34:25.000                             : en:End Credits
复制代码











回复

使用道具 举报

蓝光币
357
发表于 2023-1-2 20:22:03 | 显示全部楼层

这个帖子不回对不起自己!我想我是一天也不能离开蓝光电影网。
回复

使用道具 举报

蓝光币
373
发表于 2023-1-2 21:09:03 | 显示全部楼层
不错的好片支持一下
回复

使用道具 举报

懒得打字嘛,点击右侧快捷回复 【右侧内容,后台自定义】
您需要登录后才可以回帖 登录 | 立即加入

本版积分规则

Copyright © 2024 Comsenz Inc. Powered by 蓝光电影网

本站内容由用户自主分享和转载自互联网,转载目的在于传递更多信息,并不代表本网赞同其观点和对其真实性负责。

如有侵权、违反国家法律政策行为,请联系我们,我们会第一时间及时清除和处理!

举报反馈邮箱:4k1080.com@gmail.com

快速回复 返回顶部 返回列表