找回密码

查看: 1709|回复: 1

[2160p-WEB] 正义黑客[中文字幕].The.Takeover.2022.DUTCH.2160p.NF.WEB-DL.x265.10bit.SDR.DDP5.1-PMS 11.70GB

[复制链接]
蓝光币
1840
发表于 2023-1-2 14:57:41 | 显示全部楼层 |阅读模式


◎标  题 正义黑客
◎译  名 黑客英雌 / 接收
◎片  名 The Takeover
◎年  代 2022
◎产  地 荷兰
◎类  别 行动 / 惊悚
◎语  言 荷兰语 / 英语
◎上映日期 2022-11-01(奈飞收集)
◎IMDb评分 5.2/10 (3356人评价)
◎IMDb链接 https://www.imdb.com/title/tt18082758/
◎豆瓣评分 4.7/10 (151人评价)
◎豆瓣链接 https://movie.douban.com/subject/36118242/
◎片  长 87分钟
◎导  演 安玛丽·范·德蒙 Annemarie van de Mond
◎编  剧 Tijs van Marle Tijs van Marle
◎演  员 盖扎·威兹 Geza Weisz
       弗兰克·拉默斯 Frank Lammers
       苏珊·雷德尔 Susan Radder
       Walid Benmbarek Walid Benmbarek
        Jenny Hsia
◎简  介
  自诩为道德黑客的梅尔·班迪森阻止了一路数据泄露事务,同时也封闭了一个国际犯罪收集,这让她的生活发生了天翻地覆的变化。然后她就成为了方针,并被一段深度捏造的视频“显现”她谋杀了某人。她在一个相亲时熟悉的熟人帮助下开启流亡生活,然后尽一切尽力证实自己的明净。
  1. Video
  2. ID                                       : 1
  3. Format                                   : HEVC
  4. Format/Info                              : High Efficiency Video Coding
  5. Format profile                           : Main 10@L5@Main
  6. Codec ID                                 : V_MPEGH/ISO/HEVC
  7. Duration                                 : 1 h 28 min
  8. Bit rate                                 : 18.3 Mb/s
  9. Width                                    : 3 840 pixels
  10. Height                                   : 2 160 pixels
  11. Display aspect ratio                     : 16:9
  12. Frame rate mode                          : Constant
  13. Frame rate                               : 25.000 FPS
  14. Color space                              : YUV
  15. Chroma subsampling                       : 4:2:0
  16. Bit depth                                : 10 bits
  17. Bits/(Pixel*Frame)                       : 0.088
  18. Stream size                              : 11.3 GiB (97%)
  19. Language                                 : Dutch
  20. Default                                  : Yes
  21. Forced                                   : No
  22. Color range                              : Limited
  23. Color primaries                          : BT.709
  24. Transfer characteristics                 : BT.709
  25. Matrix coefficients                      : BT.709
  26. Audio
  27. ID                                       : 2
  28. Format                                   : E-AC-3
  29. Format/Info                              : Enhanced AC-3
  30. Commercial name                          : Dolby Digital Plus
  31. Codec ID                                 : A_EAC3
  32. Duration                                 : 1 h 28 min
  33. Bit rate mode                            : Constant
  34. Bit rate                                 : 640 kb/s
  35. Channel(s)                               : 6 channels
  36. Channel layout                           : L R C LFE Ls Rs
  37. Sampling rate                            : 48.0 kHz
  38. Frame rate                               : 31.250 FPS (1536 SPF)
  39. Compression mode                         : Lossy
  40. Stream size                              : 405 MiB (3%)
  41. Language                                 : Dutch
  42. Service kind                             : Complete Main
  43. Default                                  : Yes
  44. Forced                                   : No
  45. Text #1
  46. ID                                       : 3
  47. Format                                   : UTF-8
  48. Codec ID                                 : S_TEXT/UTF8
  49. Codec ID/Info                            : UTF-8 Plain Text
  50. Duration                                 : 1 h 23 min
  51. Bit rate                                 : 11 b/s
  52. Frame rate                               : 0.035 FPS
  53. Count of elements                        : 177
  54. Stream size                              : 6.77 KiB (0%)
  55. Title                                    : Forced
  56. Language                                 : Dutch
  57. Default                                  : Yes
  58. Forced                                   : Yes
  59. Text #2
  60. ID                                       : 4
  61. Format                                   : UTF-8
  62. Codec ID                                 : S_TEXT/UTF8
  63. Codec ID/Info                            : UTF-8 Plain Text
  64. Duration                                 : 1 h 23 min
  65. Bit rate                                 : 51 b/s
  66. Frame rate                               : 0.176 FPS
  67. Count of elements                        : 885
  68. Stream size                              : 31.3 KiB (0%)
  69. Language                                 : Dutch
  70. Default                                  : No
  71. Forced                                   : No
  72. Text #3
  73. ID                                       : 5
  74. Format                                   : UTF-8
  75. Codec ID                                 : S_TEXT/UTF8
  76. Codec ID/Info                            : UTF-8 Plain Text
  77. Duration                                 : 1 h 24 min
  78. Bit rate                                 : 61 b/s
  79. Frame rate                               : 0.225 FPS
  80. Count of elements                        : 1135
  81. Stream size                              : 37.6 KiB (0%)
  82. Title                                    : SDH
  83. Language                                 : Dutch
  84. Default                                  : No
  85. Forced                                   : No
  86. Text #4
  87. ID                                       : 6
  88. Format                                   : UTF-8
  89. Codec ID                                 : S_TEXT/UTF8
  90. Codec ID/Info                            : UTF-8 Plain Text
  91. Duration                                 : 1 h 26 min
  92. Bit rate                                 : 80 b/s
  93. Frame rate                               : 0.206 FPS
  94. Count of elements                        : 1074
  95. Stream size                              : 51.3 KiB (0%)
  96. Language                                 : Arabic
  97. Default                                  : No
  98. Forced                                   : No
  99. Text #5
  100. ID                                       : 7
  101. Format                                   : UTF-8
  102. Codec ID                                 : S_TEXT/UTF8
  103. Codec ID/Info                            : UTF-8 Plain Text
  104. Duration                                 : 1 h 26 min
  105. Bit rate                                 : 44 b/s
  106. Frame rate                               : 0.195 FPS
  107. Count of elements                        : 1015
  108. Stream size                              : 28.5 KiB (0%)
  109. Language                                 : Czech
  110. Default                                  : No
  111. Forced                                   : No
  112. Text #6
  113. ID                                       : 8
  114. Format                                   : UTF-8
  115. Codec ID                                 : S_TEXT/UTF8
  116. Codec ID/Info                            : UTF-8 Plain Text
  117. Duration                                 : 1 h 26 min
  118. Bit rate                                 : 43 b/s
  119. Frame rate                               : 0.180 FPS
  120. Count of elements                        : 939
  121. Stream size                              : 27.7 KiB (0%)
  122. Language                                 : Danish
  123. Default                                  : No
  124. Forced                                   : No
  125. Text #7
  126. ID                                       : 9
  127. Format                                   : UTF-8
  128. Codec ID                                 : S_TEXT/UTF8
  129. Codec ID/Info                            : UTF-8 Plain Text
  130. Duration                                 : 1 h 26 min
  131. Bit rate                                 : 44 b/s
  132. Frame rate                               : 0.190 FPS
  133. Count of elements                        : 986
  134. Stream size                              : 28.4 KiB (0%)
  135. Language                                 : German
  136. Default                                  : No
  137. Forced                                   : No
  138. Text #8
  139. ID                                       : 10
  140. Format                                   : UTF-8
  141. Codec ID                                 : S_TEXT/UTF8
  142. Codec ID/Info                            : UTF-8 Plain Text
  143. Duration                                 : 1 h 26 min
  144. Bit rate                                 : 75 b/s
  145. Frame rate                               : 0.195 FPS
  146. Count of elements                        : 1017
  147. Stream size                              : 48.1 KiB (0%)
  148. Language                                 : Greek
  149. Default                                  : No
  150. Forced                                   : No
  151. Text #9
  152. ID                                       : 11
  153. Format                                   : UTF-8
  154. Codec ID                                 : S_TEXT/UTF8
  155. Codec ID/Info                            : UTF-8 Plain Text
  156. Duration                                 : 1 h 23 min
  157. Bit rate                                 : 53 b/s
  158. Frame rate                               : 0.213 FPS
  159. Count of elements                        : 1075
  160. Stream size                              : 32.8 KiB (0%)
  161. Language                                 : English
  162. Default                                  : No
  163. Forced                                   : No
  164. Text #10
  165. ID                                       : 12
  166. Format                                   : UTF-8
  167. Codec ID                                 : S_TEXT/UTF8
  168. Codec ID/Info                            : UTF-8 Plain Text
  169. Duration                                 : 1 h 26 min
  170. Bit rate                                 : 36 b/s
  171. Frame rate                               : 0.153 FPS
  172. Count of elements                        : 794
  173. Stream size                              : 23.4 KiB (0%)
  174. Language                                 : English
  175. Default                                  : No
  176. Forced                                   : No
  177. Text #11
  178. ID                                       : 13
  179. Format                                   : UTF-8
  180. Codec ID                                 : S_TEXT/UTF8
  181. Codec ID/Info                            : UTF-8 Plain Text
  182. Duration                                 : 1 h 25 min
  183. Bit rate                                 : 63 b/s
  184. Frame rate                               : 0.263 FPS
  185. Count of elements                        : 1353
  186. Stream size                              : 40.1 KiB (0%)
  187. Title                                    : SDH
  188. Language                                 : English
  189. Default                                  : No
  190. Forced                                   : No
  191. Text #12
  192. ID                                       : 14
  193. Format                                   : UTF-8
  194. Codec ID                                 : S_TEXT/UTF8
  195. Codec ID/Info                            : UTF-8 Plain Text
  196. Duration                                 : 1 h 24 min
  197. Bit rate                                 : 47 b/s
  198. Frame rate                               : 0.194 FPS
  199. Count of elements                        : 980
  200. Stream size                              : 29.2 KiB (0%)
  201. Title                                    : Latin American
  202. Language                                 : Spanish (Latin America)
  203. Default                                  : No
  204. Forced                                   : No
  205. Text #13
  206. ID                                       : 15
  207. Format                                   : UTF-8
  208. Codec ID                                 : S_TEXT/UTF8
  209. Codec ID/Info                            : UTF-8 Plain Text
  210. Duration                                 : 1 h 26 min
  211. Bit rate                                 : 45 b/s
  212. Frame rate                               : 0.189 FPS
  213. Count of elements                        : 986
  214. Stream size                              : 28.6 KiB (0%)
  215. Language                                 : Spanish (ES)
  216. Default                                  : No
  217. Forced                                   : No
  218. Text #14
  219. ID                                       : 16
  220. Format                                   : UTF-8
  221. Codec ID                                 : S_TEXT/UTF8
  222. Codec ID/Info                            : UTF-8 Plain Text
  223. Duration                                 : 1 h 26 min
  224. Bit rate                                 : 48 b/s
  225. Frame rate                               : 0.151 FPS
  226. Count of elements                        : 788
  227. Stream size                              : 30.7 KiB (0%)
  228. Language                                 : Finnish
  229. Default                                  : No
  230. Forced                                   : No
  231. Text #15
  232. ID                                       : 17
  233. Format                                   : UTF-8
  234. Codec ID                                 : S_TEXT/UTF8
  235. Codec ID/Info                            : UTF-8 Plain Text
  236. Duration                                 : 1 h 23 min
  237. Bit rate                                 : 48 b/s
  238. Frame rate                               : 0.196 FPS
  239. Count of elements                        : 986
  240. Stream size                              : 30.1 KiB (0%)
  241. Language                                 : fil
  242. Default                                  : No
  243. Forced                                   : No
  244. Text #16
  245. ID                                       : 18
  246. Format                                   : UTF-8
  247. Codec ID                                 : S_TEXT/UTF8
  248. Codec ID/Info                            : UTF-8 Plain Text
  249. Duration                                 : 1 h 26 min
  250. Bit rate                                 : 43 b/s
  251. Frame rate                               : 0.193 FPS
  252. Count of elements                        : 1004
  253. Stream size                              : 27.7 KiB (0%)
  254. Language                                 : French
  255. Default                                  : No
  256. Forced                                   : No
  257. Text #17
  258. ID                                       : 19
  259. Format                                   : UTF-8
  260. Codec ID                                 : S_TEXT/UTF8
  261. Codec ID/Info                            : UTF-8 Plain Text
  262. Duration                                 : 1 h 26 min
  263. Bit rate                                 : 75 b/s
  264. Frame rate                               : 0.200 FPS
  265. Count of elements                        : 1040
  266. Stream size                              : 48.2 KiB (0%)
  267. Language                                 : Hebrew
  268. Default                                  : No
  269. Forced                                   : No
  270. Text #18
  271. ID                                       : 20
  272. Format                                   : UTF-8
  273. Codec ID                                 : S_TEXT/UTF8
  274. Codec ID/Info                            : UTF-8 Plain Text
  275. Duration                                 : 1 h 26 min
  276. Bit rate                                 : 43 b/s
  277. Frame rate                               : 0.187 FPS
  278. Count of elements                        : 971
  279. Stream size                              : 27.5 KiB (0%)
  280. Language                                 : Croatian
  281. Default                                  : No
  282. Forced                                   : No
  283. Text #19
  284. ID                                       : 21
  285. Format                                   : UTF-8
  286. Codec ID                                 : S_TEXT/UTF8
  287. Codec ID/Info                            : UTF-8 Plain Text
  288. Duration                                 : 1 h 26 min
  289. Bit rate                                 : 47 b/s
  290. Frame rate                               : 0.185 FPS
  291. Count of elements                        : 963
  292. Stream size                              : 30.0 KiB (0%)
  293. Language                                 : Hungarian
  294. Default                                  : No
  295. Forced                                   : No
  296. Text #20
  297. ID                                       : 22
  298. Format                                   : UTF-8
  299. Codec ID                                 : S_TEXT/UTF8
  300. Codec ID/Info                            : UTF-8 Plain Text
  301. Duration                                 : 1 h 26 min
  302. Bit rate                                 : 47 b/s
  303. Frame rate                               : 0.198 FPS
  304. Count of elements                        : 1032
  305. Stream size                              : 30.1 KiB (0%)
  306. Language                                 : Indonesian
  307. Default                                  : No
  308. Forced                                   : No
  309. Text #21
  310. ID                                       : 23
  311. Format                                   : UTF-8
  312. Codec ID                                 : S_TEXT/UTF8
  313. Codec ID/Info                            : UTF-8 Plain Text
  314. Duration                                 : 1 h 26 min
  315. Bit rate                                 : 44 b/s
  316. Frame rate                               : 0.194 FPS
  317. Count of elements                        : 1012
  318. Stream size                              : 28.3 KiB (0%)
  319. Language                                 : Italian
  320. Default                                  : No
  321. Forced                                   : No
  322. Text #22
  323. ID                                       : 24
  324. Format                                   : UTF-8
  325. Codec ID                                 : S_TEXT/UTF8
  326. Codec ID/Info                            : UTF-8 Plain Text
  327. Duration                                 : 1 h 26 min
  328. Bit rate                                 : 46 b/s
  329. Frame rate                               : 0.203 FPS
  330. Count of elements                        : 1055
  331. Stream size                              : 29.4 KiB (0%)
  332. Language                                 : Japanese
  333. Default                                  : No
  334. Forced                                   : No
  335. Text #23
  336. ID                                       : 25
  337. Format                                   : UTF-8
  338. Codec ID                                 : S_TEXT/UTF8
  339. Codec ID/Info                            : UTF-8 Plain Text
  340. Duration                                 : 1 h 26 min
  341. Bit rate                                 : 55 b/s
  342. Frame rate                               : 0.198 FPS
  343. Count of elements                        : 1030
  344. Stream size                              : 35.0 KiB (0%)
  345. Language                                 : Korean
  346. Default                                  : No
  347. Forced                                   : No
  348. Text #24
  349. ID                                       : 26
  350. Format                                   : UTF-8
  351. Codec ID                                 : S_TEXT/UTF8
  352. Codec ID/Info                            : UTF-8 Plain Text
  353. Duration                                 : 1 h 26 min
  354. Bit rate                                 : 45 b/s
  355. Frame rate                               : 0.197 FPS
  356. Count of elements                        : 1024
  357. Stream size                              : 28.7 KiB (0%)
  358. Language                                 : Malay
  359. Default                                  : No
  360. Forced                                   : No
  361. Text #25
  362. ID                                       : 27
  363. Format                                   : UTF-8
  364. Codec ID                                 : S_TEXT/UTF8
  365. Codec ID/Info                            : UTF-8 Plain Text
  366. Duration                                 : 1 h 26 min
  367. Bit rate                                 : 43 b/s
  368. Frame rate                               : 0.172 FPS
  369. Count of elements                        : 893
  370. Stream size                              : 27.3 KiB (0%)
  371. Language                                 : Norwegian Bokmal
  372. Default                                  : No
  373. Forced                                   : No
  374. Text #26
  375. ID                                       : 28
  376. Format                                   : UTF-8
  377. Codec ID                                 : S_TEXT/UTF8
  378. Codec ID/Info                            : UTF-8 Plain Text
  379. Duration                                 : 1 h 26 min
  380. Bit rate                                 : 44 b/s
  381. Frame rate                               : 0.196 FPS
  382. Count of elements                        : 1022
  383. Stream size                              : 28.3 KiB (0%)
  384. Language                                 : Polish
  385. Default                                  : No
  386. Forced                                   : No
  387. Text #27
  388. ID                                       : 29
  389. Format                                   : UTF-8
  390. Codec ID                                 : S_TEXT/UTF8
  391. Codec ID/Info                            : UTF-8 Plain Text
  392. Duration                                 : 1 h 23 min
  393. Bit rate                                 : 56 b/s
  394. Frame rate                               : 0.222 FPS
  395. Count of elements                        : 1115
  396. Stream size                              : 34.5 KiB (0%)
  397. Title                                    : Brazilian
  398. Language                                 : Portuguese (BR)
  399. Default                                  : No
  400. Forced                                   : No
  401. Text #28
  402. ID                                       : 30
  403. Format                                   : UTF-8
  404. Codec ID                                 : S_TEXT/UTF8
  405. Codec ID/Info                            : UTF-8 Plain Text
  406. Duration                                 : 1 h 26 min
  407. Bit rate                                 : 49 b/s
  408. Frame rate                               : 0.190 FPS
  409. Count of elements                        : 985
  410. Stream size                              : 31.4 KiB (0%)
  411. Title                                    : Brazilian
  412. Language                                 : Portuguese (BR)
  413. Default                                  : No
  414. Forced                                   : No
  415. Text #29
  416. ID                                       : 31
  417. Format                                   : UTF-8
  418. Codec ID                                 : S_TEXT/UTF8
  419. Codec ID/Info                            : UTF-8 Plain Text
  420. Duration                                 : 1 h 25 min
  421. Bit rate                                 : 68 b/s
  422. Frame rate                               : 0.274 FPS
  423. Count of elements                        : 1412
  424. Stream size                              : 42.8 KiB (0%)
  425. Title                                    : Brazilian (SDH)
  426. Language                                 : Portuguese (BR)
  427. Default                                  : No
  428. Forced                                   : No
  429. Text #30
  430. ID                                       : 32
  431. Format                                   : UTF-8
  432. Codec ID                                 : S_TEXT/UTF8
  433. Codec ID/Info                            : UTF-8 Plain Text
  434. Duration                                 : 1 h 26 min
  435. Bit rate                                 : 47 b/s
  436. Frame rate                               : 0.198 FPS
  437. Count of elements                        : 1029
  438. Stream size                              : 30.2 KiB (0%)
  439. Language                                 : Portuguese (PT)
  440. Default                                  : No
  441. Forced                                   : No
  442. Text #31
  443. ID                                       : 33
  444. Format                                   : UTF-8
  445. Codec ID                                 : S_TEXT/UTF8
  446. Codec ID/Info                            : UTF-8 Plain Text
  447. Duration                                 : 1 h 26 min
  448. Bit rate                                 : 51 b/s
  449. Frame rate                               : 0.178 FPS
  450. Count of elements                        : 927
  451. Stream size                              : 32.5 KiB (0%)
  452. Language                                 : Romanian
  453. Default                                  : No
  454. Forced                                   : No
  455. Text #32
  456. ID                                       : 34
  457. Format                                   : UTF-8
  458. Codec ID                                 : S_TEXT/UTF8
  459. Codec ID/Info                            : UTF-8 Plain Text
  460. Duration                                 : 1 h 26 min
  461. Bit rate                                 : 76 b/s
  462. Frame rate                               : 0.194 FPS
  463. Count of elements                        : 1009
  464. Stream size                              : 48.6 KiB (0%)
  465. Language                                 : Russian
  466. Default                                  : No
  467. Forced                                   : No
  468. Text #33
  469. ID                                       : 35
  470. Format                                   : UTF-8
  471. Codec ID                                 : S_TEXT/UTF8
  472. Codec ID/Info                            : UTF-8 Plain Text
  473. Duration                                 : 1 h 26 min
  474. Bit rate                                 : 44 b/s
  475. Frame rate                               : 0.185 FPS
  476. Count of elements                        : 964
  477. Stream size                              : 28.2 KiB (0%)
  478. Language                                 : Swedish
  479. Default                                  : No
  480. Forced                                   : No
  481. Text #34
  482. ID                                       : 36
  483. Format                                   : UTF-8
  484. Codec ID                                 : S_TEXT/UTF8
  485. Codec ID/Info                            : UTF-8 Plain Text
  486. Duration                                 : 1 h 26 min
  487. Bit rate                                 : 117 b/s
  488. Frame rate                               : 0.228 FPS
  489. Count of elements                        : 1184
  490. Stream size                              : 74.9 KiB (0%)
  491. Language                                 : Thai
  492. Default                                  : No
  493. Forced                                   : No
  494. Text #35
  495. ID                                       : 37
  496. Format                                   : UTF-8
  497. Codec ID                                 : S_TEXT/UTF8
  498. Codec ID/Info                            : UTF-8 Plain Text
  499. Duration                                 : 1 h 26 min
  500. Bit rate                                 : 46 b/s
  501. Frame rate                               : 0.197 FPS
  502. Count of elements                        : 1025
  503. Stream size                              : 29.4 KiB (0%)
  504. Language                                 : Turkish
  505. Default                                  : No
  506. Forced                                   : No
  507. Text #36
  508. ID                                       : 38
  509. Format                                   : UTF-8
  510. Codec ID                                 : S_TEXT/UTF8
  511. Codec ID/Info                            : UTF-8 Plain Text
  512. Duration                                 : 1 h 26 min
  513. Bit rate                                 : 74 b/s
  514. Frame rate                               : 0.197 FPS
  515. Count of elements                        : 1025
  516. Stream size                              : 47.0 KiB (0%)
  517. Language                                 : Ukrainian
  518. Default                                  : No
  519. Forced                                   : No
  520. Text #37
  521. ID                                       : 39
  522. Format                                   : UTF-8
  523. Codec ID                                 : S_TEXT/UTF8
  524. Codec ID/Info                            : UTF-8 Plain Text
  525. Duration                                 : 1 h 26 min
  526. Bit rate                                 : 63 b/s
  527. Frame rate                               : 0.199 FPS
  528. Count of elements                        : 1033
  529. Stream size                              : 40.3 KiB (0%)
  530. Language                                 : Vietnamese
  531. Default                                  : No
  532. Forced                                   : No
  533. Text #38
  534. ID                                       : 40
  535. Format                                   : UTF-8
  536. Codec ID                                 : S_TEXT/UTF8
  537. Codec ID/Info                            : UTF-8 Plain Text
  538. Duration                                 : 1 h 26 min
  539. Bit rate                                 : 52 b/s
  540. Frame rate                               : 0.203 FPS
  541. Count of elements                        : 1054
  542. Stream size                              : 33.3 KiB (0%)
  543. Title                                    : Simplified
  544. Language                                 : Chinese (Simplied)
  545. Default                                  : No
  546. Forced                                   : No
  547. Text #39
  548. ID                                       : 41
  549. Format                                   : UTF-8
  550. Codec ID                                 : S_TEXT/UTF8
  551. Codec ID/Info                            : UTF-8 Plain Text
  552. Duration                                 : 1 h 26 min
  553. Bit rate                                 : 49 b/s
  554. Frame rate                               : 0.211 FPS
  555. Count of elements                        : 1095
  556. Stream size                              : 31.4 KiB (0%)
  557. Title                                    : Traditional
  558. Language                                 : Chinese (Traditional)
  559. Default                                  : No
  560. Forced                                   : No
  561. Menu
  562. 01:24:11.000                             : en:End Credits
复制代码











回复

使用道具 举报

蓝光币
354
发表于 2023-1-2 15:04:33 | 显示全部楼层

其实我一直觉得楼主的品味不错!呵呵!蓝光电影网太棒了!
回复

使用道具 举报

懒得打字嘛,点击右侧快捷回复 【右侧内容,后台自定义】
您需要登录后才可以回帖 登录 | 立即加入

本版积分规则

Copyright © 2024 Comsenz Inc. Powered by 蓝光电影网

本站内容由用户自主分享和转载自互联网,转载目的在于传递更多信息,并不代表本网赞同其观点和对其真实性负责。

如有侵权、违反国家法律政策行为,请联系我们,我们会第一时间及时清除和处理!

举报反馈邮箱:4k1080.com@gmail.com

快速回复 返回顶部 返回列表