找回密码

查看: 2071|回复: 5

[2160p-WEB] 正义黑客[中文字幕].The.Takeover.2022.DUTCH.2160p.NF.WEB-DL.DDP5.1.DV.MKV.x265-PMS 11.33GB

[复制链接]
蓝光币
1848
发表于 2023-1-2 14:57:42 | 显示全部楼层 |阅读模式


◎标  题 正义黑客
◎译  名 黑客英雌 / 接收
◎片  名 The Takeover
◎年  代 2022
◎产  地 荷兰
◎类  别 行动 / 惊悚
◎语  言 荷兰语 / 英语
◎上映日期 2022-11-01(奈飞收集)
◎IMDb评分 5.2/10 (3356人评价)
◎IMDb链接 https://www.imdb.com/title/tt18082758/
◎豆瓣评分 4.7/10 (151人评价)
◎豆瓣链接 https://movie.douban.com/subject/36118242/
◎片  长 87分钟
◎导  演 安玛丽·范·德蒙 Annemarie van de Mond
◎编  剧 Tijs van Marle Tijs van Marle
◎演  员 盖扎·威兹 Geza Weisz
       弗兰克·拉默斯 Frank Lammers
       苏珊·雷德尔 Susan Radder
       Walid Benmbarek Walid Benmbarek
        Jenny Hsia
◎简  介
  自诩为道德黑客的梅尔·班迪森阻止了一路数据泄露事务,同时也封闭了一个国际犯罪收集,这让她的生活发生了天翻地覆的变化。然后她就成为了方针,并被一段深度捏造的视频“显现”她谋杀了某人。她在一个相亲时熟悉的熟人帮助下开启流亡生活,然后尽一切尽力证实自己的明净。
  1. Video
  2. ID                                       : 1
  3. Format                                   : HEVC
  4. Format/Info                              : High Efficiency Video Coding
  5. Format profile                           : Main 10@L5@Main
  6. HDR format                               : Dolby Vision, Version 1.0, dvhe.05.07, BL+RPU
  7. Codec ID                                 : V_MPEGH/ISO/HEVC
  8. Duration                                 : 1 h 28 min
  9. Bit rate                                 : 17.7 Mb/s
  10. Width                                    : 3 840 pixels
  11. Height                                   : 2 160 pixels
  12. Display aspect ratio                     : 16:9
  13. Frame rate mode                          : Constant
  14. Frame rate                               : 25.000 FPS
  15. Color space                              : YUV
  16. Chroma subsampling                       : 4:2:0
  17. Bit depth                                : 10 bits
  18. Bits/(Pixel*Frame)                       : 0.085
  19. Stream size                              : 10.9 GiB (96%)
  20. Language                                 : Dutch
  21. Default                                  : Yes
  22. Forced                                   : No
  23. Color range                              : Full
  24. Audio
  25. ID                                       : 2
  26. Format                                   : E-AC-3
  27. Format/Info                              : Enhanced AC-3
  28. Commercial name                          : Dolby Digital Plus
  29. Codec ID                                 : A_EAC3
  30. Duration                                 : 1 h 28 min
  31. Bit rate mode                            : Constant
  32. Bit rate                                 : 640 kb/s
  33. Channel(s)                               : 6 channels
  34. Channel layout                           : L R C LFE Ls Rs
  35. Sampling rate                            : 48.0 kHz
  36. Frame rate                               : 31.250 FPS (1536 SPF)
  37. Compression mode                         : Lossy
  38. Stream size                              : 405 MiB (3%)
  39. Language                                 : Dutch
  40. Service kind                             : Complete Main
  41. Default                                  : Yes
  42. Forced                                   : No
  43. Text #1
  44. ID                                       : 3
  45. Format                                   : UTF-8
  46. Codec ID                                 : S_TEXT/UTF8
  47. Codec ID/Info                            : UTF-8 Plain Text
  48. Duration                                 : 1 h 23 min
  49. Bit rate                                 : 11 b/s
  50. Frame rate                               : 0.035 FPS
  51. Count of elements                        : 177
  52. Stream size                              : 6.77 KiB (0%)
  53. Title                                    : Forced
  54. Language                                 : Dutch
  55. Default                                  : Yes
  56. Forced                                   : Yes
  57. Text #2
  58. ID                                       : 4
  59. Format                                   : UTF-8
  60. Codec ID                                 : S_TEXT/UTF8
  61. Codec ID/Info                            : UTF-8 Plain Text
  62. Duration                                 : 1 h 23 min
  63. Bit rate                                 : 51 b/s
  64. Frame rate                               : 0.176 FPS
  65. Count of elements                        : 885
  66. Stream size                              : 31.3 KiB (0%)
  67. Language                                 : Dutch
  68. Default                                  : No
  69. Forced                                   : No
  70. Text #3
  71. ID                                       : 5
  72. Format                                   : UTF-8
  73. Codec ID                                 : S_TEXT/UTF8
  74. Codec ID/Info                            : UTF-8 Plain Text
  75. Duration                                 : 1 h 24 min
  76. Bit rate                                 : 61 b/s
  77. Frame rate                               : 0.225 FPS
  78. Count of elements                        : 1135
  79. Stream size                              : 37.6 KiB (0%)
  80. Title                                    : SDH
  81. Language                                 : Dutch
  82. Default                                  : No
  83. Forced                                   : No
  84. Text #4
  85. ID                                       : 6
  86. Format                                   : UTF-8
  87. Codec ID                                 : S_TEXT/UTF8
  88. Codec ID/Info                            : UTF-8 Plain Text
  89. Duration                                 : 1 h 26 min
  90. Bit rate                                 : 80 b/s
  91. Frame rate                               : 0.206 FPS
  92. Count of elements                        : 1074
  93. Stream size                              : 51.3 KiB (0%)
  94. Language                                 : Arabic
  95. Default                                  : No
  96. Forced                                   : No
  97. Text #5
  98. ID                                       : 7
  99. Format                                   : UTF-8
  100. Codec ID                                 : S_TEXT/UTF8
  101. Codec ID/Info                            : UTF-8 Plain Text
  102. Duration                                 : 1 h 26 min
  103. Bit rate                                 : 44 b/s
  104. Frame rate                               : 0.195 FPS
  105. Count of elements                        : 1015
  106. Stream size                              : 28.5 KiB (0%)
  107. Language                                 : Czech
  108. Default                                  : No
  109. Forced                                   : No
  110. Text #6
  111. ID                                       : 8
  112. Format                                   : UTF-8
  113. Codec ID                                 : S_TEXT/UTF8
  114. Codec ID/Info                            : UTF-8 Plain Text
  115. Duration                                 : 1 h 26 min
  116. Bit rate                                 : 43 b/s
  117. Frame rate                               : 0.180 FPS
  118. Count of elements                        : 939
  119. Stream size                              : 27.7 KiB (0%)
  120. Language                                 : Danish
  121. Default                                  : No
  122. Forced                                   : No
  123. Text #7
  124. ID                                       : 9
  125. Format                                   : UTF-8
  126. Codec ID                                 : S_TEXT/UTF8
  127. Codec ID/Info                            : UTF-8 Plain Text
  128. Duration                                 : 1 h 26 min
  129. Bit rate                                 : 44 b/s
  130. Frame rate                               : 0.190 FPS
  131. Count of elements                        : 986
  132. Stream size                              : 28.4 KiB (0%)
  133. Language                                 : German
  134. Default                                  : No
  135. Forced                                   : No
  136. Text #8
  137. ID                                       : 10
  138. Format                                   : UTF-8
  139. Codec ID                                 : S_TEXT/UTF8
  140. Codec ID/Info                            : UTF-8 Plain Text
  141. Duration                                 : 1 h 26 min
  142. Bit rate                                 : 75 b/s
  143. Frame rate                               : 0.195 FPS
  144. Count of elements                        : 1017
  145. Stream size                              : 48.1 KiB (0%)
  146. Language                                 : Greek
  147. Default                                  : No
  148. Forced                                   : No
  149. Text #9
  150. ID                                       : 11
  151. Format                                   : UTF-8
  152. Codec ID                                 : S_TEXT/UTF8
  153. Codec ID/Info                            : UTF-8 Plain Text
  154. Duration                                 : 1 h 23 min
  155. Bit rate                                 : 53 b/s
  156. Frame rate                               : 0.213 FPS
  157. Count of elements                        : 1075
  158. Stream size                              : 32.8 KiB (0%)
  159. Language                                 : English
  160. Default                                  : No
  161. Forced                                   : No
  162. Text #10
  163. ID                                       : 12
  164. Format                                   : UTF-8
  165. Codec ID                                 : S_TEXT/UTF8
  166. Codec ID/Info                            : UTF-8 Plain Text
  167. Duration                                 : 1 h 26 min
  168. Bit rate                                 : 36 b/s
  169. Frame rate                               : 0.153 FPS
  170. Count of elements                        : 794
  171. Stream size                              : 23.4 KiB (0%)
  172. Language                                 : English
  173. Default                                  : No
  174. Forced                                   : No
  175. Text #11
  176. ID                                       : 13
  177. Format                                   : UTF-8
  178. Codec ID                                 : S_TEXT/UTF8
  179. Codec ID/Info                            : UTF-8 Plain Text
  180. Duration                                 : 1 h 25 min
  181. Bit rate                                 : 63 b/s
  182. Frame rate                               : 0.263 FPS
  183. Count of elements                        : 1353
  184. Stream size                              : 40.1 KiB (0%)
  185. Title                                    : SDH
  186. Language                                 : English
  187. Default                                  : No
  188. Forced                                   : No
  189. Text #12
  190. ID                                       : 14
  191. Format                                   : UTF-8
  192. Codec ID                                 : S_TEXT/UTF8
  193. Codec ID/Info                            : UTF-8 Plain Text
  194. Duration                                 : 1 h 24 min
  195. Bit rate                                 : 47 b/s
  196. Frame rate                               : 0.194 FPS
  197. Count of elements                        : 980
  198. Stream size                              : 29.2 KiB (0%)
  199. Title                                    : Latin American
  200. Language                                 : Spanish (Latin America)
  201. Default                                  : No
  202. Forced                                   : No
  203. Text #13
  204. ID                                       : 15
  205. Format                                   : UTF-8
  206. Codec ID                                 : S_TEXT/UTF8
  207. Codec ID/Info                            : UTF-8 Plain Text
  208. Duration                                 : 1 h 26 min
  209. Bit rate                                 : 45 b/s
  210. Frame rate                               : 0.189 FPS
  211. Count of elements                        : 986
  212. Stream size                              : 28.6 KiB (0%)
  213. Language                                 : Spanish (ES)
  214. Default                                  : No
  215. Forced                                   : No
  216. Text #14
  217. ID                                       : 16
  218. Format                                   : UTF-8
  219. Codec ID                                 : S_TEXT/UTF8
  220. Codec ID/Info                            : UTF-8 Plain Text
  221. Duration                                 : 1 h 26 min
  222. Bit rate                                 : 48 b/s
  223. Frame rate                               : 0.151 FPS
  224. Count of elements                        : 788
  225. Stream size                              : 30.7 KiB (0%)
  226. Language                                 : Finnish
  227. Default                                  : No
  228. Forced                                   : No
  229. Text #15
  230. ID                                       : 17
  231. Format                                   : UTF-8
  232. Codec ID                                 : S_TEXT/UTF8
  233. Codec ID/Info                            : UTF-8 Plain Text
  234. Duration                                 : 1 h 23 min
  235. Bit rate                                 : 48 b/s
  236. Frame rate                               : 0.196 FPS
  237. Count of elements                        : 986
  238. Stream size                              : 30.1 KiB (0%)
  239. Language                                 : fil
  240. Default                                  : No
  241. Forced                                   : No
  242. Text #16
  243. ID                                       : 18
  244. Format                                   : UTF-8
  245. Codec ID                                 : S_TEXT/UTF8
  246. Codec ID/Info                            : UTF-8 Plain Text
  247. Duration                                 : 1 h 26 min
  248. Bit rate                                 : 43 b/s
  249. Frame rate                               : 0.193 FPS
  250. Count of elements                        : 1004
  251. Stream size                              : 27.7 KiB (0%)
  252. Language                                 : French
  253. Default                                  : No
  254. Forced                                   : No
  255. Text #17
  256. ID                                       : 19
  257. Format                                   : UTF-8
  258. Codec ID                                 : S_TEXT/UTF8
  259. Codec ID/Info                            : UTF-8 Plain Text
  260. Duration                                 : 1 h 26 min
  261. Bit rate                                 : 75 b/s
  262. Frame rate                               : 0.200 FPS
  263. Count of elements                        : 1040
  264. Stream size                              : 48.2 KiB (0%)
  265. Language                                 : Hebrew
  266. Default                                  : No
  267. Forced                                   : No
  268. Text #18
  269. ID                                       : 20
  270. Format                                   : UTF-8
  271. Codec ID                                 : S_TEXT/UTF8
  272. Codec ID/Info                            : UTF-8 Plain Text
  273. Duration                                 : 1 h 26 min
  274. Bit rate                                 : 43 b/s
  275. Frame rate                               : 0.187 FPS
  276. Count of elements                        : 971
  277. Stream size                              : 27.5 KiB (0%)
  278. Language                                 : Croatian
  279. Default                                  : No
  280. Forced                                   : No
  281. Text #19
  282. ID                                       : 21
  283. Format                                   : UTF-8
  284. Codec ID                                 : S_TEXT/UTF8
  285. Codec ID/Info                            : UTF-8 Plain Text
  286. Duration                                 : 1 h 26 min
  287. Bit rate                                 : 47 b/s
  288. Frame rate                               : 0.185 FPS
  289. Count of elements                        : 963
  290. Stream size                              : 30.0 KiB (0%)
  291. Language                                 : Hungarian
  292. Default                                  : No
  293. Forced                                   : No
  294. Text #20
  295. ID                                       : 22
  296. Format                                   : UTF-8
  297. Codec ID                                 : S_TEXT/UTF8
  298. Codec ID/Info                            : UTF-8 Plain Text
  299. Duration                                 : 1 h 26 min
  300. Bit rate                                 : 47 b/s
  301. Frame rate                               : 0.198 FPS
  302. Count of elements                        : 1032
  303. Stream size                              : 30.1 KiB (0%)
  304. Language                                 : Indonesian
  305. Default                                  : No
  306. Forced                                   : No
  307. Text #21
  308. ID                                       : 23
  309. Format                                   : UTF-8
  310. Codec ID                                 : S_TEXT/UTF8
  311. Codec ID/Info                            : UTF-8 Plain Text
  312. Duration                                 : 1 h 26 min
  313. Bit rate                                 : 44 b/s
  314. Frame rate                               : 0.194 FPS
  315. Count of elements                        : 1012
  316. Stream size                              : 28.3 KiB (0%)
  317. Language                                 : Italian
  318. Default                                  : No
  319. Forced                                   : No
  320. Text #22
  321. ID                                       : 24
  322. Format                                   : UTF-8
  323. Codec ID                                 : S_TEXT/UTF8
  324. Codec ID/Info                            : UTF-8 Plain Text
  325. Duration                                 : 1 h 26 min
  326. Bit rate                                 : 46 b/s
  327. Frame rate                               : 0.203 FPS
  328. Count of elements                        : 1055
  329. Stream size                              : 29.4 KiB (0%)
  330. Language                                 : Japanese
  331. Default                                  : No
  332. Forced                                   : No
  333. Text #23
  334. ID                                       : 25
  335. Format                                   : UTF-8
  336. Codec ID                                 : S_TEXT/UTF8
  337. Codec ID/Info                            : UTF-8 Plain Text
  338. Duration                                 : 1 h 26 min
  339. Bit rate                                 : 55 b/s
  340. Frame rate                               : 0.198 FPS
  341. Count of elements                        : 1030
  342. Stream size                              : 35.0 KiB (0%)
  343. Language                                 : Korean
  344. Default                                  : No
  345. Forced                                   : No
  346. Text #24
  347. ID                                       : 26
  348. Format                                   : UTF-8
  349. Codec ID                                 : S_TEXT/UTF8
  350. Codec ID/Info                            : UTF-8 Plain Text
  351. Duration                                 : 1 h 26 min
  352. Bit rate                                 : 45 b/s
  353. Frame rate                               : 0.197 FPS
  354. Count of elements                        : 1024
  355. Stream size                              : 28.7 KiB (0%)
  356. Language                                 : Malay
  357. Default                                  : No
  358. Forced                                   : No
  359. Text #25
  360. ID                                       : 27
  361. Format                                   : UTF-8
  362. Codec ID                                 : S_TEXT/UTF8
  363. Codec ID/Info                            : UTF-8 Plain Text
  364. Duration                                 : 1 h 26 min
  365. Bit rate                                 : 43 b/s
  366. Frame rate                               : 0.172 FPS
  367. Count of elements                        : 893
  368. Stream size                              : 27.3 KiB (0%)
  369. Language                                 : Norwegian Bokmal
  370. Default                                  : No
  371. Forced                                   : No
  372. Text #26
  373. ID                                       : 28
  374. Format                                   : UTF-8
  375. Codec ID                                 : S_TEXT/UTF8
  376. Codec ID/Info                            : UTF-8 Plain Text
  377. Duration                                 : 1 h 26 min
  378. Bit rate                                 : 44 b/s
  379. Frame rate                               : 0.196 FPS
  380. Count of elements                        : 1022
  381. Stream size                              : 28.3 KiB (0%)
  382. Language                                 : Polish
  383. Default                                  : No
  384. Forced                                   : No
  385. Text #27
  386. ID                                       : 29
  387. Format                                   : UTF-8
  388. Codec ID                                 : S_TEXT/UTF8
  389. Codec ID/Info                            : UTF-8 Plain Text
  390. Duration                                 : 1 h 23 min
  391. Bit rate                                 : 56 b/s
  392. Frame rate                               : 0.222 FPS
  393. Count of elements                        : 1115
  394. Stream size                              : 34.5 KiB (0%)
  395. Title                                    : Brazilian
  396. Language                                 : Portuguese (BR)
  397. Default                                  : No
  398. Forced                                   : No
  399. Text #28
  400. ID                                       : 30
  401. Format                                   : UTF-8
  402. Codec ID                                 : S_TEXT/UTF8
  403. Codec ID/Info                            : UTF-8 Plain Text
  404. Duration                                 : 1 h 26 min
  405. Bit rate                                 : 49 b/s
  406. Frame rate                               : 0.190 FPS
  407. Count of elements                        : 985
  408. Stream size                              : 31.4 KiB (0%)
  409. Title                                    : Brazilian
  410. Language                                 : Portuguese (BR)
  411. Default                                  : No
  412. Forced                                   : No
  413. Text #29
  414. ID                                       : 31
  415. Format                                   : UTF-8
  416. Codec ID                                 : S_TEXT/UTF8
  417. Codec ID/Info                            : UTF-8 Plain Text
  418. Duration                                 : 1 h 25 min
  419. Bit rate                                 : 68 b/s
  420. Frame rate                               : 0.274 FPS
  421. Count of elements                        : 1412
  422. Stream size                              : 42.8 KiB (0%)
  423. Title                                    : Brazilian (SDH)
  424. Language                                 : Portuguese (BR)
  425. Default                                  : No
  426. Forced                                   : No
  427. Text #30
  428. ID                                       : 32
  429. Format                                   : UTF-8
  430. Codec ID                                 : S_TEXT/UTF8
  431. Codec ID/Info                            : UTF-8 Plain Text
  432. Duration                                 : 1 h 26 min
  433. Bit rate                                 : 47 b/s
  434. Frame rate                               : 0.198 FPS
  435. Count of elements                        : 1029
  436. Stream size                              : 30.2 KiB (0%)
  437. Language                                 : Portuguese (PT)
  438. Default                                  : No
  439. Forced                                   : No
  440. Text #31
  441. ID                                       : 33
  442. Format                                   : UTF-8
  443. Codec ID                                 : S_TEXT/UTF8
  444. Codec ID/Info                            : UTF-8 Plain Text
  445. Duration                                 : 1 h 26 min
  446. Bit rate                                 : 51 b/s
  447. Frame rate                               : 0.178 FPS
  448. Count of elements                        : 927
  449. Stream size                              : 32.5 KiB (0%)
  450. Language                                 : Romanian
  451. Default                                  : No
  452. Forced                                   : No
  453. Text #32
  454. ID                                       : 34
  455. Format                                   : UTF-8
  456. Codec ID                                 : S_TEXT/UTF8
  457. Codec ID/Info                            : UTF-8 Plain Text
  458. Duration                                 : 1 h 26 min
  459. Bit rate                                 : 76 b/s
  460. Frame rate                               : 0.194 FPS
  461. Count of elements                        : 1009
  462. Stream size                              : 48.6 KiB (0%)
  463. Language                                 : Russian
  464. Default                                  : No
  465. Forced                                   : No
  466. Text #33
  467. ID                                       : 35
  468. Format                                   : UTF-8
  469. Codec ID                                 : S_TEXT/UTF8
  470. Codec ID/Info                            : UTF-8 Plain Text
  471. Duration                                 : 1 h 26 min
  472. Bit rate                                 : 44 b/s
  473. Frame rate                               : 0.185 FPS
  474. Count of elements                        : 964
  475. Stream size                              : 28.2 KiB (0%)
  476. Language                                 : Swedish
  477. Default                                  : No
  478. Forced                                   : No
  479. Text #34
  480. ID                                       : 36
  481. Format                                   : UTF-8
  482. Codec ID                                 : S_TEXT/UTF8
  483. Codec ID/Info                            : UTF-8 Plain Text
  484. Duration                                 : 1 h 26 min
  485. Bit rate                                 : 117 b/s
  486. Frame rate                               : 0.228 FPS
  487. Count of elements                        : 1184
  488. Stream size                              : 74.9 KiB (0%)
  489. Language                                 : Thai
  490. Default                                  : No
  491. Forced                                   : No
  492. Text #35
  493. ID                                       : 37
  494. Format                                   : UTF-8
  495. Codec ID                                 : S_TEXT/UTF8
  496. Codec ID/Info                            : UTF-8 Plain Text
  497. Duration                                 : 1 h 26 min
  498. Bit rate                                 : 46 b/s
  499. Frame rate                               : 0.197 FPS
  500. Count of elements                        : 1025
  501. Stream size                              : 29.4 KiB (0%)
  502. Language                                 : Turkish
  503. Default                                  : No
  504. Forced                                   : No
  505. Text #36
  506. ID                                       : 38
  507. Format                                   : UTF-8
  508. Codec ID                                 : S_TEXT/UTF8
  509. Codec ID/Info                            : UTF-8 Plain Text
  510. Duration                                 : 1 h 26 min
  511. Bit rate                                 : 74 b/s
  512. Frame rate                               : 0.197 FPS
  513. Count of elements                        : 1025
  514. Stream size                              : 47.0 KiB (0%)
  515. Language                                 : Ukrainian
  516. Default                                  : No
  517. Forced                                   : No
  518. Text #37
  519. ID                                       : 39
  520. Format                                   : UTF-8
  521. Codec ID                                 : S_TEXT/UTF8
  522. Codec ID/Info                            : UTF-8 Plain Text
  523. Duration                                 : 1 h 26 min
  524. Bit rate                                 : 63 b/s
  525. Frame rate                               : 0.199 FPS
  526. Count of elements                        : 1033
  527. Stream size                              : 40.3 KiB (0%)
  528. Language                                 : Vietnamese
  529. Default                                  : No
  530. Forced                                   : No
  531. Text #38
  532. ID                                       : 40
  533. Format                                   : UTF-8
  534. Codec ID                                 : S_TEXT/UTF8
  535. Codec ID/Info                            : UTF-8 Plain Text
  536. Duration                                 : 1 h 26 min
  537. Bit rate                                 : 52 b/s
  538. Frame rate                               : 0.203 FPS
  539. Count of elements                        : 1054
  540. Stream size                              : 33.3 KiB (0%)
  541. Title                                    : Simplified
  542. Language                                 : Chinese (Simplied)
  543. Default                                  : No
  544. Forced                                   : No
  545. Text #39
  546. ID                                       : 41
  547. Format                                   : UTF-8
  548. Codec ID                                 : S_TEXT/UTF8
  549. Codec ID/Info                            : UTF-8 Plain Text
  550. Duration                                 : 1 h 26 min
  551. Bit rate                                 : 49 b/s
  552. Frame rate                               : 0.211 FPS
  553. Count of elements                        : 1095
  554. Stream size                              : 31.4 KiB (0%)
  555. Title                                    : Traditional
  556. Language                                 : Chinese (Traditional)
  557. Default                                  : No
  558. Forced                                   : No
  559. Menu
  560. 01:24:11.000                             : en:End Credits
复制代码











相关帖子

回复

使用道具 举报

蓝光币
389
发表于 2023-1-2 15:48:14 | 显示全部楼层
顶楼主辛苦发帖,在生活中蓝光电影网更加丰富多彩
回复

使用道具 举报

蓝光币
373
发表于 2023-1-2 21:06:02 | 显示全部楼层
谢谢楼主无私分享
回复

使用道具 举报

蓝光币
1
发表于 2023-1-3 01:46:13 | 显示全部楼层
顶楼主辛苦发帖,在生活中蓝光电影网更加丰富多彩
回复

使用道具 举报

蓝光币
6
发表于 2023-1-3 02:00:54 | 显示全部楼层
楼主发贴辛苦了,谢谢楼主分享!我觉得蓝光电影网是注册对了!
回复

使用道具 举报

蓝光币
84
发表于 2023-1-3 18:09:44 | 显示全部楼层
谢谢楼主无私分享
回复

使用道具 举报

懒得打字嘛,点击右侧快捷回复 【右侧内容,后台自定义】
您需要登录后才可以回帖 登录 | 立即加入

本版积分规则

Copyright © 2024 Comsenz Inc. Powered by 蓝光电影网

本站内容由用户自主分享和转载自互联网,转载目的在于传递更多信息,并不代表本网赞同其观点和对其真实性负责。

如有侵权、违反国家法律政策行为,请联系我们,我们会第一时间及时清除和处理!

举报反馈邮箱:4k1080.com@gmail.com

快速回复 返回顶部 返回列表