找回密码

查看: 1212|回复: 0

[2160p-WEB] 圣诞有你[中文字幕].Christmas.With.You.2022.2160p.NF.WEB-DL.x265.10bit.HDR.DDP5.1.Atmos-CM 12.05GB

[复制链接]
蓝光币
1848
发表于 2023-1-3 03:28:05 | 显示全部楼层 |阅读模式


◎标  题 圣诞有你
◎译  名 与你共度圣诞
◎片  名 Christmas with You
◎年  代 2022
◎产  地 美国
◎类  别 笑剧 / 恋爱
◎语  言 英语
◎上映日期 2022-11-17(美国收集)
◎IMDb评分 5.6/10 (6193人评价)
◎IMDb链接 https://www.imdb.com/title/tt15824322/
◎豆瓣评分 5.7/10 (122人评价)
◎豆瓣链接 https://movie.douban.com/subject/36075773/
◎片  长 89分钟
◎导  演 Gabriela Tagliavini Gabriela Tagliavini
◎编  剧 迈克尔·瓦拉蒂 Michael Varrati
◎演  员 小弗雷迪·普林兹 Freddie Prinze Jr.
       埃美·加西亚 Aimee Garcia
◎简  介
  感受职业倦怠的风行歌星安吉丽娜逃走,在纽约小镇满足了一个年轻粉丝的愿望,在那边她不但找到了复兴奇迹的灵感,还找到了真爱。
  1. Video
  2. ID                                       : 1
  3. Format                                   : HEVC
  4. Format/Info                              : High Efficiency Video Coding
  5. Format profile                           : Main 10@L5@Main
  6. HDR format                               : SMPTE ST 2086, HDR10 compatible
  7. Codec ID                                 : V_MPEGH/ISO/HEVC
  8. Duration                                 : 1 h 29 min
  9. Bit rate                                 : 18.6 Mb/s
  10. Width                                    : 3 840 pixels
  11. Height                                   : 2 160 pixels
  12. Display aspect ratio                     : 16:9
  13. Frame rate mode                          : Constant
  14. Frame rate                               : 24.000 FPS
  15. Color space                              : YUV
  16. Chroma subsampling                       : 4:2:0 (Type 2)
  17. Bit depth                                : 10 bits
  18. Bits/(Pixel*Frame)                       : 0.093
  19. Stream size                              : 11.6 GiB (96%)
  20. Default                                  : Yes
  21. Forced                                   : No
  22. Color range                              : Limited
  23. Color primaries                          : BT.2020
  24. Transfer characteristics                 : PQ
  25. Matrix coefficients                      : BT.2020 non-constant
  26. Mastering display color primaries        : Display P3
  27. Mastering display luminance              : min: 0.0050 cd/m2, max: 4000 cd/m2
  28. Maximum Content Light Level              : 1276 cd/m2
  29. Maximum Frame-Average Light Level        : 335 cd/m2
  30. Audio
  31. ID                                       : 2
  32. Format                                   : E-AC-3 JOC
  33. Format/Info                              : Enhanced AC-3 with Joint Object Coding
  34. Commercial name                          : Dolby Digital Plus with Dolby Atmos
  35. Codec ID                                 : A_EAC3
  36. Duration                                 : 1 h 30 min
  37. Bit rate mode                            : Constant
  38. Bit rate                                 : 768 kb/s
  39. Channel(s)                               : 6 channels
  40. Channel layout                           : L R C LFE Ls Rs
  41. Sampling rate                            : 48.0 kHz
  42. Frame rate                               : 31.250 FPS (1536 SPF)
  43. Compression mode                         : Lossy
  44. Stream size                              : 497 MiB (4%)
  45. Title                                    : English
  46. Language                                 : English
  47. Service kind                             : Complete Main
  48. Default                                  : No
  49. Forced                                   : No
  50. Complexity index                         : 16
  51. Number of dynamic objects                : 15
  52. Bed channel count                        : 1 channel
  53. Bed channel configuration                : LFE
  54. Text #1
  55. ID                                       : 3
  56. Format                                   : UTF-8
  57. Codec ID                                 : S_TEXT/UTF8
  58. Codec ID/Info                            : UTF-8 Plain Text
  59. Duration                                 : 1 h 28 min
  60. Bit rate                                 : 103 b/s
  61. Frame rate                               : 0.243 FPS
  62. Count of elements                        : 1291
  63. Stream size                              : 67.1 KiB (0%)
  64. Title                                    : Arabic
  65. Language                                 : Arabic
  66. Default                                  : No
  67. Forced                                   : No
  68. Text #2
  69. ID                                       : 4
  70. Format                                   : UTF-8
  71. Codec ID                                 : S_TEXT/UTF8
  72. Codec ID/Info                            : UTF-8 Plain Text
  73. Duration                                 : 1 h 28 min
  74. Bit rate                                 : 51 b/s
  75. Frame rate                               : 0.238 FPS
  76. Count of elements                        : 1264
  77. Stream size                              : 33.6 KiB (0%)
  78. Title                                    : Basque
  79. Language                                 : Basque
  80. Default                                  : No
  81. Forced                                   : No
  82. Text #3
  83. ID                                       : 5
  84. Format                                   : UTF-8
  85. Codec ID                                 : S_TEXT/UTF8
  86. Codec ID/Info                            : UTF-8 Plain Text
  87. Duration                                 : 1 h 28 min
  88. Bit rate                                 : 51 b/s
  89. Frame rate                               : 0.237 FPS
  90. Count of elements                        : 1257
  91. Stream size                              : 33.1 KiB (0%)
  92. Title                                    : Catalan
  93. Language                                 : Catalan
  94. Default                                  : No
  95. Forced                                   : No
  96. Text #4
  97. ID                                       : 6
  98. Format                                   : UTF-8
  99. Codec ID                                 : S_TEXT/UTF8
  100. Codec ID/Info                            : UTF-8 Plain Text
  101. Duration                                 : 1 h 28 min
  102. Bit rate                                 : 64 b/s
  103. Frame rate                               : 0.246 FPS
  104. Count of elements                        : 1307
  105. Stream size                              : 42.0 KiB (0%)
  106. Title                                    : Chinese Simplified
  107. Language                                 : Chinese
  108. Default                                  : No
  109. Forced                                   : No
  110. Text #5
  111. ID                                       : 7
  112. Format                                   : UTF-8
  113. Codec ID                                 : S_TEXT/UTF8
  114. Codec ID/Info                            : UTF-8 Plain Text
  115. Duration                                 : 1 h 28 min
  116. Bit rate                                 : 60 b/s
  117. Frame rate                               : 0.247 FPS
  118. Count of elements                        : 1312
  119. Stream size                              : 39.3 KiB (0%)
  120. Title                                    : Chinese Traditional
  121. Language                                 : Chinese
  122. Default                                  : No
  123. Forced                                   : No
  124. Text #6
  125. ID                                       : 8
  126. Format                                   : UTF-8
  127. Codec ID                                 : S_TEXT/UTF8
  128. Codec ID/Info                            : UTF-8 Plain Text
  129. Duration                                 : 1 h 26 min
  130. Bit rate                                 : 78 b/s
  131. Frame rate                               : 0.310 FPS
  132. Count of elements                        : 1608
  133. Stream size                              : 49.7 KiB (0%)
  134. Title                                    : Czech [SDH]
  135. Language                                 : Czech
  136. Default                                  : No
  137. Forced                                   : No
  138. Text #7
  139. ID                                       : 9
  140. Format                                   : UTF-8
  141. Codec ID                                 : S_TEXT/UTF8
  142. Codec ID/Info                            : UTF-8 Plain Text
  143. Duration                                 : 1 h 23 min
  144. Bit rate                                 : 58 b/s
  145. Frame rate                               : 0.253 FPS
  146. Count of elements                        : 1266
  147. Stream size                              : 35.5 KiB (0%)
  148. Title                                    : Czech
  149. Language                                 : Czech
  150. Default                                  : No
  151. Forced                                   : No
  152. Text #8
  153. ID                                       : 10
  154. Format                                   : UTF-8
  155. Codec ID                                 : S_TEXT/UTF8
  156. Codec ID/Info                            : UTF-8 Plain Text
  157. Duration                                 : 1 h 28 min
  158. Bit rate                                 : 53 b/s
  159. Frame rate                               : 0.229 FPS
  160. Count of elements                        : 1217
  161. Stream size                              : 34.4 KiB (0%)
  162. Title                                    : Danish
  163. Language                                 : Danish
  164. Default                                  : No
  165. Forced                                   : No
  166. Text #9
  167. ID                                       : 11
  168. Format                                   : UTF-8
  169. Codec ID                                 : S_TEXT/UTF8
  170. Codec ID/Info                            : UTF-8 Plain Text
  171. Duration                                 : 1 h 28 min
  172. Bit rate                                 : 54 b/s
  173. Frame rate                               : 0.219 FPS
  174. Count of elements                        : 1163
  175. Stream size                              : 35.4 KiB (0%)
  176. Title                                    : Dutch
  177. Language                                 : Dutch
  178. Default                                  : No
  179. Forced                                   : No
  180. Text #10
  181. ID                                       : 12
  182. Format                                   : UTF-8
  183. Codec ID                                 : S_TEXT/UTF8
  184. Codec ID/Info                            : UTF-8 Plain Text
  185. Duration                                 : 1 h 26 min
  186. Bit rate                                 : 80 b/s
  187. Frame rate                               : 0.310 FPS
  188. Count of elements                        : 1608
  189. Stream size                              : 50.7 KiB (0%)
  190. Title                                    : English [SDH]
  191. Language                                 : English
  192. Default                                  : No
  193. Forced                                   : No
  194. Text #11
  195. ID                                       : 13
  196. Format                                   : UTF-8
  197. Codec ID                                 : S_TEXT/UTF8
  198. Codec ID/Info                            : UTF-8 Plain Text
  199. Duration                                 : 1 h 23 min
  200. Bit rate                                 : 62 b/s
  201. Frame rate                               : 0.253 FPS
  202. Count of elements                        : 1269
  203. Stream size                              : 38.3 KiB (0%)
  204. Title                                    : English
  205. Language                                 : English
  206. Default                                  : No
  207. Forced                                   : No
  208. Text #12
  209. ID                                       : 14
  210. Format                                   : UTF-8
  211. Codec ID                                 : S_TEXT/UTF8
  212. Codec ID/Info                            : UTF-8 Plain Text
  213. Duration                                 : 1 h 28 min
  214. Bit rate                                 : 53 b/s
  215. Frame rate                               : 0.202 FPS
  216. Count of elements                        : 1073
  217. Stream size                              : 34.8 KiB (0%)
  218. Title                                    : Finnish
  219. Language                                 : Finnish
  220. Default                                  : No
  221. Forced                                   : No
  222. Text #13
  223. ID                                       : 15
  224. Format                                   : UTF-8
  225. Codec ID                                 : S_TEXT/UTF8
  226. Codec ID/Info                            : UTF-8 Plain Text
  227. Duration                                 : 1 h 28 min
  228. Bit rate                                 : 52 b/s
  229. Frame rate                               : 0.231 FPS
  230. Count of elements                        : 1225
  231. Stream size                              : 34.3 KiB (0%)
  232. Title                                    : French
  233. Language                                 : French
  234. Default                                  : No
  235. Forced                                   : No
  236. Text #14
  237. ID                                       : 16
  238. Format                                   : UTF-8
  239. Codec ID                                 : S_TEXT/UTF8
  240. Codec ID/Info                            : UTF-8 Plain Text
  241. Duration                                 : 1 h 28 min
  242. Bit rate                                 : 57 b/s
  243. Frame rate                               : 0.235 FPS
  244. Count of elements                        : 1247
  245. Stream size                              : 37.4 KiB (0%)
  246. Title                                    : German
  247. Language                                 : German
  248. Default                                  : No
  249. Forced                                   : No
  250. Text #15
  251. ID                                       : 17
  252. Format                                   : UTF-8
  253. Codec ID                                 : S_TEXT/UTF8
  254. Codec ID/Info                            : UTF-8 Plain Text
  255. Duration                                 : 1 h 28 min
  256. Bit rate                                 : 51 b/s
  257. Frame rate                               : 0.237 FPS
  258. Count of elements                        : 1257
  259. Stream size                              : 33.5 KiB (0%)
  260. Title                                    : Galician
  261. Language                                 : Galician
  262. Default                                  : No
  263. Forced                                   : No
  264. Text #16
  265. ID                                       : 18
  266. Format                                   : UTF-8
  267. Codec ID                                 : S_TEXT/UTF8
  268. Codec ID/Info                            : UTF-8 Plain Text
  269. Duration                                 : 1 h 28 min
  270. Bit rate                                 : 92 b/s
  271. Frame rate                               : 0.230 FPS
  272. Count of elements                        : 1222
  273. Stream size                              : 59.8 KiB (0%)
  274. Title                                    : Greek
  275. Language                                 : Greek
  276. Default                                  : No
  277. Forced                                   : No
  278. Text #17
  279. ID                                       : 19
  280. Format                                   : UTF-8
  281. Codec ID                                 : S_TEXT/UTF8
  282. Codec ID/Info                            : UTF-8 Plain Text
  283. Duration                                 : 1 h 24 min
  284. Bit rate                                 : 94 b/s
  285. Frame rate                               : 0.245 FPS
  286. Count of elements                        : 1245
  287. Stream size                              : 58.3 KiB (0%)
  288. Title                                    : Hebrew
  289. Language                                 : Hebrew
  290. Default                                  : No
  291. Forced                                   : No
  292. Text #18
  293. ID                                       : 20
  294. Format                                   : UTF-8
  295. Codec ID                                 : S_TEXT/UTF8
  296. Codec ID/Info                            : UTF-8 Plain Text
  297. Duration                                 : 1 h 28 min
  298. Bit rate                                 : 49 b/s
  299. Frame rate                               : 0.224 FPS
  300. Count of elements                        : 1191
  301. Stream size                              : 32.3 KiB (0%)
  302. Title                                    : Croatian
  303. Language                                 : Croatian
  304. Default                                  : No
  305. Forced                                   : No
  306. Text #19
  307. ID                                       : 21
  308. Format                                   : UTF-8
  309. Codec ID                                 : S_TEXT/UTF8
  310. Codec ID/Info                            : UTF-8 Plain Text
  311. Duration                                 : 1 h 24 min
  312. Bit rate                                 : 62 b/s
  313. Frame rate                               : 0.266 FPS
  314. Count of elements                        : 1346
  315. Stream size                              : 38.9 KiB (0%)
  316. Title                                    : Hungarian [SDH]
  317. Language                                 : Hungarian
  318. Default                                  : No
  319. Forced                                   : No
  320. Text #20
  321. ID                                       : 22
  322. Format                                   : UTF-8
  323. Codec ID                                 : S_TEXT/UTF8
  324. Codec ID/Info                            : UTF-8 Plain Text
  325. Duration                                 : 1 h 24 min
  326. Bit rate                                 : 57 b/s
  327. Frame rate                               : 0.244 FPS
  328. Count of elements                        : 1235
  329. Stream size                              : 35.3 KiB (0%)
  330. Title                                    : Hungarian
  331. Language                                 : Hungarian
  332. Default                                  : No
  333. Forced                                   : No
  334. Text #21
  335. ID                                       : 23
  336. Format                                   : UTF-8
  337. Codec ID                                 : S_TEXT/UTF8
  338. Codec ID/Info                            : UTF-8 Plain Text
  339. Duration                                 : 1 h 28 min
  340. Bit rate                                 : 56 b/s
  341. Frame rate                               : 0.238 FPS
  342. Count of elements                        : 1267
  343. Stream size                              : 36.9 KiB (0%)
  344. Title                                    : Indonesian
  345. Language                                 : Indonesian
  346. Default                                  : No
  347. Forced                                   : No
  348. Text #22
  349. ID                                       : 24
  350. Format                                   : UTF-8
  351. Codec ID                                 : S_TEXT/UTF8
  352. Codec ID/Info                            : UTF-8 Plain Text
  353. Duration                                 : 1 h 28 min
  354. Bit rate                                 : 54 b/s
  355. Frame rate                               : 0.234 FPS
  356. Count of elements                        : 1243
  357. Stream size                              : 35.0 KiB (0%)
  358. Title                                    : Italian
  359. Language                                 : Italian
  360. Default                                  : No
  361. Forced                                   : No
  362. Text #23
  363. ID                                       : 25
  364. Format                                   : UTF-8
  365. Codec ID                                 : S_TEXT/UTF8
  366. Codec ID/Info                            : UTF-8 Plain Text
  367. Duration                                 : 1 h 28 min
  368. Bit rate                                 : 63 b/s
  369. Frame rate                               : 0.262 FPS
  370. Count of elements                        : 1389
  371. Stream size                              : 41.2 KiB (0%)
  372. Title                                    : Japanese
  373. Language                                 : Japanese
  374. Default                                  : No
  375. Forced                                   : No
  376. Text #24
  377. ID                                       : 26
  378. Format                                   : UTF-8
  379. Codec ID                                 : S_TEXT/UTF8
  380. Codec ID/Info                            : UTF-8 Plain Text
  381. Duration                                 : 1 h 28 min
  382. Bit rate                                 : 70 b/s
  383. Frame rate                               : 0.243 FPS
  384. Count of elements                        : 1290
  385. Stream size                              : 45.8 KiB (0%)
  386. Title                                    : Korean
  387. Language                                 : Korean
  388. Default                                  : No
  389. Forced                                   : No
  390. Text #25
  391. ID                                       : 27
  392. Format                                   : UTF-8
  393. Codec ID                                 : S_TEXT/UTF8
  394. Codec ID/Info                            : UTF-8 Plain Text
  395. Duration                                 : 1 h 28 min
  396. Bit rate                                 : 54 b/s
  397. Frame rate                               : 0.242 FPS
  398. Count of elements                        : 1286
  399. Stream size                              : 35.4 KiB (0%)
  400. Title                                    : Malay
  401. Language                                 : Malay
  402. Default                                  : No
  403. Forced                                   : No
  404. Text #26
  405. ID                                       : 28
  406. Format                                   : UTF-8
  407. Codec ID                                 : S_TEXT/UTF8
  408. Codec ID/Info                            : UTF-8 Plain Text
  409. Duration                                 : 1 h 28 min
  410. Bit rate                                 : 52 b/s
  411. Frame rate                               : 0.209 FPS
  412. Count of elements                        : 1109
  413. Stream size                              : 34.0 KiB (0%)
  414. Title                                    : Norwegian Bokmal
  415. Language                                 : Norwegian Bokmal
  416. Default                                  : No
  417. Forced                                   : No
  418. Text #27
  419. ID                                       : 29
  420. Format                                   : UTF-8
  421. Codec ID                                 : S_TEXT/UTF8
  422. Codec ID/Info                            : UTF-8 Plain Text
  423. Duration                                 : 1 h 28 min
  424. Bit rate                                 : 53 b/s
  425. Frame rate                               : 0.240 FPS
  426. Count of elements                        : 1271
  427. Stream size                              : 34.7 KiB (0%)
  428. Title                                    : Filipino
  429. Language                                 : phi
  430. Default                                  : No
  431. Forced                                   : No
  432. Text #28
  433. ID                                       : 30
  434. Format                                   : UTF-8
  435. Codec ID                                 : S_TEXT/UTF8
  436. Codec ID/Info                            : UTF-8 Plain Text
  437. Duration                                 : 1 h 28 min
  438. Bit rate                                 : 49 b/s
  439. Frame rate                               : 0.212 FPS
  440. Count of elements                        : 1124
  441. Stream size                              : 31.7 KiB (0%)
  442. Title                                    : Polish
  443. Language                                 : Polish
  444. Default                                  : No
  445. Forced                                   : No
  446. Text #29
  447. ID                                       : 31
  448. Format                                   : UTF-8
  449. Codec ID                                 : S_TEXT/UTF8
  450. Codec ID/Info                            : UTF-8 Plain Text
  451. Duration                                 : 1 h 28 min
  452. Bit rate                                 : 71 b/s
  453. Frame rate                               : 0.260 FPS
  454. Count of elements                        : 1378
  455. Stream size                              : 46.1 KiB (0%)
  456. Title                                    : Brazilian Portuguese [SDH]
  457. Language                                 : Portuguese
  458. Default                                  : No
  459. Forced                                   : No
  460. Text #30
  461. ID                                       : 32
  462. Format                                   : UTF-8
  463. Codec ID                                 : S_TEXT/UTF8
  464. Codec ID/Info                            : UTF-8 Plain Text
  465. Duration                                 : 1 h 24 min
  466. Bit rate                                 : 61 b/s
  467. Frame rate                               : 0.227 FPS
  468. Count of elements                        : 1151
  469. Stream size                              : 37.7 KiB (0%)
  470. Title                                    : Brazilian Portuguese
  471. Language                                 : Portuguese
  472. Default                                  : No
  473. Forced                                   : No
  474. Text #31
  475. ID                                       : 33
  476. Format                                   : UTF-8
  477. Codec ID                                 : S_TEXT/UTF8
  478. Codec ID/Info                            : UTF-8 Plain Text
  479. Duration                                 : 1 h 28 min
  480. Bit rate                                 : 52 b/s
  481. Frame rate                               : 0.235 FPS
  482. Count of elements                        : 1249
  483. Stream size                              : 33.8 KiB (0%)
  484. Title                                    : Portuguese
  485. Language                                 : Portuguese
  486. Default                                  : No
  487. Forced                                   : No
  488. Text #32
  489. ID                                       : 34
  490. Format                                   : UTF-8
  491. Codec ID                                 : S_TEXT/UTF8
  492. Codec ID/Info                            : UTF-8 Plain Text
  493. Duration                                 : 1 h 28 min
  494. Bit rate                                 : 62 b/s
  495. Frame rate                               : 0.241 FPS
  496. Count of elements                        : 1282
  497. Stream size                              : 40.3 KiB (0%)
  498. Title                                    : Romanian
  499. Language                                 : Romanian
  500. Default                                  : No
  501. Forced                                   : No
  502. Text #33
  503. ID                                       : 35
  504. Format                                   : UTF-8
  505. Codec ID                                 : S_TEXT/UTF8
  506. Codec ID/Info                            : UTF-8 Plain Text
  507. Duration                                 : 1 h 28 min
  508. Bit rate                                 : 87 b/s
  509. Frame rate                               : 0.243 FPS
  510. Count of elements                        : 1292
  511. Stream size                              : 57.0 KiB (0%)
  512. Title                                    : Russian
  513. Language                                 : Russian
  514. Default                                  : No
  515. Forced                                   : No
  516. Text #34
  517. ID                                       : 36
  518. Format                                   : UTF-8
  519. Codec ID                                 : S_TEXT/UTF8
  520. Codec ID/Info                            : UTF-8 Plain Text
  521. Duration                                 : 1 h 28 min
  522. Bit rate                                 : 51 b/s
  523. Frame rate                               : 0.229 FPS
  524. Count of elements                        : 1214
  525. Stream size                              : 33.3 KiB (0%)
  526. Title                                    : European Spanish
  527. Language                                 : Spanish
  528. Default                                  : No
  529. Forced                                   : No
  530. Text #35
  531. ID                                       : 37
  532. Format                                   : UTF-8
  533. Codec ID                                 : S_TEXT/UTF8
  534. Codec ID/Info                            : UTF-8 Plain Text
  535. Duration                                 : 1 h 28 min
  536. Bit rate                                 : 78 b/s
  537. Frame rate                               : 0.295 FPS
  538. Count of elements                        : 1567
  539. Stream size                              : 51.1 KiB (0%)
  540. Title                                    : Spanish [SDH]
  541. Language                                 : Spanish
  542. Default                                  : No
  543. Forced                                   : No
  544. Text #36
  545. ID                                       : 38
  546. Format                                   : UTF-8
  547. Codec ID                                 : S_TEXT/UTF8
  548. Codec ID/Info                            : UTF-8 Plain Text
  549. Duration                                 : 1 h 28 min
  550. Bit rate                                 : 58 b/s
  551. Frame rate                               : 0.230 FPS
  552. Count of elements                        : 1222
  553. Stream size                              : 37.9 KiB (0%)
  554. Title                                    : Spanish
  555. Language                                 : Spanish
  556. Default                                  : No
  557. Forced                                   : No
  558. Text #37
  559. ID                                       : 39
  560. Format                                   : UTF-8
  561. Codec ID                                 : S_TEXT/UTF8
  562. Codec ID/Info                            : UTF-8 Plain Text
  563. Duration                                 : 1 h 28 min
  564. Bit rate                                 : 57 b/s
  565. Frame rate                               : 0.211 FPS
  566. Count of elements                        : 1121
  567. Stream size                              : 37.2 KiB (0%)
  568. Title                                    : Swedish
  569. Language                                 : Swedish
  570. Default                                  : No
  571. Forced                                   : No
  572. Text #38
  573. ID                                       : 40
  574. Format                                   : UTF-8
  575. Codec ID                                 : S_TEXT/UTF8
  576. Codec ID/Info                            : UTF-8 Plain Text
  577. Duration                                 : 1 h 28 min
  578. Bit rate                                 : 153 b/s
  579. Frame rate                               : 0.246 FPS
  580. Count of elements                        : 1306
  581. Stream size                              : 99.2 KiB (0%)
  582. Title                                    : Thai
  583. Language                                 : Thai
  584. Default                                  : No
  585. Forced                                   : No
  586. Text #39
  587. ID                                       : 41
  588. Format                                   : UTF-8
  589. Codec ID                                 : S_TEXT/UTF8
  590. Codec ID/Info                            : UTF-8 Plain Text
  591. Duration                                 : 1 h 28 min
  592. Bit rate                                 : 53 b/s
  593. Frame rate                               : 0.234 FPS
  594. Count of elements                        : 1242
  595. Stream size                              : 34.4 KiB (0%)
  596. Title                                    : Turkish
  597. Language                                 : Turkish
  598. Default                                  : No
  599. Forced                                   : No
  600. Text #40
  601. ID                                       : 42
  602. Format                                   : UTF-8
  603. Codec ID                                 : S_TEXT/UTF8
  604. Codec ID/Info                            : UTF-8 Plain Text
  605. Duration                                 : 1 h 28 min
  606. Bit rate                                 : 87 b/s
  607. Frame rate                               : 0.246 FPS
  608. Count of elements                        : 1303
  609. Stream size                              : 56.5 KiB (0%)
  610. Title                                    : Ukrainian
  611. Language                                 : Ukrainian
  612. Default                                  : No
  613. Forced                                   : No
  614. Text #41
  615. ID                                       : 43
  616. Format                                   : UTF-8
  617. Codec ID                                 : S_TEXT/UTF8
  618. Codec ID/Info                            : UTF-8 Plain Text
  619. Duration                                 : 1 h 28 min
  620. Bit rate                                 : 78 b/s
  621. Frame rate                               : 0.244 FPS
  622. Count of elements                        : 1296
  623. Stream size                              : 50.7 KiB (0%)
  624. Title                                    : Vietnamese
  625. Language                                 : Vietnamese
  626. Default                                  : No
  627. Forced                                   : No
复制代码











回复

使用道具 举报

懒得打字嘛,点击右侧快捷回复 【右侧内容,后台自定义】
您需要登录后才可以回帖 登录 | 立即加入

本版积分规则

Copyright © 2024 Comsenz Inc. Powered by 蓝光电影网

本站内容由用户自主分享和转载自互联网,转载目的在于传递更多信息,并不代表本网赞同其观点和对其真实性负责。

如有侵权、违反国家法律政策行为,请联系我们,我们会第一时间及时清除和处理!

举报反馈邮箱:4k1080.com@gmail.com

快速回复 返回顶部 返回列表