找回密码

查看: 1260|回复: 0

[2160p-WEB] 戴夫·查佩尔:胜利最终章[中文字幕].Dave.Chappelle.The.Closer.2021.2160p.NF.WEB-DL.DDP5.1.Atmos.DV.MKV.x265-Webber 9.80GB

[复制链接]
蓝光币
1856
发表于 2023-1-3 03:28:05 | 显示全部楼层 |阅读模式


◎标  题 戴夫·查佩尔:成功终极章
◎译  名 David Chappelle: 栋笃终极回(港)
◎片  名 Dave Chappelle: The Closer
◎年  代 2021
◎产  地 美国
◎类  别 笑剧 / 脱口秀
◎语  言 英语
◎上映日期 2021-10-05(美国)
◎IMDb评分 8/10 (27058人评价)
◎IMDb链接 https://www.imdb.com/title/tt15523010/
◎豆瓣评分 8.4/10 (1927人评价)
◎豆瓣链接 https://movie.douban.com/subject/35618442/
◎片  长 72分钟
◎导  演 Stan Lathan Stan Lathan
◎编  剧 大卫·查普尔 Dave Chappelle
◎演  员 大卫·查普尔 Dave Chappelle
◎简  介
  在一系列笑剧特辑的序幕,戴夫站上舞台,诡计廓清一下究竟,再说几句不吐不快的话。
  1. Video
  2. ID                                       : 1
  3. Format                                   : HEVC
  4. Format/Info                              : High Efficiency Video Coding
  5. Format profile                           : Main 10@L5@Main
  6. HDR format                               : Dolby Vision, Version 1.0, dvhe.05.06, BL+RPU
  7. Codec ID                                 : V_MPEGH/ISO/HEVC
  8. Duration                                 : 1 h 12 min
  9. Bit rate                                 : 18.6 Mb/s
  10. Width                                    : 3 840 pixels
  11. Height                                   : 2 160 pixels
  12. Display aspect ratio                     : 16:9
  13. Frame rate mode                          : Constant
  14. Frame rate                               : 23.976 (24000/1001) FPS
  15. Color space                              : YUV
  16. Chroma subsampling                       : 4:2:0
  17. Bit depth                                : 10 bits
  18. Bits/(Pixel*Frame)                       : 0.094
  19. Stream size                              : 9.41 GiB (96%)
  20. Language                                 : English
  21. Default                                  : Yes
  22. Forced                                   : No
  23. Color range                              : Full
  24. Audio
  25. ID                                       : 2
  26. Format                                   : E-AC-3 JOC
  27. Format/Info                              : Enhanced AC-3 with Joint Object Coding
  28. Commercial name                          : Dolby Digital Plus with Dolby Atmos
  29. Codec ID                                 : A_EAC3
  30. Duration                                 : 1 h 12 min
  31. Bit rate mode                            : Constant
  32. Bit rate                                 : 768 kb/s
  33. Channel(s)                               : 6 channels
  34. Channel layout                           : L R C LFE Ls Rs
  35. Sampling rate                            : 48.0 kHz
  36. Frame rate                               : 31.250 FPS (1536 SPF)
  37. Compression mode                         : Lossy
  38. Stream size                              : 397 MiB (4%)
  39. Language                                 : English
  40. Service kind                             : Complete Main
  41. Default                                  : Yes
  42. Forced                                   : No
  43. Complexity index                         : 16
  44. Number of dynamic objects                : 15
  45. Bed channel count                        : 1 channel
  46. Bed channel configuration                : LFE
  47. Text #1
  48. ID                                       : 3
  49. Format                                   : UTF-8
  50. Codec ID                                 : S_TEXT/UTF8
  51. Codec ID/Info                            : UTF-8 Plain Text
  52. Duration                                 : 1 h 8 min
  53. Bit rate                                 : 91 b/s
  54. Frame rate                               : 0.269 FPS
  55. Count of elements                        : 1098
  56. Stream size                              : 45.7 KiB (0%)
  57. Language                                 : English
  58. Default                                  : No
  59. Forced                                   : No
  60. Text #2
  61. ID                                       : 4
  62. Format                                   : UTF-8
  63. Codec ID                                 : S_TEXT/UTF8
  64. Codec ID/Info                            : UTF-8 Plain Text
  65. Duration                                 : 1 h 11 min
  66. Bit rate                                 : 97 b/s
  67. Frame rate                               : 0.310 FPS
  68. Count of elements                        : 1335
  69. Stream size                              : 51.3 KiB (0%)
  70. Title                                    : SDH
  71. Language                                 : English
  72. Default                                  : No
  73. Forced                                   : No
  74. Text #3
  75. ID                                       : 5
  76. Format                                   : UTF-8
  77. Codec ID                                 : S_TEXT/UTF8
  78. Codec ID/Info                            : UTF-8 Plain Text
  79. Duration                                 : 1 h 11 min
  80. Bit rate                                 : 126 b/s
  81. Frame rate                               : 0.256 FPS
  82. Count of elements                        : 1103
  83. Stream size                              : 66.7 KiB (0%)
  84. Language                                 : Arabic
  85. Default                                  : No
  86. Forced                                   : No
  87. Text #4
  88. ID                                       : 6
  89. Format                                   : UTF-8
  90. Codec ID                                 : S_TEXT/UTF8
  91. Codec ID/Info                            : UTF-8 Plain Text
  92. Duration                                 : 1 h 11 min
  93. Bit rate                                 : 71 b/s
  94. Frame rate                               : 0.238 FPS
  95. Count of elements                        : 1026
  96. Stream size                              : 37.7 KiB (0%)
  97. Language                                 : Czech
  98. Default                                  : No
  99. Forced                                   : No
  100. Text #5
  101. ID                                       : 7
  102. Format                                   : UTF-8
  103. Codec ID                                 : S_TEXT/UTF8
  104. Codec ID/Info                            : UTF-8 Plain Text
  105. Duration                                 : 1 h 11 min
  106. Bit rate                                 : 72 b/s
  107. Frame rate                               : 0.256 FPS
  108. Count of elements                        : 1104
  109. Stream size                              : 38.2 KiB (0%)
  110. Language                                 : Danish
  111. Default                                  : No
  112. Forced                                   : No
  113. Text #6
  114. ID                                       : 8
  115. Format                                   : UTF-8
  116. Codec ID                                 : S_TEXT/UTF8
  117. Codec ID/Info                            : UTF-8 Plain Text
  118. Duration                                 : 1 h 11 min
  119. Bit rate                                 : 99 b/s
  120. Frame rate                               : 0.256 FPS
  121. Count of elements                        : 1103
  122. Stream size                              : 52.5 KiB (0%)
  123. Language                                 : German
  124. Default                                  : No
  125. Forced                                   : No
  126. Text #7
  127. ID                                       : 9
  128. Format                                   : UTF-8
  129. Codec ID                                 : S_TEXT/UTF8
  130. Codec ID/Info                            : UTF-8 Plain Text
  131. Duration                                 : 1 h 11 min
  132. Bit rate                                 : 140 b/s
  133. Frame rate                               : 0.262 FPS
  134. Count of elements                        : 1119
  135. Stream size                              : 73.5 KiB (0%)
  136. Language                                 : Greek
  137. Default                                  : No
  138. Forced                                   : No
  139. Text #8
  140. ID                                       : 10
  141. Format                                   : UTF-8
  142. Codec ID                                 : S_TEXT/UTF8
  143. Codec ID/Info                            : UTF-8 Plain Text
  144. Duration                                 : 1 h 11 min
  145. Bit rate                                 : 84 b/s
  146. Frame rate                               : 0.256 FPS
  147. Count of elements                        : 1103
  148. Stream size                              : 44.4 KiB (0%)
  149. Title                                    : Latin American
  150. Language                                 : Spanish (Latin America)
  151. Default                                  : No
  152. Forced                                   : No
  153. Text #9
  154. ID                                       : 11
  155. Format                                   : UTF-8
  156. Codec ID                                 : S_TEXT/UTF8
  157. Codec ID/Info                            : UTF-8 Plain Text
  158. Duration                                 : 1 h 11 min
  159. Bit rate                                 : 78 b/s
  160. Frame rate                               : 0.243 FPS
  161. Count of elements                        : 1048
  162. Stream size                              : 41.2 KiB (0%)
  163. Language                                 : Spanish (ES)
  164. Default                                  : No
  165. Forced                                   : No
  166. Text #10
  167. ID                                       : 12
  168. Format                                   : UTF-8
  169. Codec ID                                 : S_TEXT/UTF8
  170. Codec ID/Info                            : UTF-8 Plain Text
  171. Duration                                 : 1 h 11 min
  172. Bit rate                                 : 75 b/s
  173. Frame rate                               : 0.243 FPS
  174. Count of elements                        : 1047
  175. Stream size                              : 39.7 KiB (0%)
  176. Language                                 : Finnish
  177. Default                                  : No
  178. Forced                                   : No
  179. Text #11
  180. ID                                       : 13
  181. Format                                   : UTF-8
  182. Codec ID                                 : S_TEXT/UTF8
  183. Codec ID/Info                            : UTF-8 Plain Text
  184. Duration                                 : 1 h 11 min
  185. Bit rate                                 : 87 b/s
  186. Frame rate                               : 0.232 FPS
  187. Count of elements                        : 1000
  188. Stream size                              : 46.1 KiB (0%)
  189. Language                                 : French
  190. Default                                  : No
  191. Forced                                   : No
  192. Text #12
  193. ID                                       : 14
  194. Format                                   : UTF-8
  195. Codec ID                                 : S_TEXT/UTF8
  196. Codec ID/Info                            : UTF-8 Plain Text
  197. Duration                                 : 1 h 11 min
  198. Bit rate                                 : 123 b/s
  199. Frame rate                               : 0.256 FPS
  200. Count of elements                        : 1104
  201. Stream size                              : 64.8 KiB (0%)
  202. Language                                 : Hebrew
  203. Default                                  : No
  204. Forced                                   : No
  205. Text #13
  206. ID                                       : 15
  207. Format                                   : UTF-8
  208. Codec ID                                 : S_TEXT/UTF8
  209. Codec ID/Info                            : UTF-8 Plain Text
  210. Duration                                 : 1 h 11 min
  211. Bit rate                                 : 72 b/s
  212. Frame rate                               : 0.255 FPS
  213. Count of elements                        : 1100
  214. Stream size                              : 37.9 KiB (0%)
  215. Language                                 : Croatian
  216. Default                                  : No
  217. Forced                                   : No
  218. Text #14
  219. ID                                       : 16
  220. Format                                   : UTF-8
  221. Codec ID                                 : S_TEXT/UTF8
  222. Codec ID/Info                            : UTF-8 Plain Text
  223. Duration                                 : 1 h 11 min
  224. Bit rate                                 : 75 b/s
  225. Frame rate                               : 0.226 FPS
  226. Count of elements                        : 973
  227. Stream size                              : 39.9 KiB (0%)
  228. Language                                 : Hungarian
  229. Default                                  : No
  230. Forced                                   : No
  231. Text #15
  232. ID                                       : 17
  233. Format                                   : UTF-8
  234. Codec ID                                 : S_TEXT/UTF8
  235. Codec ID/Info                            : UTF-8 Plain Text
  236. Duration                                 : 1 h 11 min
  237. Bit rate                                 : 86 b/s
  238. Frame rate                               : 0.256 FPS
  239. Count of elements                        : 1103
  240. Stream size                              : 45.4 KiB (0%)
  241. Language                                 : Indonesian
  242. Default                                  : No
  243. Forced                                   : No
  244. Text #16
  245. ID                                       : 18
  246. Format                                   : UTF-8
  247. Codec ID                                 : S_TEXT/UTF8
  248. Codec ID/Info                            : UTF-8 Plain Text
  249. Duration                                 : 1 h 11 min
  250. Bit rate                                 : 73 b/s
  251. Frame rate                               : 0.247 FPS
  252. Count of elements                        : 1064
  253. Stream size                              : 38.8 KiB (0%)
  254. Language                                 : Italian
  255. Default                                  : No
  256. Forced                                   : No
  257. Text #17
  258. ID                                       : 19
  259. Format                                   : UTF-8
  260. Codec ID                                 : S_TEXT/UTF8
  261. Codec ID/Info                            : UTF-8 Plain Text
  262. Duration                                 : 1 h 11 min
  263. Bit rate                                 : 81 b/s
  264. Frame rate                               : 0.239 FPS
  265. Count of elements                        : 1031
  266. Stream size                              : 43.0 KiB (0%)
  267. Language                                 : Japanese
  268. Default                                  : No
  269. Forced                                   : No
  270. Text #18
  271. ID                                       : 20
  272. Format                                   : UTF-8
  273. Codec ID                                 : S_TEXT/UTF8
  274. Codec ID/Info                            : UTF-8 Plain Text
  275. Duration                                 : 1 h 11 min
  276. Bit rate                                 : 97 b/s
  277. Frame rate                               : 0.269 FPS
  278. Count of elements                        : 1158
  279. Stream size                              : 51.5 KiB (0%)
  280. Language                                 : Korean
  281. Default                                  : No
  282. Forced                                   : No
  283. Text #19
  284. ID                                       : 21
  285. Format                                   : UTF-8
  286. Codec ID                                 : S_TEXT/UTF8
  287. Codec ID/Info                            : UTF-8 Plain Text
  288. Duration                                 : 1 h 11 min
  289. Bit rate                                 : 72 b/s
  290. Frame rate                               : 0.253 FPS
  291. Count of elements                        : 1092
  292. Stream size                              : 38.0 KiB (0%)
  293. Language                                 : Malay
  294. Default                                  : No
  295. Forced                                   : No
  296. Text #20
  297. ID                                       : 22
  298. Format                                   : UTF-8
  299. Codec ID                                 : S_TEXT/UTF8
  300. Codec ID/Info                            : UTF-8 Plain Text
  301. Duration                                 : 1 h 11 min
  302. Bit rate                                 : 72 b/s
  303. Frame rate                               : 0.208 FPS
  304. Count of elements                        : 898
  305. Stream size                              : 38.1 KiB (0%)
  306. Language                                 : Norwegian Bokmal
  307. Default                                  : No
  308. Forced                                   : No
  309. Text #21
  310. ID                                       : 23
  311. Format                                   : UTF-8
  312. Codec ID                                 : S_TEXT/UTF8
  313. Codec ID/Info                            : UTF-8 Plain Text
  314. Duration                                 : 1 h 11 min
  315. Bit rate                                 : 77 b/s
  316. Frame rate                               : 0.244 FPS
  317. Count of elements                        : 1053
  318. Stream size                              : 41.0 KiB (0%)
  319. Language                                 : Dutch
  320. Default                                  : No
  321. Forced                                   : No
  322. Text #22
  323. ID                                       : 24
  324. Format                                   : UTF-8
  325. Codec ID                                 : S_TEXT/UTF8
  326. Codec ID/Info                            : UTF-8 Plain Text
  327. Duration                                 : 1 h 11 min
  328. Bit rate                                 : 69 b/s
  329. Frame rate                               : 0.253 FPS
  330. Count of elements                        : 1091
  331. Stream size                              : 36.5 KiB (0%)
  332. Language                                 : Polish
  333. Default                                  : No
  334. Forced                                   : No
  335. Text #23
  336. ID                                       : 25
  337. Format                                   : UTF-8
  338. Codec ID                                 : S_TEXT/UTF8
  339. Codec ID/Info                            : UTF-8 Plain Text
  340. Duration                                 : 1 h 11 min
  341. Bit rate                                 : 80 b/s
  342. Frame rate                               : 0.254 FPS
  343. Count of elements                        : 1093
  344. Stream size                              : 42.6 KiB (0%)
  345. Title                                    : Brazilian
  346. Language                                 : Portuguese (BR)
  347. Default                                  : No
  348. Forced                                   : No
  349. Text #24
  350. ID                                       : 26
  351. Format                                   : UTF-8
  352. Codec ID                                 : S_TEXT/UTF8
  353. Codec ID/Info                            : UTF-8 Plain Text
  354. Duration                                 : 1 h 11 min
  355. Bit rate                                 : 74 b/s
  356. Frame rate                               : 0.247 FPS
  357. Count of elements                        : 1063
  358. Stream size                              : 39.1 KiB (0%)
  359. Language                                 : Portuguese (PT)
  360. Default                                  : No
  361. Forced                                   : No
  362. Text #25
  363. ID                                       : 27
  364. Format                                   : UTF-8
  365. Codec ID                                 : S_TEXT/UTF8
  366. Codec ID/Info                            : UTF-8 Plain Text
  367. Duration                                 : 1 h 11 min
  368. Bit rate                                 : 82 b/s
  369. Frame rate                               : 0.244 FPS
  370. Count of elements                        : 1054
  371. Stream size                              : 43.5 KiB (0%)
  372. Language                                 : Romanian
  373. Default                                  : No
  374. Forced                                   : No
  375. Text #26
  376. ID                                       : 28
  377. Format                                   : UTF-8
  378. Codec ID                                 : S_TEXT/UTF8
  379. Codec ID/Info                            : UTF-8 Plain Text
  380. Duration                                 : 1 h 11 min
  381. Bit rate                                 : 121 b/s
  382. Frame rate                               : 0.252 FPS
  383. Count of elements                        : 1087
  384. Stream size                              : 64.0 KiB (0%)
  385. Language                                 : Russian
  386. Default                                  : No
  387. Forced                                   : No
  388. Text #27
  389. ID                                       : 29
  390. Format                                   : UTF-8
  391. Codec ID                                 : S_TEXT/UTF8
  392. Codec ID/Info                            : UTF-8 Plain Text
  393. Duration                                 : 1 h 11 min
  394. Bit rate                                 : 74 b/s
  395. Frame rate                               : 0.251 FPS
  396. Count of elements                        : 1082
  397. Stream size                              : 39.3 KiB (0%)
  398. Language                                 : Swedish
  399. Default                                  : No
  400. Forced                                   : No
  401. Text #28
  402. ID                                       : 30
  403. Format                                   : UTF-8
  404. Codec ID                                 : S_TEXT/UTF8
  405. Codec ID/Info                            : UTF-8 Plain Text
  406. Duration                                 : 1 h 11 min
  407. Bit rate                                 : 197 b/s
  408. Frame rate                               : 0.252 FPS
  409. Count of elements                        : 1088
  410. Stream size                              : 104 KiB (0%)
  411. Language                                 : Thai
  412. Default                                  : No
  413. Forced                                   : No
  414. Text #29
  415. ID                                       : 31
  416. Format                                   : UTF-8
  417. Codec ID                                 : S_TEXT/UTF8
  418. Codec ID/Info                            : UTF-8 Plain Text
  419. Duration                                 : 1 h 11 min
  420. Bit rate                                 : 76 b/s
  421. Frame rate                               : 0.256 FPS
  422. Count of elements                        : 1103
  423. Stream size                              : 40.0 KiB (0%)
  424. Language                                 : Turkish
  425. Default                                  : No
  426. Forced                                   : No
  427. Text #30
  428. ID                                       : 32
  429. Format                                   : UTF-8
  430. Codec ID                                 : S_TEXT/UTF8
  431. Codec ID/Info                            : UTF-8 Plain Text
  432. Duration                                 : 1 h 11 min
  433. Bit rate                                 : 145 b/s
  434. Frame rate                               : 0.255 FPS
  435. Count of elements                        : 1101
  436. Stream size                              : 76.4 KiB (0%)
  437. Language                                 : Ukrainian
  438. Default                                  : No
  439. Forced                                   : No
  440. Text #31
  441. ID                                       : 33
  442. Format                                   : UTF-8
  443. Codec ID                                 : S_TEXT/UTF8
  444. Codec ID/Info                            : UTF-8 Plain Text
  445. Duration                                 : 1 h 11 min
  446. Bit rate                                 : 121 b/s
  447. Frame rate                               : 0.249 FPS
  448. Count of elements                        : 1075
  449. Stream size                              : 64.0 KiB (0%)
  450. Language                                 : Vietnamese
  451. Default                                  : No
  452. Forced                                   : No
  453. Text #32
  454. ID                                       : 34
  455. Format                                   : UTF-8
  456. Codec ID                                 : S_TEXT/UTF8
  457. Codec ID/Info                            : UTF-8 Plain Text
  458. Duration                                 : 1 h 11 min
  459. Bit rate                                 : 79 b/s
  460. Frame rate                               : 0.256 FPS
  461. Count of elements                        : 1103
  462. Stream size                              : 41.8 KiB (0%)
  463. Title                                    : Simplified
  464. Language                                 : Chinese (Simplied)
  465. Default                                  : No
  466. Forced                                   : No
  467. Text #33
  468. ID                                       : 35
  469. Format                                   : UTF-8
  470. Codec ID                                 : S_TEXT/UTF8
  471. Codec ID/Info                            : UTF-8 Plain Text
  472. Duration                                 : 1 h 11 min
  473. Bit rate                                 : 88 b/s
  474. Frame rate                               : 0.256 FPS
  475. Count of elements                        : 1103
  476. Stream size                              : 46.5 KiB (0%)
  477. Title                                    : Traditional
  478. Language                                 : Chinese (Traditional)
  479. Default                                  : No
  480. Forced                                   : No
  481. Menu
  482. 01:12:05.000                             : en:End Credits
复制代码











回复

使用道具 举报

懒得打字嘛,点击右侧快捷回复 【右侧内容,后台自定义】
您需要登录后才可以回帖 登录 | 立即加入

本版积分规则

Copyright © 2024 Comsenz Inc. Powered by 蓝光电影网

本站内容由用户自主分享和转载自互联网,转载目的在于传递更多信息,并不代表本网赞同其观点和对其真实性负责。

如有侵权、违反国家法律政策行为,请联系我们,我们会第一时间及时清除和处理!

举报反馈邮箱:4k1080.com@gmail.com

快速回复 返回顶部 返回列表