找回密码

查看: 1150|回复: 0

[2160p-WEB] 戴夫·查佩尔:胜利最终章[中文字幕].Dave.Chappelle.The.Closer.2021.2160p.NF.WEB-DL.DDP5.1.Atmos.DV.MP4.x265-DVSUX 9.80GB

[复制链接]
蓝光币
1848
发表于 2023-1-3 03:28:05 | 显示全部楼层 |阅读模式


◎标  题 戴夫·查佩尔:成功终极章
◎译  名 David Chappelle: 栋笃终极回(港)
◎片  名 Dave Chappelle: The Closer
◎年  代 2021
◎产  地 美国
◎类  别 笑剧 / 脱口秀
◎语  言 英语
◎上映日期 2021-10-05(美国)
◎IMDb评分 8/10 (27058人评价)
◎IMDb链接 https://www.imdb.com/title/tt15523010/
◎豆瓣评分 8.4/10 (1927人评价)
◎豆瓣链接 https://movie.douban.com/subject/35618442/
◎片  长 72分钟
◎导  演 Stan Lathan Stan Lathan
◎编  剧 大卫·查普尔 Dave Chappelle
◎演  员 大卫·查普尔 Dave Chappelle
◎简  介
  在一系列笑剧特辑的序幕,戴夫站上舞台,诡计廓清一下究竟,再说几句不吐不快的话。
  1. Video
  2. ID                                       : 1
  3. Format                                   : HEVC
  4. Format/Info                              : High Efficiency Video Coding
  5. Format profile                           : Main 10@L5@Main
  6. HDR format                               : Dolby Vision, Version 1.0, dvhe.05.06, BL+RPU
  7. Codec ID                                 : dvhe
  8. Codec ID/Info                            : High Efficiency Video Coding with Dolby Vision
  9. Duration                                 : 1 h 12 min
  10. Bit rate                                 : 18.6 Mb/s
  11. Width                                    : 3 840 pixels
  12. Height                                   : 2 160 pixels
  13. Display aspect ratio                     : 16:9
  14. Frame rate mode                          : Constant
  15. Frame rate                               : 23.976 (24000/1001) FPS
  16. Color space                              : YUV
  17. Chroma subsampling                       : 4:2:0
  18. Bit depth                                : 10 bits
  19. Bits/(Pixel*Frame)                       : 0.094
  20. Stream size                              : 9.41 GiB (96%)
  21. Default                                  : Yes
  22. Alternate group                          : 1
  23. Encoded date                             : UTC 2023-01-02 11:38:26
  24. Tagged date                              : UTC 2023-01-02 11:39:10
  25. Color range                              : Full
  26. Codec configuration box                  : hvcC+dvcC
  27. Audio
  28. ID                                       : 2
  29. Format                                   : E-AC-3 JOC
  30. Format/Info                              : Enhanced AC-3 with Joint Object Coding
  31. Commercial name                          : Dolby Digital Plus with Dolby Atmos
  32. Codec ID                                 : ec-3
  33. Duration                                 : 1 h 12 min
  34. Bit rate mode                            : Constant
  35. Bit rate                                 : 768 kb/s
  36. Maximum bit rate                         : 811 kb/s
  37. Channel(s)                               : 6 channels
  38. Channel layout                           : L R C LFE Ls Rs
  39. Sampling rate                            : 48.0 kHz
  40. Frame rate                               : 31.250 FPS (1536 SPF)
  41. Compression mode                         : Lossy
  42. Stream size                              : 397 MiB (4%)
  43. Title                                    : English
  44. Language                                 : English
  45. Service kind                             : Complete Main
  46. Default                                  : Yes
  47. Alternate group                          : 1
  48. Tagged date                              : UTC 2023-01-02 11:39:10
  49. Complexity index                         : Not present / 16
  50. Number of dynamic objects                : 15
  51. Bed channel count                        : 1 channel
  52. Bed channel configuration                : LFE
  53. Text #1
  54. ID                                       : 3
  55. Format                                   : Timed Text
  56. Codec ID                                 : tx3g
  57. Duration                                 : 1 h 11 min
  58. Bit rate mode                            : Variable
  59. Bit rate                                 : 108 b/s
  60. Frame rate                               : 0.618 FPS
  61. Stream size                              : 57.0 KiB (0%)
  62. Title                                    : English
  63. Language                                 : English
  64. Forced                                   : No
  65. Encoded date                             : UTC 2023-01-02 11:39:08
  66. Tagged date                              : UTC 2023-01-02 11:39:10
  67. Text #2
  68. ID                                       : 4
  69. Format                                   : Timed Text
  70. Codec ID                                 : tx3g
  71. Duration                                 : 1 h 9 min
  72. Bit rate mode                            : Variable
  73. Bit rate                                 : 97 b/s
  74. Frame rate                               : 0.525 FPS
  75. Stream size                              : 49.5 KiB (0%)
  76. Title                                    : English
  77. Language                                 : English
  78. Forced                                   : No
  79. Encoded date                             : UTC 2023-01-02 11:39:08
  80. Tagged date                              : UTC 2023-01-02 11:39:10
  81. Text #3
  82. ID                                       : 5
  83. Format                                   : Timed Text
  84. Codec ID                                 : tx3g
  85. Duration                                 : 1 h 11 min
  86. Bit rate mode                            : Variable
  87. Bit rate                                 : 134 b/s
  88. Frame rate                               : 0.511 FPS
  89. Stream size                              : 70.8 KiB (0%)
  90. Title                                    : Arabic
  91. Language                                 : Arabic
  92. Forced                                   : No
  93. Encoded date                             : UTC 2023-01-02 11:39:08
  94. Tagged date                              : UTC 2023-01-02 11:39:10
  95. Text #4
  96. ID                                       : 6
  97. Format                                   : Timed Text
  98. Codec ID                                 : tx3g
  99. Duration                                 : 1 h 11 min
  100. Bit rate mode                            : Variable
  101. Bit rate                                 : 87 b/s
  102. Frame rate                               : 0.511 FPS
  103. Stream size                              : 45.9 KiB (0%)
  104. Title                                    : Chinese-Simplified
  105. Language                                 : Chinese (Simplied)
  106. Forced                                   : No
  107. Encoded date                             : UTC 2023-01-02 11:39:08
  108. Tagged date                              : UTC 2023-01-02 11:39:10
  109. Text #5
  110. ID                                       : 7
  111. Format                                   : Timed Text
  112. Codec ID                                 : tx3g
  113. Duration                                 : 1 h 11 min
  114. Bit rate mode                            : Variable
  115. Bit rate                                 : 96 b/s
  116. Frame rate                               : 0.511 FPS
  117. Stream size                              : 50.4 KiB (0%)
  118. Title                                    : Chinese-Traditional
  119. Language                                 : Chinese (Traditional)
  120. Forced                                   : No
  121. Encoded date                             : UTC 2023-01-02 11:39:08
  122. Tagged date                              : UTC 2023-01-02 11:39:10
  123. Text #6
  124. ID                                       : 8
  125. Format                                   : Timed Text
  126. Codec ID                                 : tx3g
  127. Duration                                 : 1 h 11 min
  128. Bit rate mode                            : Variable
  129. Bit rate                                 : 80 b/s
  130. Frame rate                               : 0.510 FPS
  131. Stream size                              : 42.1 KiB (0%)
  132. Title                                    : Croatian
  133. Language                                 : Croatian
  134. Forced                                   : No
  135. Encoded date                             : UTC 2023-01-02 11:39:08
  136. Tagged date                              : UTC 2023-01-02 11:39:10
  137. Text #7
  138. ID                                       : 9
  139. Format                                   : Timed Text
  140. Codec ID                                 : tx3g
  141. Duration                                 : 1 h 11 min
  142. Bit rate mode                            : Variable
  143. Bit rate                                 : 79 b/s
  144. Frame rate                               : 0.475 FPS
  145. Stream size                              : 41.5 KiB (0%)
  146. Title                                    : Czech
  147. Language                                 : Czech
  148. Forced                                   : No
  149. Encoded date                             : UTC 2023-01-02 11:39:08
  150. Tagged date                              : UTC 2023-01-02 11:39:10
  151. Text #8
  152. ID                                       : 10
  153. Format                                   : Timed Text
  154. Codec ID                                 : tx3g
  155. Duration                                 : 1 h 11 min
  156. Bit rate mode                            : Variable
  157. Bit rate                                 : 81 b/s
  158. Frame rate                               : 0.511 FPS
  159. Stream size                              : 42.5 KiB (0%)
  160. Title                                    : Danish
  161. Language                                 : Danish
  162. Forced                                   : No
  163. Encoded date                             : UTC 2023-01-02 11:39:08
  164. Tagged date                              : UTC 2023-01-02 11:39:10
  165. Text #9
  166. ID                                       : 11
  167. Format                                   : Timed Text
  168. Codec ID                                 : tx3g
  169. Duration                                 : 1 h 11 min
  170. Bit rate mode                            : Variable
  171. Bit rate                                 : 85 b/s
  172. Frame rate                               : 0.488 FPS
  173. Stream size                              : 44.9 KiB (0%)
  174. Title                                    : Dutch
  175. Language                                 : Dutch
  176. Forced                                   : No
  177. Encoded date                             : UTC 2023-01-02 11:39:08
  178. Tagged date                              : UTC 2023-01-02 11:39:10
  179. Text #10
  180. ID                                       : 12
  181. Format                                   : Timed Text
  182. Codec ID                                 : tx3g
  183. Duration                                 : 1 h 11 min
  184. Bit rate mode                            : Variable
  185. Bit rate                                 : 83 b/s
  186. Frame rate                               : 0.485 FPS
  187. Stream size                              : 43.6 KiB (0%)
  188. Title                                    : Finnish
  189. Language                                 : Finnish
  190. Forced                                   : No
  191. Encoded date                             : UTC 2023-01-02 11:39:08
  192. Tagged date                              : UTC 2023-01-02 11:39:10
  193. Text #11
  194. ID                                       : 13
  195. Format                                   : Timed Text
  196. Codec ID                                 : tx3g
  197. Duration                                 : 1 h 11 min
  198. Bit rate mode                            : Variable
  199. Bit rate                                 : 94 b/s
  200. Frame rate                               : 0.463 FPS
  201. Stream size                              : 49.6 KiB (0%)
  202. Title                                    : French
  203. Language                                 : French
  204. Forced                                   : No
  205. Encoded date                             : UTC 2023-01-02 11:39:09
  206. Tagged date                              : UTC 2023-01-02 11:39:10
  207. Text #12
  208. ID                                       : 14
  209. Format                                   : Timed Text
  210. Codec ID                                 : tx3g
  211. Duration                                 : 1 h 11 min
  212. Bit rate mode                            : Variable
  213. Bit rate                                 : 107 b/s
  214. Frame rate                               : 0.511 FPS
  215. Stream size                              : 56.2 KiB (0%)
  216. Title                                    : German
  217. Language                                 : German
  218. Forced                                   : No
  219. Encoded date                             : UTC 2023-01-02 11:39:09
  220. Tagged date                              : UTC 2023-01-02 11:39:10
  221. Text #13
  222. ID                                       : 15
  223. Format                                   : Timed Text
  224. Codec ID                                 : tx3g
  225. Duration                                 : 1 h 11 min
  226. Bit rate mode                            : Variable
  227. Bit rate                                 : 148 b/s
  228. Frame rate                               : 0.518 FPS
  229. Stream size                              : 77.8 KiB (0%)
  230. Title                                    : Greek
  231. Language                                 : Greek
  232. Forced                                   : No
  233. Encoded date                             : UTC 2023-01-02 11:39:09
  234. Tagged date                              : UTC 2023-01-02 11:39:10
  235. Text #14
  236. ID                                       : 16
  237. Format                                   : Timed Text
  238. Codec ID                                 : tx3g
  239. Duration                                 : 1 h 11 min
  240. Bit rate mode                            : Variable
  241. Bit rate                                 : 131 b/s
  242. Frame rate                               : 0.511 FPS
  243. Stream size                              : 68.9 KiB (0%)
  244. Title                                    : Hebrew
  245. Language                                 : Hebrew
  246. Forced                                   : No
  247. Encoded date                             : UTC 2023-01-02 11:39:09
  248. Tagged date                              : UTC 2023-01-02 11:39:10
  249. Text #15
  250. ID                                       : 17
  251. Format                                   : Timed Text
  252. Codec ID                                 : tx3g
  253. Duration                                 : 1 h 11 min
  254. Bit rate mode                            : Variable
  255. Bit rate                                 : 83 b/s
  256. Frame rate                               : 0.451 FPS
  257. Stream size                              : 43.5 KiB (0%)
  258. Title                                    : Hungarian
  259. Language                                 : Hungarian
  260. Forced                                   : No
  261. Encoded date                             : UTC 2023-01-02 11:39:09
  262. Tagged date                              : UTC 2023-01-02 11:39:10
  263. Text #16
  264. ID                                       : 18
  265. Format                                   : Timed Text
  266. Codec ID                                 : tx3g
  267. Duration                                 : 1 h 11 min
  268. Bit rate mode                            : Variable
  269. Bit rate                                 : 94 b/s
  270. Frame rate                               : 0.511 FPS
  271. Stream size                              : 49.4 KiB (0%)
  272. Title                                    : Indonesian
  273. Language                                 : Indonesian
  274. Forced                                   : No
  275. Encoded date                             : UTC 2023-01-02 11:39:09
  276. Tagged date                              : UTC 2023-01-02 11:39:10
  277. Text #17
  278. ID                                       : 19
  279. Format                                   : Timed Text
  280. Codec ID                                 : tx3g
  281. Duration                                 : 1 h 11 min
  282. Bit rate mode                            : Variable
  283. Bit rate                                 : 81 b/s
  284. Frame rate                               : 0.493 FPS
  285. Stream size                              : 42.8 KiB (0%)
  286. Title                                    : Italian
  287. Language                                 : Italian
  288. Forced                                   : No
  289. Encoded date                             : UTC 2023-01-02 11:39:09
  290. Tagged date                              : UTC 2023-01-02 11:39:10
  291. Text #18
  292. ID                                       : 20
  293. Format                                   : Timed Text
  294. Codec ID                                 : tx3g
  295. Duration                                 : 1 h 11 min
  296. Bit rate mode                            : Variable
  297. Bit rate                                 : 88 b/s
  298. Frame rate                               : 0.478 FPS
  299. Stream size                              : 46.6 KiB (0%)
  300. Title                                    : Japanese
  301. Language                                 : Japanese
  302. Forced                                   : No
  303. Encoded date                             : UTC 2023-01-02 11:39:09
  304. Tagged date                              : UTC 2023-01-02 11:39:10
  305. Text #19
  306. ID                                       : 21
  307. Format                                   : Timed Text
  308. Codec ID                                 : tx3g
  309. Duration                                 : 1 h 11 min
  310. Bit rate mode                            : Variable
  311. Bit rate                                 : 105 b/s
  312. Frame rate                               : 0.537 FPS
  313. Stream size                              : 55.6 KiB (0%)
  314. Title                                    : Korean
  315. Language                                 : Korean
  316. Forced                                   : No
  317. Encoded date                             : UTC 2023-01-02 11:39:09
  318. Tagged date                              : UTC 2023-01-02 11:39:10
  319. Text #20
  320. ID                                       : 22
  321. Format                                   : Timed Text
  322. Codec ID                                 : tx3g
  323. Duration                                 : 1 h 11 min
  324. Bit rate mode                            : Variable
  325. Bit rate                                 : 80 b/s
  326. Frame rate                               : 0.506 FPS
  327. Stream size                              : 42.0 KiB (0%)
  328. Title                                    : Malay
  329. Language                                 : Malay
  330. Forced                                   : No
  331. Encoded date                             : UTC 2023-01-02 11:39:09
  332. Tagged date                              : UTC 2023-01-02 11:39:10
  333. Text #21
  334. ID                                       : 23
  335. Format                                   : Timed Text
  336. Codec ID                                 : tx3g
  337. Duration                                 : 1 h 11 min
  338. Bit rate mode                            : Variable
  339. Bit rate                                 : 78 b/s
  340. Frame rate                               : 0.416 FPS
  341. Stream size                              : 41.3 KiB (0%)
  342. Title                                    : Norwegian
  343. Language                                 : Norwegian Bokmal
  344. Forced                                   : No
  345. Encoded date                             : UTC 2023-01-02 11:39:09
  346. Tagged date                              : UTC 2023-01-02 11:39:10
  347. Text #22
  348. ID                                       : 24
  349. Format                                   : Timed Text
  350. Codec ID                                 : tx3g
  351. Duration                                 : 1 h 11 min
  352. Bit rate mode                            : Variable
  353. Bit rate                                 : 77 b/s
  354. Frame rate                               : 0.505 FPS
  355. Stream size                              : 40.7 KiB (0%)
  356. Title                                    : Polish
  357. Language                                 : Polish
  358. Forced                                   : No
  359. Encoded date                             : UTC 2023-01-02 11:39:09
  360. Tagged date                              : UTC 2023-01-02 11:39:10
  361. Text #23
  362. ID                                       : 25
  363. Format                                   : Timed Text
  364. Codec ID                                 : tx3g
  365. Duration                                 : 1 h 11 min
  366. Bit rate mode                            : Variable
  367. Bit rate                                 : 82 b/s
  368. Frame rate                               : 0.492 FPS
  369. Stream size                              : 43.0 KiB (0%)
  370. Title                                    : Portuguese
  371. Language                                 : Portuguese
  372. Forced                                   : No
  373. Encoded date                             : UTC 2023-01-02 11:39:09
  374. Tagged date                              : UTC 2023-01-02 11:39:10
  375. Text #24
  376. ID                                       : 26
  377. Format                                   : Timed Text
  378. Codec ID                                 : tx3g
  379. Duration                                 : 1 h 11 min
  380. Bit rate mode                            : Variable
  381. Bit rate                                 : 89 b/s
  382. Frame rate                               : 0.506 FPS
  383. Stream size                              : 46.7 KiB (0%)
  384. Title                                    : Portuguese-BR
  385. Language                                 : Portuguese (BR)
  386. Forced                                   : No
  387. Encoded date                             : UTC 2023-01-02 11:39:09
  388. Tagged date                              : UTC 2023-01-02 11:39:10
  389. Text #25
  390. ID                                       : 27
  391. Format                                   : Timed Text
  392. Codec ID                                 : tx3g
  393. Duration                                 : 1 h 11 min
  394. Bit rate mode                            : Variable
  395. Bit rate                                 : 90 b/s
  396. Frame rate                               : 0.488 FPS
  397. Stream size                              : 47.4 KiB (0%)
  398. Title                                    : Romanian
  399. Language                                 : Romanian
  400. Forced                                   : No
  401. Encoded date                             : UTC 2023-01-02 11:39:09
  402. Tagged date                              : UTC 2023-01-02 11:39:10
  403. Text #26
  404. ID                                       : 28
  405. Format                                   : Timed Text
  406. Codec ID                                 : tx3g
  407. Duration                                 : 1 h 11 min
  408. Bit rate mode                            : Variable
  409. Bit rate                                 : 130 b/s
  410. Frame rate                               : 0.503 FPS
  411. Stream size                              : 68.3 KiB (0%)
  412. Title                                    : Russian
  413. Language                                 : Russian
  414. Forced                                   : No
  415. Encoded date                             : UTC 2023-01-02 11:39:09
  416. Tagged date                              : UTC 2023-01-02 11:39:10
  417. Text #27
  418. ID                                       : 29
  419. Format                                   : Timed Text
  420. Codec ID                                 : tx3g
  421. Duration                                 : 1 h 11 min
  422. Bit rate mode                            : Variable
  423. Bit rate                                 : 92 b/s
  424. Frame rate                               : 0.511 FPS
  425. Stream size                              : 48.5 KiB (0%)
  426. Title                                    : Spanish
  427. Language                                 : Spanish (150)
  428. Forced                                   : No
  429. Encoded date                             : UTC 2023-01-02 11:39:09
  430. Tagged date                              : UTC 2023-01-02 11:39:10
  431. Text #28
  432. ID                                       : 30
  433. Format                                   : Timed Text
  434. Codec ID                                 : tx3g
  435. Duration                                 : 1 h 11 min
  436. Bit rate mode                            : Variable
  437. Bit rate                                 : 86 b/s
  438. Frame rate                               : 0.485 FPS
  439. Stream size                              : 45.1 KiB (0%)
  440. Title                                    : Spanish-EU
  441. Language                                 : Spanish
  442. Forced                                   : No
  443. Encoded date                             : UTC 2023-01-02 11:39:10
  444. Tagged date                              : UTC 2023-01-02 11:39:10
  445. Text #29
  446. ID                                       : 31
  447. Format                                   : Timed Text
  448. Codec ID                                 : tx3g
  449. Duration                                 : 1 h 11 min
  450. Bit rate mode                            : Variable
  451. Bit rate                                 : 82 b/s
  452. Frame rate                               : 0.501 FPS
  453. Stream size                              : 43.4 KiB (0%)
  454. Title                                    : Swedish
  455. Language                                 : Swedish
  456. Forced                                   : No
  457. Encoded date                             : UTC 2023-01-02 11:39:10
  458. Tagged date                              : UTC 2023-01-02 11:39:10
  459. Text #30
  460. ID                                       : 32
  461. Format                                   : Timed Text
  462. Codec ID                                 : tx3g
  463. Duration                                 : 1 h 11 min
  464. Bit rate mode                            : Variable
  465. Bit rate                                 : 205 b/s
  466. Frame rate                               : 0.504 FPS
  467. Stream size                              : 108 KiB (0%)
  468. Title                                    : Thai
  469. Language                                 : Thai
  470. Forced                                   : No
  471. Encoded date                             : UTC 2023-01-02 11:39:10
  472. Tagged date                              : UTC 2023-01-02 11:39:10
  473. Text #31
  474. ID                                       : 33
  475. Format                                   : Timed Text
  476. Codec ID                                 : tx3g
  477. Duration                                 : 1 h 11 min
  478. Bit rate mode                            : Variable
  479. Bit rate                                 : 84 b/s
  480. Frame rate                               : 0.511 FPS
  481. Stream size                              : 44.1 KiB (0%)
  482. Title                                    : Turkish
  483. Language                                 : Turkish
  484. Forced                                   : No
  485. Encoded date                             : UTC 2023-01-02 11:39:10
  486. Tagged date                              : UTC 2023-01-02 11:39:10
  487. Text #32
  488. ID                                       : 34
  489. Format                                   : Timed Text
  490. Codec ID                                 : tx3g
  491. Duration                                 : 1 h 11 min
  492. Bit rate mode                            : Variable
  493. Bit rate                                 : 152 b/s
  494. Frame rate                               : 0.510 FPS
  495. Stream size                              : 80.1 KiB (0%)
  496. Title                                    : Ukrainian
  497. Language                                 : Ukrainian
  498. Forced                                   : No
  499. Encoded date                             : UTC 2023-01-02 11:39:10
  500. Tagged date                              : UTC 2023-01-02 11:39:10
  501. Text #33
  502. ID                                       : 35
  503. Format                                   : Timed Text
  504. Codec ID                                 : tx3g
  505. Duration                                 : 1 h 11 min
  506. Bit rate mode                            : Variable
  507. Bit rate                                 : 129 b/s
  508. Frame rate                               : 0.498 FPS
  509. Stream size                              : 67.8 KiB (0%)
  510. Title                                    : Vietnamese
  511. Language                                 : Vietnamese
  512. Forced                                   : No
  513. Encoded date                             : UTC 2023-01-02 11:39:10
  514. Tagged date                              : UTC 2023-01-02 11:39:10
复制代码











回复

使用道具 举报

懒得打字嘛,点击右侧快捷回复 【右侧内容,后台自定义】
您需要登录后才可以回帖 登录 | 立即加入

本版积分规则

Copyright © 2024 Comsenz Inc. Powered by 蓝光电影网

本站内容由用户自主分享和转载自互联网,转载目的在于传递更多信息,并不代表本网赞同其观点和对其真实性负责。

如有侵权、违反国家法律政策行为,请联系我们,我们会第一时间及时清除和处理!

举报反馈邮箱:4k1080.com@gmail.com

快速回复 返回顶部 返回列表