找回密码

查看: 1139|回复: 0

[2160p-WEB] 戴夫·查佩尔:胜利最终章[中文字幕].Dave.Chappelle.The.Closer.2021.2160p.NF.WEB-DL.x265.10bit.SDR.DDP5.1.Atmos-Webber 6.45GB

[复制链接]
蓝光币
1848
发表于 2023-1-3 03:28:06 | 显示全部楼层 |阅读模式


◎标  题 戴夫·查佩尔:成功终极章
◎译  名 David Chappelle: 栋笃终极回(港)
◎片  名 Dave Chappelle: The Closer
◎年  代 2021
◎产  地 美国
◎类  别 笑剧 / 脱口秀
◎语  言 英语
◎上映日期 2021-10-05(美国)
◎IMDb评分 8/10 (27058人评价)
◎IMDb链接 https://www.imdb.com/title/tt15523010/
◎豆瓣评分 8.4/10 (1927人评价)
◎豆瓣链接 https://movie.douban.com/subject/35618442/
◎片  长 72分钟
◎导  演 Stan Lathan Stan Lathan
◎编  剧 大卫·查普尔 Dave Chappelle
◎演  员 大卫·查普尔 Dave Chappelle
◎简  介
  在一系列笑剧特辑的序幕,戴夫站上舞台,诡计廓清一下究竟,再说几句不吐不快的话。
  1. Video
  2. ID                                       : 1
  3. Format                                   : HEVC
  4. Format/Info                              : High Efficiency Video Coding
  5. Format profile                           : Main 10@L5@Main
  6. Codec ID                                 : V_MPEGH/ISO/HEVC
  7. Duration                                 : 1 h 12 min
  8. Bit rate                                 : 12.0 Mb/s
  9. Width                                    : 3 840 pixels
  10. Height                                   : 2 160 pixels
  11. Display aspect ratio                     : 16:9
  12. Frame rate mode                          : Constant
  13. Frame rate                               : 23.976 (24000/1001) FPS
  14. Color space                              : YUV
  15. Chroma subsampling                       : 4:2:0
  16. Bit depth                                : 10 bits
  17. Bits/(Pixel*Frame)                       : 0.060
  18. Stream size                              : 6.06 GiB (94%)
  19. Language                                 : English
  20. Default                                  : Yes
  21. Forced                                   : No
  22. Color range                              : Limited
  23. Color primaries                          : BT.709
  24. Transfer characteristics                 : BT.709
  25. Matrix coefficients                      : BT.709
  26. Audio
  27. ID                                       : 2
  28. Format                                   : E-AC-3 JOC
  29. Format/Info                              : Enhanced AC-3 with Joint Object Coding
  30. Commercial name                          : Dolby Digital Plus with Dolby Atmos
  31. Codec ID                                 : A_EAC3
  32. Duration                                 : 1 h 12 min
  33. Bit rate mode                            : Constant
  34. Bit rate                                 : 768 kb/s
  35. Channel(s)                               : 6 channels
  36. Channel layout                           : L R C LFE Ls Rs
  37. Sampling rate                            : 48.0 kHz
  38. Frame rate                               : 31.250 FPS (1536 SPF)
  39. Compression mode                         : Lossy
  40. Stream size                              : 397 MiB (6%)
  41. Language                                 : English
  42. Service kind                             : Complete Main
  43. Default                                  : Yes
  44. Forced                                   : No
  45. Complexity index                         : 16
  46. Number of dynamic objects                : 15
  47. Bed channel count                        : 1 channel
  48. Bed channel configuration                : LFE
  49. Text #1
  50. ID                                       : 3
  51. Format                                   : UTF-8
  52. Codec ID                                 : S_TEXT/UTF8
  53. Codec ID/Info                            : UTF-8 Plain Text
  54. Duration                                 : 1 h 8 min
  55. Bit rate                                 : 91 b/s
  56. Frame rate                               : 0.269 FPS
  57. Count of elements                        : 1098
  58. Stream size                              : 45.7 KiB (0%)
  59. Language                                 : English
  60. Default                                  : No
  61. Forced                                   : No
  62. Text #2
  63. ID                                       : 4
  64. Format                                   : UTF-8
  65. Codec ID                                 : S_TEXT/UTF8
  66. Codec ID/Info                            : UTF-8 Plain Text
  67. Duration                                 : 1 h 11 min
  68. Bit rate                                 : 97 b/s
  69. Frame rate                               : 0.310 FPS
  70. Count of elements                        : 1335
  71. Stream size                              : 51.3 KiB (0%)
  72. Title                                    : SDH
  73. Language                                 : English
  74. Default                                  : No
  75. Forced                                   : No
  76. Text #3
  77. ID                                       : 5
  78. Format                                   : UTF-8
  79. Codec ID                                 : S_TEXT/UTF8
  80. Codec ID/Info                            : UTF-8 Plain Text
  81. Duration                                 : 1 h 11 min
  82. Bit rate                                 : 126 b/s
  83. Frame rate                               : 0.256 FPS
  84. Count of elements                        : 1103
  85. Stream size                              : 66.7 KiB (0%)
  86. Language                                 : Arabic
  87. Default                                  : No
  88. Forced                                   : No
  89. Text #4
  90. ID                                       : 6
  91. Format                                   : UTF-8
  92. Codec ID                                 : S_TEXT/UTF8
  93. Codec ID/Info                            : UTF-8 Plain Text
  94. Duration                                 : 1 h 11 min
  95. Bit rate                                 : 71 b/s
  96. Frame rate                               : 0.238 FPS
  97. Count of elements                        : 1026
  98. Stream size                              : 37.7 KiB (0%)
  99. Language                                 : Czech
  100. Default                                  : No
  101. Forced                                   : No
  102. Text #5
  103. ID                                       : 7
  104. Format                                   : UTF-8
  105. Codec ID                                 : S_TEXT/UTF8
  106. Codec ID/Info                            : UTF-8 Plain Text
  107. Duration                                 : 1 h 11 min
  108. Bit rate                                 : 72 b/s
  109. Frame rate                               : 0.256 FPS
  110. Count of elements                        : 1104
  111. Stream size                              : 38.2 KiB (0%)
  112. Language                                 : Danish
  113. Default                                  : No
  114. Forced                                   : No
  115. Text #6
  116. ID                                       : 8
  117. Format                                   : UTF-8
  118. Codec ID                                 : S_TEXT/UTF8
  119. Codec ID/Info                            : UTF-8 Plain Text
  120. Duration                                 : 1 h 11 min
  121. Bit rate                                 : 99 b/s
  122. Frame rate                               : 0.256 FPS
  123. Count of elements                        : 1103
  124. Stream size                              : 52.5 KiB (0%)
  125. Language                                 : German
  126. Default                                  : No
  127. Forced                                   : No
  128. Text #7
  129. ID                                       : 9
  130. Format                                   : UTF-8
  131. Codec ID                                 : S_TEXT/UTF8
  132. Codec ID/Info                            : UTF-8 Plain Text
  133. Duration                                 : 1 h 11 min
  134. Bit rate                                 : 140 b/s
  135. Frame rate                               : 0.262 FPS
  136. Count of elements                        : 1119
  137. Stream size                              : 73.5 KiB (0%)
  138. Language                                 : Greek
  139. Default                                  : No
  140. Forced                                   : No
  141. Text #8
  142. ID                                       : 10
  143. Format                                   : UTF-8
  144. Codec ID                                 : S_TEXT/UTF8
  145. Codec ID/Info                            : UTF-8 Plain Text
  146. Duration                                 : 1 h 11 min
  147. Bit rate                                 : 84 b/s
  148. Frame rate                               : 0.256 FPS
  149. Count of elements                        : 1103
  150. Stream size                              : 44.4 KiB (0%)
  151. Title                                    : Latin American
  152. Language                                 : Spanish (Latin America)
  153. Default                                  : No
  154. Forced                                   : No
  155. Text #9
  156. ID                                       : 11
  157. Format                                   : UTF-8
  158. Codec ID                                 : S_TEXT/UTF8
  159. Codec ID/Info                            : UTF-8 Plain Text
  160. Duration                                 : 1 h 11 min
  161. Bit rate                                 : 78 b/s
  162. Frame rate                               : 0.243 FPS
  163. Count of elements                        : 1048
  164. Stream size                              : 41.2 KiB (0%)
  165. Language                                 : Spanish (ES)
  166. Default                                  : No
  167. Forced                                   : No
  168. Text #10
  169. ID                                       : 12
  170. Format                                   : UTF-8
  171. Codec ID                                 : S_TEXT/UTF8
  172. Codec ID/Info                            : UTF-8 Plain Text
  173. Duration                                 : 1 h 11 min
  174. Bit rate                                 : 75 b/s
  175. Frame rate                               : 0.243 FPS
  176. Count of elements                        : 1047
  177. Stream size                              : 39.7 KiB (0%)
  178. Language                                 : Finnish
  179. Default                                  : No
  180. Forced                                   : No
  181. Text #11
  182. ID                                       : 13
  183. Format                                   : UTF-8
  184. Codec ID                                 : S_TEXT/UTF8
  185. Codec ID/Info                            : UTF-8 Plain Text
  186. Duration                                 : 1 h 11 min
  187. Bit rate                                 : 87 b/s
  188. Frame rate                               : 0.232 FPS
  189. Count of elements                        : 1000
  190. Stream size                              : 46.1 KiB (0%)
  191. Language                                 : French
  192. Default                                  : No
  193. Forced                                   : No
  194. Text #12
  195. ID                                       : 14
  196. Format                                   : UTF-8
  197. Codec ID                                 : S_TEXT/UTF8
  198. Codec ID/Info                            : UTF-8 Plain Text
  199. Duration                                 : 1 h 11 min
  200. Bit rate                                 : 123 b/s
  201. Frame rate                               : 0.256 FPS
  202. Count of elements                        : 1104
  203. Stream size                              : 64.8 KiB (0%)
  204. Language                                 : Hebrew
  205. Default                                  : No
  206. Forced                                   : No
  207. Text #13
  208. ID                                       : 15
  209. Format                                   : UTF-8
  210. Codec ID                                 : S_TEXT/UTF8
  211. Codec ID/Info                            : UTF-8 Plain Text
  212. Duration                                 : 1 h 11 min
  213. Bit rate                                 : 72 b/s
  214. Frame rate                               : 0.255 FPS
  215. Count of elements                        : 1100
  216. Stream size                              : 37.9 KiB (0%)
  217. Language                                 : Croatian
  218. Default                                  : No
  219. Forced                                   : No
  220. Text #14
  221. ID                                       : 16
  222. Format                                   : UTF-8
  223. Codec ID                                 : S_TEXT/UTF8
  224. Codec ID/Info                            : UTF-8 Plain Text
  225. Duration                                 : 1 h 11 min
  226. Bit rate                                 : 75 b/s
  227. Frame rate                               : 0.226 FPS
  228. Count of elements                        : 973
  229. Stream size                              : 39.9 KiB (0%)
  230. Language                                 : Hungarian
  231. Default                                  : No
  232. Forced                                   : No
  233. Text #15
  234. ID                                       : 17
  235. Format                                   : UTF-8
  236. Codec ID                                 : S_TEXT/UTF8
  237. Codec ID/Info                            : UTF-8 Plain Text
  238. Duration                                 : 1 h 11 min
  239. Bit rate                                 : 86 b/s
  240. Frame rate                               : 0.256 FPS
  241. Count of elements                        : 1103
  242. Stream size                              : 45.4 KiB (0%)
  243. Language                                 : Indonesian
  244. Default                                  : No
  245. Forced                                   : No
  246. Text #16
  247. ID                                       : 18
  248. Format                                   : UTF-8
  249. Codec ID                                 : S_TEXT/UTF8
  250. Codec ID/Info                            : UTF-8 Plain Text
  251. Duration                                 : 1 h 11 min
  252. Bit rate                                 : 73 b/s
  253. Frame rate                               : 0.247 FPS
  254. Count of elements                        : 1064
  255. Stream size                              : 38.8 KiB (0%)
  256. Language                                 : Italian
  257. Default                                  : No
  258. Forced                                   : No
  259. Text #17
  260. ID                                       : 19
  261. Format                                   : UTF-8
  262. Codec ID                                 : S_TEXT/UTF8
  263. Codec ID/Info                            : UTF-8 Plain Text
  264. Duration                                 : 1 h 11 min
  265. Bit rate                                 : 81 b/s
  266. Frame rate                               : 0.239 FPS
  267. Count of elements                        : 1031
  268. Stream size                              : 43.0 KiB (0%)
  269. Language                                 : Japanese
  270. Default                                  : No
  271. Forced                                   : No
  272. Text #18
  273. ID                                       : 20
  274. Format                                   : UTF-8
  275. Codec ID                                 : S_TEXT/UTF8
  276. Codec ID/Info                            : UTF-8 Plain Text
  277. Duration                                 : 1 h 11 min
  278. Bit rate                                 : 97 b/s
  279. Frame rate                               : 0.269 FPS
  280. Count of elements                        : 1158
  281. Stream size                              : 51.5 KiB (0%)
  282. Language                                 : Korean
  283. Default                                  : No
  284. Forced                                   : No
  285. Text #19
  286. ID                                       : 21
  287. Format                                   : UTF-8
  288. Codec ID                                 : S_TEXT/UTF8
  289. Codec ID/Info                            : UTF-8 Plain Text
  290. Duration                                 : 1 h 11 min
  291. Bit rate                                 : 72 b/s
  292. Frame rate                               : 0.253 FPS
  293. Count of elements                        : 1092
  294. Stream size                              : 38.0 KiB (0%)
  295. Language                                 : Malay
  296. Default                                  : No
  297. Forced                                   : No
  298. Text #20
  299. ID                                       : 22
  300. Format                                   : UTF-8
  301. Codec ID                                 : S_TEXT/UTF8
  302. Codec ID/Info                            : UTF-8 Plain Text
  303. Duration                                 : 1 h 11 min
  304. Bit rate                                 : 72 b/s
  305. Frame rate                               : 0.208 FPS
  306. Count of elements                        : 898
  307. Stream size                              : 38.1 KiB (0%)
  308. Language                                 : Norwegian Bokmal
  309. Default                                  : No
  310. Forced                                   : No
  311. Text #21
  312. ID                                       : 23
  313. Format                                   : UTF-8
  314. Codec ID                                 : S_TEXT/UTF8
  315. Codec ID/Info                            : UTF-8 Plain Text
  316. Duration                                 : 1 h 11 min
  317. Bit rate                                 : 77 b/s
  318. Frame rate                               : 0.244 FPS
  319. Count of elements                        : 1053
  320. Stream size                              : 41.0 KiB (0%)
  321. Language                                 : Dutch
  322. Default                                  : No
  323. Forced                                   : No
  324. Text #22
  325. ID                                       : 24
  326. Format                                   : UTF-8
  327. Codec ID                                 : S_TEXT/UTF8
  328. Codec ID/Info                            : UTF-8 Plain Text
  329. Duration                                 : 1 h 11 min
  330. Bit rate                                 : 69 b/s
  331. Frame rate                               : 0.253 FPS
  332. Count of elements                        : 1091
  333. Stream size                              : 36.5 KiB (0%)
  334. Language                                 : Polish
  335. Default                                  : No
  336. Forced                                   : No
  337. Text #23
  338. ID                                       : 25
  339. Format                                   : UTF-8
  340. Codec ID                                 : S_TEXT/UTF8
  341. Codec ID/Info                            : UTF-8 Plain Text
  342. Duration                                 : 1 h 11 min
  343. Bit rate                                 : 80 b/s
  344. Frame rate                               : 0.254 FPS
  345. Count of elements                        : 1093
  346. Stream size                              : 42.6 KiB (0%)
  347. Title                                    : Brazilian
  348. Language                                 : Portuguese (BR)
  349. Default                                  : No
  350. Forced                                   : No
  351. Text #24
  352. ID                                       : 26
  353. Format                                   : UTF-8
  354. Codec ID                                 : S_TEXT/UTF8
  355. Codec ID/Info                            : UTF-8 Plain Text
  356. Duration                                 : 1 h 11 min
  357. Bit rate                                 : 74 b/s
  358. Frame rate                               : 0.247 FPS
  359. Count of elements                        : 1063
  360. Stream size                              : 39.1 KiB (0%)
  361. Language                                 : Portuguese (PT)
  362. Default                                  : No
  363. Forced                                   : No
  364. Text #25
  365. ID                                       : 27
  366. Format                                   : UTF-8
  367. Codec ID                                 : S_TEXT/UTF8
  368. Codec ID/Info                            : UTF-8 Plain Text
  369. Duration                                 : 1 h 11 min
  370. Bit rate                                 : 82 b/s
  371. Frame rate                               : 0.244 FPS
  372. Count of elements                        : 1054
  373. Stream size                              : 43.5 KiB (0%)
  374. Language                                 : Romanian
  375. Default                                  : No
  376. Forced                                   : No
  377. Text #26
  378. ID                                       : 28
  379. Format                                   : UTF-8
  380. Codec ID                                 : S_TEXT/UTF8
  381. Codec ID/Info                            : UTF-8 Plain Text
  382. Duration                                 : 1 h 11 min
  383. Bit rate                                 : 121 b/s
  384. Frame rate                               : 0.252 FPS
  385. Count of elements                        : 1087
  386. Stream size                              : 64.0 KiB (0%)
  387. Language                                 : Russian
  388. Default                                  : No
  389. Forced                                   : No
  390. Text #27
  391. ID                                       : 29
  392. Format                                   : UTF-8
  393. Codec ID                                 : S_TEXT/UTF8
  394. Codec ID/Info                            : UTF-8 Plain Text
  395. Duration                                 : 1 h 11 min
  396. Bit rate                                 : 74 b/s
  397. Frame rate                               : 0.251 FPS
  398. Count of elements                        : 1082
  399. Stream size                              : 39.3 KiB (0%)
  400. Language                                 : Swedish
  401. Default                                  : No
  402. Forced                                   : No
  403. Text #28
  404. ID                                       : 30
  405. Format                                   : UTF-8
  406. Codec ID                                 : S_TEXT/UTF8
  407. Codec ID/Info                            : UTF-8 Plain Text
  408. Duration                                 : 1 h 11 min
  409. Bit rate                                 : 197 b/s
  410. Frame rate                               : 0.252 FPS
  411. Count of elements                        : 1088
  412. Stream size                              : 104 KiB (0%)
  413. Language                                 : Thai
  414. Default                                  : No
  415. Forced                                   : No
  416. Text #29
  417. ID                                       : 31
  418. Format                                   : UTF-8
  419. Codec ID                                 : S_TEXT/UTF8
  420. Codec ID/Info                            : UTF-8 Plain Text
  421. Duration                                 : 1 h 11 min
  422. Bit rate                                 : 76 b/s
  423. Frame rate                               : 0.256 FPS
  424. Count of elements                        : 1103
  425. Stream size                              : 40.0 KiB (0%)
  426. Language                                 : Turkish
  427. Default                                  : No
  428. Forced                                   : No
  429. Text #30
  430. ID                                       : 32
  431. Format                                   : UTF-8
  432. Codec ID                                 : S_TEXT/UTF8
  433. Codec ID/Info                            : UTF-8 Plain Text
  434. Duration                                 : 1 h 11 min
  435. Bit rate                                 : 145 b/s
  436. Frame rate                               : 0.255 FPS
  437. Count of elements                        : 1101
  438. Stream size                              : 76.4 KiB (0%)
  439. Language                                 : Ukrainian
  440. Default                                  : No
  441. Forced                                   : No
  442. Text #31
  443. ID                                       : 33
  444. Format                                   : UTF-8
  445. Codec ID                                 : S_TEXT/UTF8
  446. Codec ID/Info                            : UTF-8 Plain Text
  447. Duration                                 : 1 h 11 min
  448. Bit rate                                 : 121 b/s
  449. Frame rate                               : 0.249 FPS
  450. Count of elements                        : 1075
  451. Stream size                              : 64.0 KiB (0%)
  452. Language                                 : Vietnamese
  453. Default                                  : No
  454. Forced                                   : No
  455. Text #32
  456. ID                                       : 34
  457. Format                                   : UTF-8
  458. Codec ID                                 : S_TEXT/UTF8
  459. Codec ID/Info                            : UTF-8 Plain Text
  460. Duration                                 : 1 h 11 min
  461. Bit rate                                 : 79 b/s
  462. Frame rate                               : 0.256 FPS
  463. Count of elements                        : 1103
  464. Stream size                              : 41.8 KiB (0%)
  465. Title                                    : Simplified
  466. Language                                 : Chinese (Simplied)
  467. Default                                  : No
  468. Forced                                   : No
  469. Text #33
  470. ID                                       : 35
  471. Format                                   : UTF-8
  472. Codec ID                                 : S_TEXT/UTF8
  473. Codec ID/Info                            : UTF-8 Plain Text
  474. Duration                                 : 1 h 11 min
  475. Bit rate                                 : 88 b/s
  476. Frame rate                               : 0.256 FPS
  477. Count of elements                        : 1103
  478. Stream size                              : 46.5 KiB (0%)
  479. Title                                    : Traditional
  480. Language                                 : Chinese (Traditional)
  481. Default                                  : No
  482. Forced                                   : No
  483. Menu
  484. 01:12:05.000                             : en:End Credits
复制代码











回复

使用道具 举报

懒得打字嘛,点击右侧快捷回复 【右侧内容,后台自定义】
您需要登录后才可以回帖 登录 | 立即加入

本版积分规则

Copyright © 2024 Comsenz Inc. Powered by 蓝光电影网

本站内容由用户自主分享和转载自互联网,转载目的在于传递更多信息,并不代表本网赞同其观点和对其真实性负责。

如有侵权、违反国家法律政策行为,请联系我们,我们会第一时间及时清除和处理!

举报反馈邮箱:4k1080.com@gmail.com

快速回复 返回顶部 返回列表