找回密码

查看: 1347|回复: 0

[2160p-WEB] 我想结束这一切[中文字幕].Im.Thinking.of.Ending.Things.2020.2160p.NF.WEB-DL.x265.10bit.HDR.DDP5.1.Atmos-BetterCallSaul 18.63GB

[复制链接]
蓝光币
1840
发表于 2023-1-3 03:28:07 | 显示全部楼层 |阅读模式


◎标  题 我想竣事这一切
◎片  名 I'm Thinking of Ending Things
◎年  代 2020
◎产  地 美国
◎类  别 剧情 / 惊悚
◎语  言 英语
◎上映日期 2020-08-28(美国点映) / 2020-09-04(美国)
◎IMDb评分 6.6/10 (88320人评价)
◎IMDb链接 https://www.imdb.com/title/tt7939766/
◎豆瓣评分 7.3/10 (23126人评价)
◎豆瓣链接 https://movie.douban.com/subject/30129061/
◎片  长 134分钟
◎导  演 查理·考夫曼 Charlie Kaufman
◎编  剧 查理·考夫曼 Charlie Kaufman
       伊恩·里德 Iain Reid
◎演  员 杰西·普莱蒙 Jesse Plemons
       杰西·巴克利 Jessie Buckley
       托妮·科莱特 Toni Collette
       大卫·休里斯 David Thewlis
       盖伊·博伊德 Guy Boyd
       哈德莉·罗宾逊 Hadley Robinson
       格斯·伯尼 Gus Birney
       艾比·奎因 Abby Quinn
       蔻碧·米纳菲 Colby Minifie
       安东尼·格拉索 Anthony Grasso
       泰迪·库卢卡 Teddy Coluca
       杰森·拉尔夫 Jason Ralph
       奥利弗·普莱特 Oliver Platt
       弗雷德里克·沃丁 Frederick Wodin
       瑞恩·斯蒂尔 Ryan Steele
       优妮蒂·费伦 Unity Phelan
       杰伊·瓦德利 Jay Wadley
       卢卡斯·扎尔 Lukasz Zal
◎简  介
  剧本改编自伊恩·里德同名小说,小说审阅了心灵的懦弱和孤独的极限。杰克原本带女友回家见怙恃,女友一路却在想着“竣事这一切”,在杰克改变原定线路后,一切都朝着失控偏向成长。
  1. Video
  2. ID                                       : 1
  3. Format                                   : HEVC
  4. Format/Info                              : High Efficiency Video Coding
  5. Format profile                           : Main 10@L5@Main
  6. HDR format                               : Dolby Vision, Version 1.0, dvhe.08.06, BL+RPU, HDR10 compatible / SMPTE ST 2086, HDR10 compatible
  7. Codec ID                                 : V_MPEGH/ISO/HEVC
  8. Duration                                 : 2 h 14 min
  9. Bit rate                                 : 19.1 Mb/s
  10. Width                                    : 2 880 pixels
  11. Height                                   : 2 160 pixels
  12. Display aspect ratio                     : 4:3
  13. Frame rate mode                          : Constant
  14. Frame rate                               : 24.000 FPS
  15. Color space                              : YUV
  16. Chroma subsampling                       : 4:2:0 (Type 2)
  17. Bit depth                                : 10 bits
  18. Bits/(Pixel*Frame)                       : 0.128
  19. Stream size                              : 17.9 GiB (96%)
  20. Language                                 : English
  21. Default                                  : Yes
  22. Forced                                   : No
  23. Color range                              : Limited
  24. Color primaries                          : BT.2020
  25. Transfer characteristics                 : PQ
  26. Matrix coefficients                      : BT.2020 non-constant
  27. Mastering display color primaries        : Display P3
  28. Mastering display luminance              : min: 0.0001 cd/m2, max: 1000 cd/m2
  29. Maximum Content Light Level              : 738 cd/m2
  30. Maximum Frame-Average Light Level        : 96 cd/m2
  31. Audio
  32. ID                                       : 2
  33. Format                                   : E-AC-3 JOC
  34. Format/Info                              : Enhanced AC-3 with Joint Object Coding
  35. Commercial name                          : Dolby Digital Plus with Dolby Atmos
  36. Codec ID                                 : A_EAC3
  37. Duration                                 : 2 h 14 min
  38. Bit rate mode                            : Constant
  39. Bit rate                                 : 768 kb/s
  40. Channel(s)                               : 6 channels
  41. Channel layout                           : L R C LFE Ls Rs
  42. Sampling rate                            : 48.0 kHz
  43. Frame rate                               : 31.250 FPS (1536 SPF)
  44. Compression mode                         : Lossy
  45. Stream size                              : 740 MiB (4%)
  46. Language                                 : English
  47. Service kind                             : Complete Main
  48. Default                                  : Yes
  49. Forced                                   : No
  50. Complexity index                         : 16
  51. Number of dynamic objects                : 15
  52. Bed channel count                        : 1 channel
  53. Bed channel configuration                : LFE
  54. Text #1
  55. ID                                       : 3
  56. Format                                   : UTF-8
  57. Codec ID                                 : S_TEXT/UTF8
  58. Codec ID/Info                            : UTF-8 Plain Text
  59. Duration                                 : 2 h 5 min
  60. Bit rate                                 : 68 b/s
  61. Frame rate                               : 0.264 FPS
  62. Count of elements                        : 1984
  63. Stream size                              : 62.9 KiB (0%)
  64. Language                                 : English
  65. Default                                  : No
  66. Forced                                   : No
  67. Text #2
  68. ID                                       : 4
  69. Format                                   : UTF-8
  70. Codec ID                                 : S_TEXT/UTF8
  71. Codec ID/Info                            : UTF-8 Plain Text
  72. Duration                                 : 2 h 13 min
  73. Bit rate                                 : 76 b/s
  74. Frame rate                               : 0.299 FPS
  75. Count of elements                        : 2394
  76. Stream size                              : 75.0 KiB (0%)
  77. Title                                    : SDH
  78. Language                                 : English
  79. Default                                  : No
  80. Forced                                   : No
  81. Text #3
  82. ID                                       : 5
  83. Format                                   : UTF-8
  84. Codec ID                                 : S_TEXT/UTF8
  85. Codec ID/Info                            : UTF-8 Plain Text
  86. Duration                                 : 2 h 13 min
  87. Bit rate                                 : 101 b/s
  88. Frame rate                               : 0.233 FPS
  89. Count of elements                        : 1866
  90. Stream size                              : 99.4 KiB (0%)
  91. Language                                 : Arabic
  92. Default                                  : No
  93. Forced                                   : No
  94. Text #4
  95. ID                                       : 6
  96. Format                                   : UTF-8
  97. Codec ID                                 : S_TEXT/UTF8
  98. Codec ID/Info                            : UTF-8 Plain Text
  99. Duration                                 : 2 h 13 min
  100. Bit rate                                 : 61 b/s
  101. Frame rate                               : 0.249 FPS
  102. Count of elements                        : 1996
  103. Stream size                              : 59.9 KiB (0%)
  104. Language                                 : Czech
  105. Default                                  : No
  106. Forced                                   : No
  107. Text #5
  108. ID                                       : 7
  109. Format                                   : UTF-8
  110. Codec ID                                 : S_TEXT/UTF8
  111. Codec ID/Info                            : UTF-8 Plain Text
  112. Duration                                 : 2 h 13 min
  113. Bit rate                                 : 59 b/s
  114. Frame rate                               : 0.218 FPS
  115. Count of elements                        : 1745
  116. Stream size                              : 58.0 KiB (0%)
  117. Language                                 : Danish
  118. Default                                  : No
  119. Forced                                   : No
  120. Text #6
  121. ID                                       : 8
  122. Format                                   : UTF-8
  123. Codec ID                                 : S_TEXT/UTF8
  124. Codec ID/Info                            : UTF-8 Plain Text
  125. Duration                                 : 2 h 13 min
  126. Bit rate                                 : 61 b/s
  127. Frame rate                               : 0.217 FPS
  128. Count of elements                        : 1739
  129. Stream size                              : 59.7 KiB (0%)
  130. Language                                 : German
  131. Default                                  : No
  132. Forced                                   : No
  133. Text #7
  134. ID                                       : 9
  135. Format                                   : UTF-8
  136. Codec ID                                 : S_TEXT/UTF8
  137. Codec ID/Info                            : UTF-8 Plain Text
  138. Duration                                 : 2 h 13 min
  139. Bit rate                                 : 102 b/s
  140. Frame rate                               : 0.229 FPS
  141. Count of elements                        : 1832
  142. Stream size                              : 100.0 KiB (0%)
  143. Language                                 : Greek
  144. Default                                  : No
  145. Forced                                   : No
  146. Text #8
  147. ID                                       : 10
  148. Format                                   : UTF-8
  149. Codec ID                                 : S_TEXT/UTF8
  150. Codec ID/Info                            : UTF-8 Plain Text
  151. Duration                                 : 2 h 13 min
  152. Bit rate                                 : 60 b/s
  153. Frame rate                               : 0.231 FPS
  154. Count of elements                        : 1848
  155. Stream size                              : 59.5 KiB (0%)
  156. Title                                    : Latin American
  157. Language                                 : Spanish (Latin America)
  158. Default                                  : No
  159. Forced                                   : No
  160. Text #9
  161. ID                                       : 11
  162. Format                                   : UTF-8
  163. Codec ID                                 : S_TEXT/UTF8
  164. Codec ID/Info                            : UTF-8 Plain Text
  165. Duration                                 : 2 h 13 min
  166. Bit rate                                 : 60 b/s
  167. Frame rate                               : 0.216 FPS
  168. Count of elements                        : 1729
  169. Stream size                              : 58.9 KiB (0%)
  170. Language                                 : Spanish (ES)
  171. Default                                  : No
  172. Forced                                   : No
  173. Text #10
  174. ID                                       : 12
  175. Format                                   : UTF-8
  176. Codec ID                                 : S_TEXT/UTF8
  177. Codec ID/Info                            : UTF-8 Plain Text
  178. Duration                                 : 2 h 13 min
  179. Bit rate                                 : 55 b/s
  180. Frame rate                               : 0.218 FPS
  181. Count of elements                        : 1746
  182. Stream size                              : 54.2 KiB (0%)
  183. Language                                 : Finnish
  184. Default                                  : No
  185. Forced                                   : No
  186. Text #11
  187. ID                                       : 13
  188. Format                                   : UTF-8
  189. Codec ID                                 : S_TEXT/UTF8
  190. Codec ID/Info                            : UTF-8 Plain Text
  191. Duration                                 : 2 h 13 min
  192. Bit rate                                 : 59 b/s
  193. Frame rate                               : 0.228 FPS
  194. Count of elements                        : 1821
  195. Stream size                              : 58.3 KiB (0%)
  196. Language                                 : French
  197. Default                                  : No
  198. Forced                                   : No
  199. Text #12
  200. ID                                       : 14
  201. Format                                   : UTF-8
  202. Codec ID                                 : S_TEXT/UTF8
  203. Codec ID/Info                            : UTF-8 Plain Text
  204. Duration                                 : 2 h 13 min
  205. Bit rate                                 : 94 b/s
  206. Frame rate                               : 0.232 FPS
  207. Count of elements                        : 1854
  208. Stream size                              : 92.2 KiB (0%)
  209. Language                                 : Hebrew
  210. Default                                  : No
  211. Forced                                   : No
  212. Text #13
  213. ID                                       : 15
  214. Format                                   : UTF-8
  215. Codec ID                                 : S_TEXT/UTF8
  216. Codec ID/Info                            : UTF-8 Plain Text
  217. Duration                                 : 2 h 13 min
  218. Bit rate                                 : 61 b/s
  219. Frame rate                               : 0.229 FPS
  220. Count of elements                        : 1831
  221. Stream size                              : 60.5 KiB (0%)
  222. Language                                 : Hungarian
  223. Default                                  : No
  224. Forced                                   : No
  225. Text #14
  226. ID                                       : 16
  227. Format                                   : UTF-8
  228. Codec ID                                 : S_TEXT/UTF8
  229. Codec ID/Info                            : UTF-8 Plain Text
  230. Duration                                 : 2 h 13 min
  231. Bit rate                                 : 58 b/s
  232. Frame rate                               : 0.233 FPS
  233. Count of elements                        : 1864
  234. Stream size                              : 57.1 KiB (0%)
  235. Language                                 : Indonesian
  236. Default                                  : No
  237. Forced                                   : No
  238. Text #15
  239. ID                                       : 17
  240. Format                                   : UTF-8
  241. Codec ID                                 : S_TEXT/UTF8
  242. Codec ID/Info                            : UTF-8 Plain Text
  243. Duration                                 : 2 h 13 min
  244. Bit rate                                 : 59 b/s
  245. Frame rate                               : 0.218 FPS
  246. Count of elements                        : 1742
  247. Stream size                              : 58.6 KiB (0%)
  248. Language                                 : Italian
  249. Default                                  : No
  250. Forced                                   : No
  251. Text #16
  252. ID                                       : 18
  253. Format                                   : UTF-8
  254. Codec ID                                 : S_TEXT/UTF8
  255. Codec ID/Info                            : UTF-8 Plain Text
  256. Duration                                 : 2 h 13 min
  257. Bit rate                                 : 58 b/s
  258. Frame rate                               : 0.233 FPS
  259. Count of elements                        : 1863
  260. Stream size                              : 57.2 KiB (0%)
  261. Language                                 : Japanese
  262. Default                                  : No
  263. Forced                                   : No
  264. Text #17
  265. ID                                       : 19
  266. Format                                   : UTF-8
  267. Codec ID                                 : S_TEXT/UTF8
  268. Codec ID/Info                            : UTF-8 Plain Text
  269. Duration                                 : 2 h 13 min
  270. Bit rate                                 : 70 b/s
  271. Frame rate                               : 0.231 FPS
  272. Count of elements                        : 1851
  273. Stream size                              : 69.1 KiB (0%)
  274. Language                                 : Korean
  275. Default                                  : No
  276. Forced                                   : No
  277. Text #18
  278. ID                                       : 20
  279. Format                                   : UTF-8
  280. Codec ID                                 : S_TEXT/UTF8
  281. Codec ID/Info                            : UTF-8 Plain Text
  282. Duration                                 : 2 h 13 min
  283. Bit rate                                 : 56 b/s
  284. Frame rate                               : 0.213 FPS
  285. Count of elements                        : 1701
  286. Stream size                              : 55.0 KiB (0%)
  287. Language                                 : Norwegian Bokmal
  288. Default                                  : No
  289. Forced                                   : No
  290. Text #19
  291. ID                                       : 21
  292. Format                                   : UTF-8
  293. Codec ID                                 : S_TEXT/UTF8
  294. Codec ID/Info                            : UTF-8 Plain Text
  295. Duration                                 : 2 h 13 min
  296. Bit rate                                 : 55 b/s
  297. Frame rate                               : 0.212 FPS
  298. Count of elements                        : 1694
  299. Stream size                              : 54.5 KiB (0%)
  300. Language                                 : Dutch
  301. Default                                  : No
  302. Forced                                   : No
  303. Text #20
  304. ID                                       : 22
  305. Format                                   : UTF-8
  306. Codec ID                                 : S_TEXT/UTF8
  307. Codec ID/Info                            : UTF-8 Plain Text
  308. Duration                                 : 2 h 13 min
  309. Bit rate                                 : 55 b/s
  310. Frame rate                               : 0.227 FPS
  311. Count of elements                        : 1817
  312. Stream size                              : 54.7 KiB (0%)
  313. Language                                 : Polish
  314. Default                                  : No
  315. Forced                                   : No
  316. Text #21
  317. ID                                       : 23
  318. Format                                   : UTF-8
  319. Codec ID                                 : S_TEXT/UTF8
  320. Codec ID/Info                            : UTF-8 Plain Text
  321. Duration                                 : 2 h 13 min
  322. Bit rate                                 : 63 b/s
  323. Frame rate                               : 0.229 FPS
  324. Count of elements                        : 1829
  325. Stream size                              : 62.0 KiB (0%)
  326. Title                                    : Brazilian
  327. Language                                 : Portuguese (BR)
  328. Default                                  : No
  329. Forced                                   : No
  330. Text #22
  331. ID                                       : 24
  332. Format                                   : UTF-8
  333. Codec ID                                 : S_TEXT/UTF8
  334. Codec ID/Info                            : UTF-8 Plain Text
  335. Duration                                 : 2 h 13 min
  336. Bit rate                                 : 62 b/s
  337. Frame rate                               : 0.223 FPS
  338. Count of elements                        : 1787
  339. Stream size                              : 60.9 KiB (0%)
  340. Language                                 : Portuguese (PT)
  341. Default                                  : No
  342. Forced                                   : No
  343. Text #23
  344. ID                                       : 25
  345. Format                                   : UTF-8
  346. Codec ID                                 : S_TEXT/UTF8
  347. Codec ID/Info                            : UTF-8 Plain Text
  348. Duration                                 : 2 h 13 min
  349. Bit rate                                 : 68 b/s
  350. Frame rate                               : 0.225 FPS
  351. Count of elements                        : 1797
  352. Stream size                              : 67.1 KiB (0%)
  353. Language                                 : Romanian
  354. Default                                  : No
  355. Forced                                   : No
  356. Text #24
  357. ID                                       : 26
  358. Format                                   : UTF-8
  359. Codec ID                                 : S_TEXT/UTF8
  360. Codec ID/Info                            : UTF-8 Plain Text
  361. Duration                                 : 2 h 13 min
  362. Bit rate                                 : 99 b/s
  363. Frame rate                               : 0.235 FPS
  364. Count of elements                        : 1878
  365. Stream size                              : 96.8 KiB (0%)
  366. Language                                 : Russian
  367. Default                                  : No
  368. Forced                                   : No
  369. Text #25
  370. ID                                       : 27
  371. Format                                   : UTF-8
  372. Codec ID                                 : S_TEXT/UTF8
  373. Codec ID/Info                            : UTF-8 Plain Text
  374. Duration                                 : 2 h 13 min
  375. Bit rate                                 : 62 b/s
  376. Frame rate                               : 0.228 FPS
  377. Count of elements                        : 1826
  378. Stream size                              : 61.0 KiB (0%)
  379. Language                                 : Swedish
  380. Default                                  : No
  381. Forced                                   : No
  382. Text #26
  383. ID                                       : 28
  384. Format                                   : UTF-8
  385. Codec ID                                 : S_TEXT/UTF8
  386. Codec ID/Info                            : UTF-8 Plain Text
  387. Duration                                 : 2 h 13 min
  388. Bit rate                                 : 159 b/s
  389. Frame rate                               : 0.235 FPS
  390. Count of elements                        : 1878
  391. Stream size                              : 156 KiB (0%)
  392. Language                                 : Thai
  393. Default                                  : No
  394. Forced                                   : No
  395. Text #27
  396. ID                                       : 29
  397. Format                                   : UTF-8
  398. Codec ID                                 : S_TEXT/UTF8
  399. Codec ID/Info                            : UTF-8 Plain Text
  400. Duration                                 : 2 h 13 min
  401. Bit rate                                 : 60 b/s
  402. Frame rate                               : 0.231 FPS
  403. Count of elements                        : 1848
  404. Stream size                              : 58.7 KiB (0%)
  405. Language                                 : Turkish
  406. Default                                  : No
  407. Forced                                   : No
  408. Text #28
  409. ID                                       : 30
  410. Format                                   : UTF-8
  411. Codec ID                                 : S_TEXT/UTF8
  412. Codec ID/Info                            : UTF-8 Plain Text
  413. Duration                                 : 2 h 13 min
  414. Bit rate                                 : 87 b/s
  415. Frame rate                               : 0.218 FPS
  416. Count of elements                        : 1743
  417. Stream size                              : 85.6 KiB (0%)
  418. Language                                 : Vietnamese
  419. Default                                  : No
  420. Forced                                   : No
  421. Text #29
  422. ID                                       : 31
  423. Format                                   : UTF-8
  424. Codec ID                                 : S_TEXT/UTF8
  425. Codec ID/Info                            : UTF-8 Plain Text
  426. Duration                                 : 2 h 13 min
  427. Bit rate                                 : 63 b/s
  428. Frame rate                               : 0.235 FPS
  429. Count of elements                        : 1879
  430. Stream size                              : 62.0 KiB (0%)
  431. Title                                    : Simplified
  432. Language                                 : Chinese (Simplied)
  433. Default                                  : No
  434. Forced                                   : No
  435. Text #30
  436. ID                                       : 32
  437. Format                                   : UTF-8
  438. Codec ID                                 : S_TEXT/UTF8
  439. Codec ID/Info                            : UTF-8 Plain Text
  440. Duration                                 : 2 h 13 min
  441. Bit rate                                 : 62 b/s
  442. Frame rate                               : 0.235 FPS
  443. Count of elements                        : 1884
  444. Stream size                              : 61.3 KiB (0%)
  445. Title                                    : Traditional
  446. Language                                 : Chinese (Traditional)
  447. Default                                  : No
  448. Forced                                   : No
  449. Menu
  450. 02:13:57.000                             : en:End Credits
复制代码











我想竣事这一切[中笔墨幕].Im.Thinking.of.Ending.Things.2020.2160p.NF.WEB-DL.x265.10bit.HDR.DDP5.1.Atmos-BetterCallSaul 18.63GB

Im.Thinking.of.Ending.Things.2020.2160p.NF.WEB-DL.x265.10bit.HDR.DDP5.1.Atmos-Be.torrent

24 KB, 下载次数: 14, 下载积分: 蓝光币 -2

回复

使用道具 举报

懒得打字嘛,点击右侧快捷回复 【右侧内容,后台自定义】
您需要登录后才可以回帖 登录 | 立即加入

本版积分规则

Copyright © 2024 Comsenz Inc. Powered by 蓝光电影网

本站内容由用户自主分享和转载自互联网,转载目的在于传递更多信息,并不代表本网赞同其观点和对其真实性负责。

如有侵权、违反国家法律政策行为,请联系我们,我们会第一时间及时清除和处理!

举报反馈邮箱:4k1080.com@gmail.com

快速回复 返回顶部 返回列表