找回密码

查看: 1157|回复: 0

[2160p-WEB] 蜘蛛头[中文字幕].Spiderhead.2022.2160p.NF.WEB-DL.DDP5.1.Atmos.DV.MP4.x265-DVSUX 12.09GB

[复制链接]
蓝光币
1848
发表于 2023-1-3 03:28:08 | 显示全部楼层 |阅读模式


◎标  题 蜘蛛头
◎译  名 蜘蛛头牢狱(港 / 台) / 逃离蜘蛛头 / 地球上最初的孩子:祝你末日欢畅 / Escape From Spiderhead
◎片  名 Spiderhead
◎年  代 2022
◎产  地 美国
◎类  别 科幻 / 惊悚 / 犯罪
◎语  言 英语
◎上映日期 2022-06-17(美国收集)
◎IMDb评分 5.4/10 (57147人评价)
◎IMDb链接 https://www.imdb.com/title/tt9783600/
◎豆瓣评分 4.9/10 (4904人评价)
◎豆瓣链接 https://movie.douban.com/subject/30451909/
◎片  长 106分钟
◎导  演 约瑟夫·科辛斯基 Joseph Kosinski
◎编  剧 瑞特·里斯 Rhett Reese
       保罗·韦尼克 Paul Wernick
       乔治·桑德斯 George Saunders
◎演  员 克里斯·海姆斯沃斯 Chris Hemsworth
       迈尔斯·特勒 Miles Teller
       朱尼·斯莫利特 Jurnee Smollett
       内森·琼斯 Nathan Jones
       泰丝·哈乌布里奇 Tess Haubrich
       查尔斯·帕内尔 Charles Parnell
       碧比·贝及第特 BeBe Bettencourt
       丹尼尔·博克 Daniel Booko
       安琪·米利肯 Angie Milliken
       乔伊·维埃拉 Joey Vieira
       克劳迪奥·米兰达 Claudio Miranda
◎简  介
  在一所由才华横溢、富有远见的史蒂夫·艾纳斯蒂(克里斯·海姆斯沃斯饰)治理的先辈牢狱里,犯人们佩戴着一种经过外科手术毗连的装配,经过该装配注射一定剂量改变心智的药物,以调换减刑。没有酒吧,没有牢房,也没有橙色囚衣。在“蜘蛛头”中,被禁锢的自愿者可以自在地做自己。直到他们终极落空自我。偶然辰,他们还会酿成更好的自己。需要放松?有一种药物可以治疗。手足无措?也有一种药物可以治疗。但当两个尝试工具杰夫(迈尔斯·特勒饰)和丽姿(朱尼·斯莫利特饰)建立友谊后,他们的救赎之路跌宕升沉,由于艾纳斯蒂的尝试起头完全冲破自在意志的极限。                                    
                                《蜘蛛头》改编自乔治·桑德斯的《纽约客》短篇小说,由约瑟夫·科辛斯基(《创:战纪 TRON》、《壮志凌云:独行侠》)执导,瑞特·里斯和保罗·韦尼克(《死侍》、《丧尸乐园》)担任编剧,是一部气概悬殊、黑暗搞笑的心理惊悚片。
  1. Video
  2. ID                                       : 1
  3. Format                                   : HEVC
  4. Format/Info                              : High Efficiency Video Coding
  5. Format profile                           : Main 10@L5@Main
  6. HDR format                               : Dolby Vision, Version 1.0, dvhe.05.06, BL+RPU
  7. Codec ID                                 : dvhe
  8. Codec ID/Info                            : High Efficiency Video Coding with Dolby Vision
  9. Duration                                 : 1 h 47 min
  10. Bit rate                                 : 15.4 Mb/s
  11. Width                                    : 3 840 pixels
  12. Height                                   : 2 160 pixels
  13. Display aspect ratio                     : 16:9
  14. Frame rate mode                          : Constant
  15. Frame rate                               : 24.000 FPS
  16. Color space                              : YUV
  17. Chroma subsampling                       : 4:2:0
  18. Bit depth                                : 10 bits
  19. Bits/(Pixel*Frame)                       : 0.077
  20. Stream size                              : 11.5 GiB (95%)
  21. Default                                  : Yes
  22. Alternate group                          : 1
  23. Encoded date                             : UTC 2023-01-02 12:02:00
  24. Tagged date                              : UTC 2023-01-02 12:06:58
  25. Color range                              : Full
  26. Codec configuration box                  : hvcC+dvcC
  27. Audio
  28. ID                                       : 2
  29. Format                                   : E-AC-3 JOC
  30. Format/Info                              : Enhanced AC-3 with Joint Object Coding
  31. Commercial name                          : Dolby Digital Plus with Dolby Atmos
  32. Codec ID                                 : ec-3
  33. Duration                                 : 1 h 47 min
  34. Bit rate mode                            : Constant
  35. Bit rate                                 : 768 kb/s
  36. Maximum bit rate                         : 811 kb/s
  37. Channel(s)                               : 6 channels
  38. Channel layout                           : L R C LFE Ls Rs
  39. Sampling rate                            : 48.0 kHz
  40. Frame rate                               : 31.250 FPS (1536 SPF)
  41. Compression mode                         : Lossy
  42. Stream size                              : 589 MiB (5%)
  43. Title                                    : English
  44. Language                                 : English
  45. Service kind                             : Complete Main
  46. Default                                  : Yes
  47. Alternate group                          : 1
  48. Tagged date                              : UTC 2023-01-02 12:06:58
  49. Complexity index                         : Not present / 16
  50. Number of dynamic objects                : 15
  51. Bed channel count                        : 1 channel
  52. Bed channel configuration                : LFE
  53. Text #1
  54. ID                                       : 3
  55. Format                                   : Timed Text
  56. Codec ID                                 : tx3g
  57. Duration                                 : 1 h 42 min
  58. Bit rate mode                            : Variable
  59. Bit rate                                 : 76 b/s
  60. Frame rate                               : 0.539 FPS
  61. Stream size                              : 56.9 KiB (0%)
  62. Title                                    : English
  63. Language                                 : English
  64. Forced                                   : No
  65. Encoded date                             : UTC 2023-01-02 12:06:56
  66. Tagged date                              : UTC 2023-01-02 12:06:58
  67. Text #2
  68. ID                                       : 4
  69. Format                                   : Timed Text
  70. Codec ID                                 : tx3g
  71. Duration                                 : 1 h 37 min
  72. Bit rate mode                            : Variable
  73. Bit rate                                 : 64 b/s
  74. Frame rate                               : 0.442 FPS
  75. Stream size                              : 45.6 KiB (0%)
  76. Title                                    : English
  77. Language                                 : English
  78. Forced                                   : No
  79. Encoded date                             : UTC 2023-01-02 12:06:56
  80. Tagged date                              : UTC 2023-01-02 12:06:58
  81. Text #3
  82. ID                                       : 5
  83. Format                                   : Timed Text
  84. Codec ID                                 : tx3g
  85. Duration                                 : 1 h 45 min
  86. Bit rate mode                            : Variable
  87. Bit rate                                 : 103 b/s
  88. Frame rate                               : 0.404 FPS
  89. Stream size                              : 79.4 KiB (0%)
  90. Title                                    : Arabic
  91. Language                                 : Arabic
  92. Forced                                   : No
  93. Encoded date                             : UTC 2023-01-02 12:06:56
  94. Tagged date                              : UTC 2023-01-02 12:06:58
  95. Text #4
  96. ID                                       : 6
  97. Format                                   : Timed Text
  98. Codec ID                                 : tx3g
  99. Duration                                 : 1 h 45 min
  100. Bit rate mode                            : Variable
  101. Bit rate                                 : 64 b/s
  102. Frame rate                               : 0.406 FPS
  103. Stream size                              : 49.8 KiB (0%)
  104. Title                                    : Chinese-Simplified
  105. Language                                 : Chinese (Simplied)
  106. Forced                                   : No
  107. Encoded date                             : UTC 2023-01-02 12:06:56
  108. Tagged date                              : UTC 2023-01-02 12:06:58
  109. Text #5
  110. ID                                       : 7
  111. Format                                   : Timed Text
  112. Codec ID                                 : tx3g
  113. Duration                                 : 1 h 45 min
  114. Bit rate mode                            : Variable
  115. Bit rate                                 : 52 b/s
  116. Frame rate                               : 0.408 FPS
  117. Stream size                              : 40.1 KiB (0%)
  118. Title                                    : Chinese-Traditional
  119. Language                                 : Chinese (Traditional)
  120. Forced                                   : No
  121. Encoded date                             : UTC 2023-01-02 12:06:56
  122. Tagged date                              : UTC 2023-01-02 12:06:58
  123. Text #6
  124. ID                                       : 8
  125. Format                                   : Timed Text
  126. Codec ID                                 : tx3g
  127. Duration                                 : 1 h 45 min
  128. Bit rate mode                            : Variable
  129. Bit rate                                 : 50 b/s
  130. Frame rate                               : 0.384 FPS
  131. Stream size                              : 39.0 KiB (0%)
  132. Title                                    : Croatian
  133. Language                                 : Croatian
  134. Forced                                   : No
  135. Encoded date                             : UTC 2023-01-02 12:06:56
  136. Tagged date                              : UTC 2023-01-02 12:06:58
  137. Text #7
  138. ID                                       : 9
  139. Format                                   : Timed Text
  140. Codec ID                                 : tx3g
  141. Duration                                 : 1 h 45 min
  142. Bit rate mode                            : Variable
  143. Bit rate                                 : 50 b/s
  144. Frame rate                               : 0.396 FPS
  145. Stream size                              : 38.8 KiB (0%)
  146. Title                                    : Czech
  147. Language                                 : Czech
  148. Forced                                   : No
  149. Encoded date                             : UTC 2023-01-02 12:06:56
  150. Tagged date                              : UTC 2023-01-02 12:06:58
  151. Text #8
  152. ID                                       : 10
  153. Format                                   : Timed Text
  154. Codec ID                                 : tx3g
  155. Duration                                 : 1 h 45 min
  156. Bit rate mode                            : Variable
  157. Bit rate                                 : 50 b/s
  158. Frame rate                               : 0.377 FPS
  159. Stream size                              : 38.8 KiB (0%)
  160. Title                                    : Danish
  161. Language                                 : Danish
  162. Forced                                   : No
  163. Encoded date                             : UTC 2023-01-02 12:06:56
  164. Tagged date                              : UTC 2023-01-02 12:06:58
  165. Text #9
  166. ID                                       : 11
  167. Format                                   : Timed Text
  168. Codec ID                                 : tx3g
  169. Duration                                 : 1 h 45 min
  170. Bit rate mode                            : Variable
  171. Bit rate                                 : 48 b/s
  172. Frame rate                               : 0.349 FPS
  173. Stream size                              : 37.3 KiB (0%)
  174. Title                                    : Dutch
  175. Language                                 : Dutch
  176. Forced                                   : No
  177. Encoded date                             : UTC 2023-01-02 12:06:56
  178. Tagged date                              : UTC 2023-01-02 12:06:58
  179. Text #10
  180. ID                                       : 12
  181. Format                                   : Timed Text
  182. Codec ID                                 : tx3g
  183. Duration                                 : 1 h 45 min
  184. Bit rate mode                            : Variable
  185. Bit rate                                 : 57 b/s
  186. Frame rate                               : 0.397 FPS
  187. Stream size                              : 44.2 KiB (0%)
  188. Title                                    : Filipino
  189. Language                                 : phi
  190. Forced                                   : No
  191. Encoded date                             : UTC 2023-01-02 12:06:56
  192. Tagged date                              : UTC 2023-01-02 12:06:58
  193. Text #11
  194. ID                                       : 13
  195. Format                                   : Timed Text
  196. Codec ID                                 : tx3g
  197. Duration                                 : 1 h 45 min
  198. Bit rate mode                            : Variable
  199. Bit rate                                 : 48 b/s
  200. Frame rate                               : 0.342 FPS
  201. Stream size                              : 37.0 KiB (0%)
  202. Title                                    : Finnish
  203. Language                                 : Finnish
  204. Forced                                   : No
  205. Encoded date                             : UTC 2023-01-02 12:06:56
  206. Tagged date                              : UTC 2023-01-02 12:06:58
  207. Text #12
  208. ID                                       : 14
  209. Format                                   : Timed Text
  210. Codec ID                                 : tx3g
  211. Duration                                 : 1 h 45 min
  212. Bit rate mode                            : Variable
  213. Bit rate                                 : 51 b/s
  214. Frame rate                               : 0.386 FPS
  215. Stream size                              : 39.9 KiB (0%)
  216. Title                                    : French
  217. Language                                 : French
  218. Forced                                   : No
  219. Encoded date                             : UTC 2023-01-02 12:06:57
  220. Tagged date                              : UTC 2023-01-02 12:06:58
  221. Text #13
  222. ID                                       : 15
  223. Format                                   : Timed Text
  224. Codec ID                                 : tx3g
  225. Duration                                 : 1 h 45 min
  226. Bit rate mode                            : Variable
  227. Bit rate                                 : 52 b/s
  228. Frame rate                               : 0.400 FPS
  229. Stream size                              : 40.4 KiB (0%)
  230. Title                                    : German
  231. Language                                 : German
  232. Forced                                   : No
  233. Encoded date                             : UTC 2023-01-02 12:06:57
  234. Tagged date                              : UTC 2023-01-02 12:06:58
  235. Text #14
  236. ID                                       : 16
  237. Format                                   : Timed Text
  238. Codec ID                                 : tx3g
  239. Duration                                 : 1 h 45 min
  240. Bit rate mode                            : Variable
  241. Bit rate                                 : 87 b/s
  242. Frame rate                               : 0.402 FPS
  243. Stream size                              : 67.1 KiB (0%)
  244. Title                                    : Greek
  245. Language                                 : Greek
  246. Forced                                   : No
  247. Encoded date                             : UTC 2023-01-02 12:06:57
  248. Tagged date                              : UTC 2023-01-02 12:06:58
  249. Text #15
  250. ID                                       : 17
  251. Format                                   : Timed Text
  252. Codec ID                                 : tx3g
  253. Duration                                 : 1 h 45 min
  254. Bit rate mode                            : Variable
  255. Bit rate                                 : 86 b/s
  256. Frame rate                               : 0.405 FPS
  257. Stream size                              : 66.8 KiB (0%)
  258. Title                                    : Hebrew
  259. Language                                 : Hebrew
  260. Forced                                   : No
  261. Encoded date                             : UTC 2023-01-02 12:06:57
  262. Tagged date                              : UTC 2023-01-02 12:06:58
  263. Text #16
  264. ID                                       : 18
  265. Format                                   : Timed Text
  266. Codec ID                                 : tx3g
  267. Duration                                 : 1 h 45 min
  268. Bit rate mode                            : Variable
  269. Bit rate                                 : 53 b/s
  270. Frame rate                               : 0.400 FPS
  271. Stream size                              : 40.7 KiB (0%)
  272. Title                                    : Hungarian
  273. Language                                 : Hungarian
  274. Forced                                   : No
  275. Encoded date                             : UTC 2023-01-02 12:06:57
  276. Tagged date                              : UTC 2023-01-02 12:06:58
  277. Text #17
  278. ID                                       : 19
  279. Format                                   : Timed Text
  280. Codec ID                                 : tx3g
  281. Duration                                 : 1 h 45 min
  282. Bit rate mode                            : Variable
  283. Bit rate                                 : 53 b/s
  284. Frame rate                               : 0.402 FPS
  285. Stream size                              : 41.1 KiB (0%)
  286. Title                                    : Indonesian
  287. Language                                 : Indonesian
  288. Forced                                   : No
  289. Encoded date                             : UTC 2023-01-02 12:06:57
  290. Tagged date                              : UTC 2023-01-02 12:06:58
  291. Text #18
  292. ID                                       : 20
  293. Format                                   : Timed Text
  294. Codec ID                                 : tx3g
  295. Duration                                 : 1 h 45 min
  296. Bit rate mode                            : Variable
  297. Bit rate                                 : 52 b/s
  298. Frame rate                               : 0.388 FPS
  299. Stream size                              : 40.5 KiB (0%)
  300. Title                                    : Italian
  301. Language                                 : Italian
  302. Forced                                   : No
  303. Encoded date                             : UTC 2023-01-02 12:06:57
  304. Tagged date                              : UTC 2023-01-02 12:06:58
  305. Text #19
  306. ID                                       : 21
  307. Format                                   : Timed Text
  308. Codec ID                                 : tx3g
  309. Duration                                 : 1 h 45 min
  310. Bit rate mode                            : Variable
  311. Bit rate                                 : 51 b/s
  312. Frame rate                               : 0.382 FPS
  313. Stream size                              : 39.2 KiB (0%)
  314. Title                                    : Japanese
  315. Language                                 : Japanese
  316. Forced                                   : No
  317. Encoded date                             : UTC 2023-01-02 12:06:57
  318. Tagged date                              : UTC 2023-01-02 12:06:58
  319. Text #20
  320. ID                                       : 22
  321. Format                                   : Timed Text
  322. Codec ID                                 : tx3g
  323. Duration                                 : 1 h 45 min
  324. Bit rate mode                            : Variable
  325. Bit rate                                 : 64 b/s
  326. Frame rate                               : 0.417 FPS
  327. Stream size                              : 49.3 KiB (0%)
  328. Title                                    : Korean
  329. Language                                 : Korean
  330. Forced                                   : No
  331. Encoded date                             : UTC 2023-01-02 12:06:57
  332. Tagged date                              : UTC 2023-01-02 12:06:58
  333. Text #21
  334. ID                                       : 23
  335. Format                                   : Timed Text
  336. Codec ID                                 : tx3g
  337. Duration                                 : 1 h 45 min
  338. Bit rate mode                            : Variable
  339. Bit rate                                 : 51 b/s
  340. Frame rate                               : 0.399 FPS
  341. Stream size                              : 39.4 KiB (0%)
  342. Title                                    : Malay
  343. Language                                 : Malay
  344. Forced                                   : No
  345. Encoded date                             : UTC 2023-01-02 12:06:57
  346. Tagged date                              : UTC 2023-01-02 12:06:58
  347. Text #22
  348. ID                                       : 24
  349. Format                                   : Timed Text
  350. Codec ID                                 : tx3g
  351. Duration                                 : 1 h 45 min
  352. Bit rate mode                            : Variable
  353. Bit rate                                 : 51 b/s
  354. Frame rate                               : 0.375 FPS
  355. Stream size                              : 39.3 KiB (0%)
  356. Title                                    : Norwegian
  357. Language                                 : Norwegian Bokmal
  358. Forced                                   : No
  359. Encoded date                             : UTC 2023-01-02 12:06:57
  360. Tagged date                              : UTC 2023-01-02 12:06:58
  361. Text #23
  362. ID                                       : 25
  363. Format                                   : Timed Text
  364. Codec ID                                 : tx3g
  365. Duration                                 : 1 h 45 min
  366. Bit rate mode                            : Variable
  367. Bit rate                                 : 53 b/s
  368. Frame rate                               : 0.392 FPS
  369. Stream size                              : 41.0 KiB (0%)
  370. Title                                    : Polish
  371. Language                                 : Polish
  372. Forced                                   : No
  373. Encoded date                             : UTC 2023-01-02 12:06:57
  374. Tagged date                              : UTC 2023-01-02 12:06:58
  375. Text #24
  376. ID                                       : 26
  377. Format                                   : Timed Text
  378. Codec ID                                 : tx3g
  379. Duration                                 : 1 h 37 min
  380. Bit rate mode                            : Variable
  381. Bit rate                                 : 65 b/s
  382. Frame rate                               : 0.441 FPS
  383. Stream size                              : 46.4 KiB (0%)
  384. Title                                    : Portuguese
  385. Language                                 : Portuguese
  386. Forced                                   : No
  387. Encoded date                             : UTC 2023-01-02 12:06:57
  388. Tagged date                              : UTC 2023-01-02 12:06:58
  389. Text #25
  390. ID                                       : 27
  391. Format                                   : Timed Text
  392. Codec ID                                 : tx3g
  393. Duration                                 : 1 h 42 min
  394. Bit rate mode                            : Variable
  395. Bit rate                                 : 73 b/s
  396. Frame rate                               : 0.510 FPS
  397. Stream size                              : 54.6 KiB (0%)
  398. Title                                    : Portuguese
  399. Language                                 : Portuguese
  400. Forced                                   : No
  401. Encoded date                             : UTC 2023-01-02 12:06:57
  402. Tagged date                              : UTC 2023-01-02 12:06:58
  403. Text #26
  404. ID                                       : 28
  405. Format                                   : Timed Text
  406. Codec ID                                 : tx3g
  407. Duration                                 : 1 h 45 min
  408. Bit rate mode                            : Variable
  409. Bit rate                                 : 54 b/s
  410. Frame rate                               : 0.393 FPS
  411. Stream size                              : 41.6 KiB (0%)
  412. Title                                    : Portuguese
  413. Language                                 : Portuguese
  414. Forced                                   : No
  415. Encoded date                             : UTC 2023-01-02 12:06:57
  416. Tagged date                              : UTC 2023-01-02 12:06:58
  417. Text #27
  418. ID                                       : 29
  419. Format                                   : Timed Text
  420. Codec ID                                 : tx3g
  421. Duration                                 : 1 h 45 min
  422. Bit rate mode                            : Variable
  423. Bit rate                                 : 60 b/s
  424. Frame rate                               : 0.397 FPS
  425. Stream size                              : 46.6 KiB (0%)
  426. Title                                    : Romanian
  427. Language                                 : Romanian
  428. Forced                                   : No
  429. Encoded date                             : UTC 2023-01-02 12:06:57
  430. Tagged date                              : UTC 2023-01-02 12:06:58
  431. Text #28
  432. ID                                       : 30
  433. Format                                   : Timed Text
  434. Codec ID                                 : tx3g
  435. Duration                                 : 1 h 45 min
  436. Bit rate mode                            : Variable
  437. Bit rate                                 : 83 b/s
  438. Frame rate                               : 0.391 FPS
  439. Stream size                              : 64.2 KiB (0%)
  440. Title                                    : Russian
  441. Language                                 : Russian
  442. Forced                                   : No
  443. Encoded date                             : UTC 2023-01-02 12:06:58
  444. Tagged date                              : UTC 2023-01-02 12:06:58
  445. Text #29
  446. ID                                       : 31
  447. Format                                   : Timed Text
  448. Codec ID                                 : tx3g
  449. Duration                                 : 1 h 45 min
  450. Bit rate mode                            : Variable
  451. Bit rate                                 : 53 b/s
  452. Frame rate                               : 0.387 FPS
  453. Stream size                              : 41.0 KiB (0%)
  454. Title                                    : Spanish-Basque
  455. Language                                 : Basque
  456. Forced                                   : No
  457. Encoded date                             : UTC 2023-01-02 12:06:58
  458. Tagged date                              : UTC 2023-01-02 12:06:58
  459. Text #30
  460. ID                                       : 32
  461. Format                                   : Timed Text
  462. Codec ID                                 : tx3g
  463. Duration                                 : 1 h 45 min
  464. Bit rate mode                            : Variable
  465. Bit rate                                 : 51 b/s
  466. Frame rate                               : 0.410 FPS
  467. Stream size                              : 39.7 KiB (0%)
  468. Title                                    : Spanish-Catalan
  469. Language                                 : Catalan
  470. Forced                                   : No
  471. Encoded date                             : UTC 2023-01-02 12:06:58
  472. Tagged date                              : UTC 2023-01-02 12:06:58
  473. Text #31
  474. ID                                       : 33
  475. Format                                   : Timed Text
  476. Codec ID                                 : tx3g
  477. Duration                                 : 1 h 37 min
  478. Bit rate mode                            : Variable
  479. Bit rate                                 : 63 b/s
  480. Frame rate                               : 0.433 FPS
  481. Stream size                              : 45.4 KiB (0%)
  482. Title                                    : Spanish-EU
  483. Language                                 : Spanish
  484. Forced                                   : No
  485. Encoded date                             : UTC 2023-01-02 12:06:58
  486. Tagged date                              : UTC 2023-01-02 12:06:58
  487. Text #32
  488. ID                                       : 34
  489. Format                                   : Timed Text
  490. Codec ID                                 : tx3g
  491. Duration                                 : 1 h 45 min
  492. Bit rate mode                            : Variable
  493. Bit rate                                 : 52 b/s
  494. Frame rate                               : 0.406 FPS
  495. Stream size                              : 40.0 KiB (0%)
  496. Title                                    : Spanish-EU
  497. Language                                 : Spanish
  498. Forced                                   : No
  499. Encoded date                             : UTC 2023-01-02 12:06:58
  500. Tagged date                              : UTC 2023-01-02 12:06:58
  501. Text #33
  502. ID                                       : 35
  503. Format                                   : Timed Text
  504. Codec ID                                 : tx3g
  505. Duration                                 : 1 h 37 min
  506. Bit rate mode                            : Variable
  507. Bit rate                                 : 67 b/s
  508. Frame rate                               : 0.453 FPS
  509. Stream size                              : 47.9 KiB (0%)
  510. Title                                    : Spanish-EU
  511. Language                                 : Spanish
  512. Forced                                   : No
  513. Encoded date                             : UTC 2023-01-02 12:06:58
  514. Tagged date                              : UTC 2023-01-02 12:06:58
  515. Text #34
  516. ID                                       : 36
  517. Format                                   : Timed Text
  518. Codec ID                                 : tx3g
  519. Duration                                 : 1 h 45 min
  520. Bit rate mode                            : Variable
  521. Bit rate                                 : 48 b/s
  522. Frame rate                               : 0.399 FPS
  523. Stream size                              : 37.2 KiB (0%)
  524. Title                                    : Spanish-Galician
  525. Language                                 : Galician
  526. Forced                                   : No
  527. Encoded date                             : UTC 2023-01-02 12:06:58
  528. Tagged date                              : UTC 2023-01-02 12:06:58
  529. Text #35
  530. ID                                       : 37
  531. Format                                   : Timed Text
  532. Codec ID                                 : tx3g
  533. Duration                                 : 1 h 45 min
  534. Bit rate mode                            : Variable
  535. Bit rate                                 : 51 b/s
  536. Frame rate                               : 0.344 FPS
  537. Stream size                              : 39.2 KiB (0%)
  538. Title                                    : Swedish
  539. Language                                 : Swedish
  540. Forced                                   : No
  541. Encoded date                             : UTC 2023-01-02 12:06:58
  542. Tagged date                              : UTC 2023-01-02 12:06:58
  543. Text #36
  544. ID                                       : 38
  545. Format                                   : Timed Text
  546. Codec ID                                 : tx3g
  547. Duration                                 : 1 h 45 min
  548. Bit rate mode                            : Variable
  549. Bit rate                                 : 136 b/s
  550. Frame rate                               : 0.408 FPS
  551. Stream size                              : 106 KiB (0%)
  552. Title                                    : Thai
  553. Language                                 : Thai
  554. Forced                                   : No
  555. Encoded date                             : UTC 2023-01-02 12:06:58
  556. Tagged date                              : UTC 2023-01-02 12:06:58
  557. Text #37
  558. ID                                       : 39
  559. Format                                   : Timed Text
  560. Codec ID                                 : tx3g
  561. Duration                                 : 1 h 45 min
  562. Bit rate mode                            : Variable
  563. Bit rate                                 : 55 b/s
  564. Frame rate                               : 0.404 FPS
  565. Stream size                              : 42.8 KiB (0%)
  566. Title                                    : Turkish
  567. Language                                 : Turkish
  568. Forced                                   : No
  569. Encoded date                             : UTC 2023-01-02 12:06:58
  570. Tagged date                              : UTC 2023-01-02 12:06:58
  571. Text #38
  572. ID                                       : 40
  573. Format                                   : Timed Text
  574. Codec ID                                 : tx3g
  575. Duration                                 : 1 h 45 min
  576. Bit rate mode                            : Variable
  577. Bit rate                                 : 88 b/s
  578. Frame rate                               : 0.400 FPS
  579. Stream size                              : 68.5 KiB (0%)
  580. Title                                    : Ukrainian
  581. Language                                 : Ukrainian
  582. Forced                                   : No
  583. Encoded date                             : UTC 2023-01-02 12:06:58
  584. Tagged date                              : UTC 2023-01-02 12:06:58
  585. Text #39
  586. ID                                       : 41
  587. Format                                   : Timed Text
  588. Codec ID                                 : tx3g
  589. Duration                                 : 1 h 45 min
  590. Bit rate mode                            : Variable
  591. Bit rate                                 : 73 b/s
  592. Frame rate                               : 0.405 FPS
  593. Stream size                              : 56.4 KiB (0%)
  594. Title                                    : Vietnamese
  595. Language                                 : Vietnamese
  596. Forced                                   : No
  597. Encoded date                             : UTC 2023-01-02 12:06:58
  598. Tagged date                              : UTC 2023-01-02 12:06:58
复制代码











回复

使用道具 举报

懒得打字嘛,点击右侧快捷回复 【右侧内容,后台自定义】
您需要登录后才可以回帖 登录 | 立即加入

本版积分规则

Copyright © 2024 Comsenz Inc. Powered by 蓝光电影网

本站内容由用户自主分享和转载自互联网,转载目的在于传递更多信息,并不代表本网赞同其观点和对其真实性负责。

如有侵权、违反国家法律政策行为,请联系我们,我们会第一时间及时清除和处理!

举报反馈邮箱:4k1080.com@gmail.com

快速回复 返回顶部 返回列表