找回密码

查看: 1184|回复: 0

[2160p-WEB] 致莱斯利.To.Leslie.2022.2160p.WEB-DL.x265.10bit.SDR.DD5.1-SLOT 17.59GB

[复制链接]
蓝光币
1856
发表于 2023-1-3 03:28:08 | 显示全部楼层 |阅读模式


◎标  题 致莱斯利
◎译  名 致莱斯莉
◎片  名 To Leslie
◎年  代 2022
◎产  地 美国
◎类  别 剧情
◎语  言 英语
◎上映日期 2022-03-12(西南偏南电影节)
◎IMDb评分 7/10 (1057人评价)
◎IMDb链接 https://www.imdb.com/title/tt8129806/
◎豆瓣链接 https://movie.douban.com/subject/35760259/
◎片  长 119分钟
◎导  演 迈克尔·莫里斯 Michael Morris
◎编  剧 瑞恩· 比纳科 Ryan Binaco
◎演  员 艾莉森·珍妮 Allison Janney
       安德丽娅·赖斯伯勒 Andrea Riseborough
       马克·马龙 Marc Maron
       斯蒂芬·鲁特 Stephen Root
       马特·劳里亚 Matt Lauria
       欧文·泰格 Owen Teague
       麦克·勃兰特 Mac Brandt
       詹姆斯·兰德里·赫伯特 James Landry Hébert
       安德烈·罗佑 Andre Royo
       汤姆·维图 Tom Virtue
       胡安·卡洛斯·坎图 Juan Carlos Cantu
       宝拉·罗兹 Paula Rhodes
       斯科特·皮特 Scott Peat
        Stephanie Wong  
       拉金·赛普尔 Larkin Seiple
◎简  介
  Leslie is a West Texas single mother struggling to provide for her son when she wins the lottery and a chance at a good life. But a few short years later the money is gone and Leslie is on her own, living hard and fast at the bottom of a bottle as she runs from the world of heartbreak she left behind.                                       
                                    With her charm running out and with nowhere to go, Leslie returns home. Unwel...
  1. Video
  2. ID                                       : 1
  3. Format                                   : HEVC
  4. Format/Info                              : High Efficiency Video Coding
  5. Format profile                           : Main 10@L5@High
  6. Codec ID                                 : V_MPEGH/ISO/HEVC
  7. Duration                                 : 1 h 59 min
  8. Bit rate                                 : 20.7 Mb/s
  9. Width                                    : 3 840 pixels
  10. Height                                   : 1 604 pixels
  11. Display aspect ratio                     : 2.40:1
  12. Frame rate mode                          : Constant
  13. Frame rate                               : 24.000 FPS
  14. Color space                              : YUV
  15. Chroma subsampling                       : 4:2:0
  16. Bit depth                                : 10 bits
  17. Bits/(Pixel*Frame)                       : 0.140
  18. Stream size                              : 17.3 GiB (98%)
  19. Default                                  : Yes
  20. Forced                                   : No
  21. Color range                              : Limited
  22. Color primaries                          : BT.709
  23. Transfer characteristics                 : BT.709
  24. Matrix coefficients                      : BT.709
  25. Audio
  26. ID                                       : 2
  27. Format                                   : AC-3
  28. Format/Info                              : Audio Coding 3
  29. Commercial name                          : Dolby Digital
  30. Codec ID                                 : A_AC3
  31. Duration                                 : 1 h 59 min
  32. Bit rate mode                            : Constant
  33. Bit rate                                 : 384 kb/s
  34. Channel(s)                               : 6 channels
  35. Channel layout                           : L R C LFE Ls Rs
  36. Sampling rate                            : 48.0 kHz
  37. Frame rate                               : 31.250 FPS (1536 SPF)
  38. Compression mode                         : Lossy
  39. Stream size                              : 328 MiB (2%)
  40. Language                                 : English (US)
  41. Service kind                             : Complete Main
  42. Default                                  : Yes
  43. Forced                                   : No
  44. Text
  45. ID                                       : 3
  46. Format                                   : UTF-8
  47. Codec ID                                 : S_TEXT/UTF8
  48. Codec ID/Info                            : UTF-8 Plain Text
  49. Duration                                 : 1 h 57 min
  50. Bit rate                                 : 56 b/s
  51. Frame rate                               : 0.253 FPS
  52. Count of elements                        : 1791
  53. Stream size                              : 48.6 KiB (0%)
  54. Title                                    : English CC
  55. Language                                 : English (US)
  56. Default                                  : No
  57. Forced                                   : No
  58. Menu
  59. 00:00:00.000                             : en:Chapter 1
  60. 00:10:45.041                             : en:Chapter 2
  61. 00:24:13.791                             : en:Chapter 3
  62. 00:39:28.833                             : en:Chapter 4
  63. 00:52:08.250                             : en:Chapter 5
  64. 01:02:24.375                             : en:Chapter 6
  65. 01:15:27.041                             : en:Chapter 7
  66. 01:26:45.166                             : en:Chapter 8
  67. 01:37:25.625                             : en:Chapter 9
  68. 01:45:30.791                             : en:Chapter 10
  69. 01:55:21.125                             : en:Chapter 11
复制代码











回复

使用道具 举报

懒得打字嘛,点击右侧快捷回复 【右侧内容,后台自定义】
您需要登录后才可以回帖 登录 | 立即加入

本版积分规则

Copyright © 2024 Comsenz Inc. Powered by 蓝光电影网

本站内容由用户自主分享和转载自互联网,转载目的在于传递更多信息,并不代表本网赞同其观点和对其真实性负责。

如有侵权、违反国家法律政策行为,请联系我们,我们会第一时间及时清除和处理!

举报反馈邮箱:4k1080.com@gmail.com

快速回复 返回顶部 返回列表