找回密码

查看: 1302|回复: 0

[2160p-WEB] 突袭之后[中文字幕].After.the.Raid.2019.SPANISH.2160p.NF.WEB-DL.x265.10bit.SDR.DDP5.1-NewYear 2.06GB

[复制链接]
蓝光币
1848
发表于 2023-1-3 03:28:09 | 显示全部楼层 |阅读模式


◎标  题 突袭以后
◎片  名 After the Raid
◎年  代 2019
◎产  地 美国 / 墨西哥
◎类  别 记载片
◎语  言 英语
◎上映日期 2019-12-19(美国)
◎IMDb评分 4.6/10 (127人评价)
◎IMDb链接 https://www.imdb.com/title/tt11324024/
◎豆瓣链接 https://movie.douban.com/subject/34918958/
◎片  长 24分钟
◎简  介
  小镇遭受了一场针对移民的大范围突击检查,这不但严重影响了镇民们的情感,还让这些常去教会的人们起头思考一个复杂的题目:爱你的邻人究竟意味着什么。
  1. Video
  2. ID                                       : 1
  3. Format                                   : HEVC
  4. Format/Info                              : High Efficiency Video Coding
  5. Format profile                           : Main 10@L5@Main
  6. Codec ID                                 : V_MPEGH/ISO/HEVC
  7. Duration                                 : 25 min 7 s
  8. Bit rate                                 : 11.1 Mb/s
  9. Width                                    : 3 840 pixels
  10. Height                                   : 2 160 pixels
  11. Display aspect ratio                     : 16:9
  12. Frame rate mode                          : Constant
  13. Frame rate                               : 23.976 (24000/1001) FPS
  14. Color space                              : YUV
  15. Chroma subsampling                       : 4:2:0
  16. Bit depth                                : 10 bits
  17. Bits/(Pixel*Frame)                       : 0.056
  18. Stream size                              : 1.94 GiB (94%)
  19. Language                                 : Spanish
  20. Default                                  : Yes
  21. Forced                                   : No
  22. Color range                              : Limited
  23. Color primaries                          : BT.709
  24. Transfer characteristics                 : BT.709
  25. Matrix coefficients                      : BT.709
  26. Audio
  27. ID                                       : 2
  28. Format                                   : E-AC-3
  29. Format/Info                              : Enhanced AC-3
  30. Commercial name                          : Dolby Digital Plus
  31. Codec ID                                 : A_EAC3
  32. Duration                                 : 25 min 8 s
  33. Bit rate mode                            : Constant
  34. Bit rate                                 : 640 kb/s
  35. Channel(s)                               : 6 channels
  36. Channel layout                           : L R C LFE Ls Rs
  37. Sampling rate                            : 48.0 kHz
  38. Frame rate                               : 31.250 FPS (1536 SPF)
  39. Compression mode                         : Lossy
  40. Stream size                              : 115 MiB (5%)
  41. Title                                    : Latin American
  42. Language                                 : Spanish (Latin America)
  43. Service kind                             : Complete Main
  44. Default                                  : Yes
  45. Forced                                   : No
  46. Text #1
  47. ID                                       : 3
  48. Format                                   : UTF-8
  49. Codec ID                                 : S_TEXT/UTF8
  50. Codec ID/Info                            : UTF-8 Plain Text
  51. Duration                                 : 24 min 28 s
  52. Bit rate                                 : 39 b/s
  53. Frame rate                               : 0.108 FPS
  54. Count of elements                        : 158
  55. Stream size                              : 7.00 KiB (0%)
  56. Title                                    : Latin American (Forced)
  57. Language                                 : Spanish (Latin America)
  58. Default                                  : Yes
  59. Forced                                   : Yes
  60. Text #2
  61. ID                                       : 4
  62. Format                                   : UTF-8
  63. Codec ID                                 : S_TEXT/UTF8
  64. Codec ID/Info                            : UTF-8 Plain Text
  65. Duration                                 : 24 min 28 s
  66. Bit rate                                 : 61 b/s
  67. Frame rate                               : 0.181 FPS
  68. Count of elements                        : 266
  69. Stream size                              : 11.0 KiB (0%)
  70. Title                                    : Latin American
  71. Language                                 : Spanish (Latin America)
  72. Default                                  : No
  73. Forced                                   : No
  74. Text #3
  75. ID                                       : 5
  76. Format                                   : UTF-8
  77. Codec ID                                 : S_TEXT/UTF8
  78. Codec ID/Info                            : UTF-8 Plain Text
  79. Duration                                 : 24 min 28 s
  80. Bit rate                                 : 67 b/s
  81. Frame rate                               : 0.205 FPS
  82. Count of elements                        : 301
  83. Stream size                              : 12.2 KiB (0%)
  84. Title                                    : Latin American (SDH)
  85. Language                                 : Spanish (Latin America)
  86. Default                                  : No
  87. Forced                                   : No
  88. Text #4
  89. ID                                       : 6
  90. Format                                   : UTF-8
  91. Codec ID                                 : S_TEXT/UTF8
  92. Codec ID/Info                            : UTF-8 Plain Text
  93. Duration                                 : 22 min 0 s
  94. Bit rate                                 : 88 b/s
  95. Frame rate                               : 0.203 FPS
  96. Count of elements                        : 268
  97. Stream size                              : 14.3 KiB (0%)
  98. Language                                 : Arabic
  99. Default                                  : No
  100. Forced                                   : No
  101. Text #5
  102. ID                                       : 7
  103. Format                                   : UTF-8
  104. Codec ID                                 : S_TEXT/UTF8
  105. Codec ID/Info                            : UTF-8 Plain Text
  106. Duration                                 : 24 min 28 s
  107. Bit rate                                 : 46 b/s
  108. Frame rate                               : 0.179 FPS
  109. Count of elements                        : 263
  110. Stream size                              : 8.38 KiB (0%)
  111. Language                                 : Czech
  112. Default                                  : No
  113. Forced                                   : No
  114. Text #6
  115. ID                                       : 8
  116. Format                                   : UTF-8
  117. Codec ID                                 : S_TEXT/UTF8
  118. Codec ID/Info                            : UTF-8 Plain Text
  119. Duration                                 : 24 min 28 s
  120. Bit rate                                 : 51 b/s
  121. Frame rate                               : 0.175 FPS
  122. Count of elements                        : 257
  123. Stream size                              : 9.23 KiB (0%)
  124. Language                                 : Danish
  125. Default                                  : No
  126. Forced                                   : No
  127. Text #7
  128. ID                                       : 9
  129. Format                                   : UTF-8
  130. Codec ID                                 : S_TEXT/UTF8
  131. Codec ID/Info                            : UTF-8 Plain Text
  132. Duration                                 : 24 min 28 s
  133. Bit rate                                 : 55 b/s
  134. Frame rate                               : 0.167 FPS
  135. Count of elements                        : 245
  136. Stream size                              : 9.90 KiB (0%)
  137. Language                                 : German
  138. Default                                  : No
  139. Forced                                   : No
  140. Text #8
  141. ID                                       : 10
  142. Format                                   : UTF-8
  143. Codec ID                                 : S_TEXT/UTF8
  144. Codec ID/Info                            : UTF-8 Plain Text
  145. Duration                                 : 24 min 19 s
  146. Bit rate                                 : 88 b/s
  147. Frame rate                               : 0.178 FPS
  148. Count of elements                        : 260
  149. Stream size                              : 15.8 KiB (0%)
  150. Language                                 : Greek
  151. Default                                  : No
  152. Forced                                   : No
  153. Text #9
  154. ID                                       : 11
  155. Format                                   : UTF-8
  156. Codec ID                                 : S_TEXT/UTF8
  157. Codec ID/Info                            : UTF-8 Plain Text
  158. Duration                                 : 22 min 32 s
  159. Bit rate                                 : 20 b/s
  160. Frame rate                               : 0.081 FPS
  161. Count of elements                        : 109
  162. Stream size                              : 3.45 KiB (0%)
  163. Language                                 : English
  164. Default                                  : No
  165. Forced                                   : No
  166. Text #10
  167. ID                                       : 12
  168. Format                                   : UTF-8
  169. Codec ID                                 : S_TEXT/UTF8
  170. Codec ID/Info                            : UTF-8 Plain Text
  171. Duration                                 : 24 min 28 s
  172. Bit rate                                 : 49 b/s
  173. Frame rate                               : 0.160 FPS
  174. Count of elements                        : 235
  175. Stream size                              : 8.86 KiB (0%)
  176. Language                                 : Finnish
  177. Default                                  : No
  178. Forced                                   : No
  179. Text #11
  180. ID                                       : 13
  181. Format                                   : UTF-8
  182. Codec ID                                 : S_TEXT/UTF8
  183. Codec ID/Info                            : UTF-8 Plain Text
  184. Duration                                 : 24 min 28 s
  185. Bit rate                                 : 56 b/s
  186. Frame rate                               : 0.174 FPS
  187. Count of elements                        : 255
  188. Stream size                              : 10.2 KiB (0%)
  189. Language                                 : French
  190. Default                                  : No
  191. Forced                                   : No
  192. Text #12
  193. ID                                       : 14
  194. Format                                   : UTF-8
  195. Codec ID                                 : S_TEXT/UTF8
  196. Codec ID/Info                            : UTF-8 Plain Text
  197. Duration                                 : 24 min 28 s
  198. Bit rate                                 : 75 b/s
  199. Frame rate                               : 0.173 FPS
  200. Count of elements                        : 254
  201. Stream size                              : 13.5 KiB (0%)
  202. Language                                 : Hebrew
  203. Default                                  : No
  204. Forced                                   : No
  205. Text #13
  206. ID                                       : 15
  207. Format                                   : UTF-8
  208. Codec ID                                 : S_TEXT/UTF8
  209. Codec ID/Info                            : UTF-8 Plain Text
  210. Duration                                 : 24 min 28 s
  211. Bit rate                                 : 53 b/s
  212. Frame rate                               : 0.172 FPS
  213. Count of elements                        : 252
  214. Stream size                              : 9.59 KiB (0%)
  215. Language                                 : Hungarian
  216. Default                                  : No
  217. Forced                                   : No
  218. Text #14
  219. ID                                       : 16
  220. Format                                   : UTF-8
  221. Codec ID                                 : S_TEXT/UTF8
  222. Codec ID/Info                            : UTF-8 Plain Text
  223. Duration                                 : 24 min 28 s
  224. Bit rate                                 : 52 b/s
  225. Frame rate                               : 0.178 FPS
  226. Count of elements                        : 261
  227. Stream size                              : 9.37 KiB (0%)
  228. Language                                 : Indonesian
  229. Default                                  : No
  230. Forced                                   : No
  231. Text #15
  232. ID                                       : 17
  233. Format                                   : UTF-8
  234. Codec ID                                 : S_TEXT/UTF8
  235. Codec ID/Info                            : UTF-8 Plain Text
  236. Duration                                 : 24 min 28 s
  237. Bit rate                                 : 55 b/s
  238. Frame rate                               : 0.166 FPS
  239. Count of elements                        : 244
  240. Stream size                              : 10.0 KiB (0%)
  241. Language                                 : Italian
  242. Default                                  : No
  243. Forced                                   : No
  244. Text #16
  245. ID                                       : 18
  246. Format                                   : UTF-8
  247. Codec ID                                 : S_TEXT/UTF8
  248. Codec ID/Info                            : UTF-8 Plain Text
  249. Duration                                 : 24 min 28 s
  250. Bit rate                                 : 52 b/s
  251. Frame rate                               : 0.164 FPS
  252. Count of elements                        : 241
  253. Stream size                              : 9.46 KiB (0%)
  254. Language                                 : Japanese
  255. Default                                  : No
  256. Forced                                   : No
  257. Text #17
  258. ID                                       : 19
  259. Format                                   : UTF-8
  260. Codec ID                                 : S_TEXT/UTF8
  261. Codec ID/Info                            : UTF-8 Plain Text
  262. Duration                                 : 24 min 28 s
  263. Bit rate                                 : 65 b/s
  264. Frame rate                               : 0.183 FPS
  265. Count of elements                        : 268
  266. Stream size                              : 11.8 KiB (0%)
  267. Language                                 : Korean
  268. Default                                  : No
  269. Forced                                   : No
  270. Text #18
  271. ID                                       : 20
  272. Format                                   : UTF-8
  273. Codec ID                                 : S_TEXT/UTF8
  274. Codec ID/Info                            : UTF-8 Plain Text
  275. Duration                                 : 24 min 28 s
  276. Bit rate                                 : 47 b/s
  277. Frame rate                               : 0.169 FPS
  278. Count of elements                        : 248
  279. Stream size                              : 8.57 KiB (0%)
  280. Language                                 : Norwegian Bokmal
  281. Default                                  : No
  282. Forced                                   : No
  283. Text #19
  284. ID                                       : 21
  285. Format                                   : UTF-8
  286. Codec ID                                 : S_TEXT/UTF8
  287. Codec ID/Info                            : UTF-8 Plain Text
  288. Duration                                 : 24 min 28 s
  289. Bit rate                                 : 48 b/s
  290. Frame rate                               : 0.128 FPS
  291. Count of elements                        : 188
  292. Stream size                              : 8.74 KiB (0%)
  293. Language                                 : Dutch
  294. Default                                  : No
  295. Forced                                   : No
  296. Text #20
  297. ID                                       : 22
  298. Format                                   : UTF-8
  299. Codec ID                                 : S_TEXT/UTF8
  300. Codec ID/Info                            : UTF-8 Plain Text
  301. Duration                                 : 24 min 28 s
  302. Bit rate                                 : 49 b/s
  303. Frame rate                               : 0.173 FPS
  304. Count of elements                        : 254
  305. Stream size                              : 8.92 KiB (0%)
  306. Language                                 : Polish
  307. Default                                  : No
  308. Forced                                   : No
  309. Text #21
  310. ID                                       : 23
  311. Format                                   : UTF-8
  312. Codec ID                                 : S_TEXT/UTF8
  313. Codec ID/Info                            : UTF-8 Plain Text
  314. Duration                                 : 24 min 28 s
  315. Bit rate                                 : 54 b/s
  316. Frame rate                               : 0.181 FPS
  317. Count of elements                        : 266
  318. Stream size                              : 9.78 KiB (0%)
  319. Title                                    : Brazilian
  320. Language                                 : Portuguese (BR)
  321. Default                                  : No
  322. Forced                                   : No
  323. Text #22
  324. ID                                       : 24
  325. Format                                   : UTF-8
  326. Codec ID                                 : S_TEXT/UTF8
  327. Codec ID/Info                            : UTF-8 Plain Text
  328. Duration                                 : 21 min 54 s
  329. Bit rate                                 : 61 b/s
  330. Frame rate                               : 0.196 FPS
  331. Count of elements                        : 258
  332. Stream size                              : 9.82 KiB (0%)
  333. Language                                 : Portuguese (PT)
  334. Default                                  : No
  335. Forced                                   : No
  336. Text #23
  337. ID                                       : 25
  338. Format                                   : UTF-8
  339. Codec ID                                 : S_TEXT/UTF8
  340. Codec ID/Info                            : UTF-8 Plain Text
  341. Duration                                 : 24 min 28 s
  342. Bit rate                                 : 60 b/s
  343. Frame rate                               : 0.170 FPS
  344. Count of elements                        : 249
  345. Stream size                              : 10.9 KiB (0%)
  346. Language                                 : Romanian
  347. Default                                  : No
  348. Forced                                   : No
  349. Text #24
  350. ID                                       : 26
  351. Format                                   : UTF-8
  352. Codec ID                                 : S_TEXT/UTF8
  353. Codec ID/Info                            : UTF-8 Plain Text
  354. Duration                                 : 24 min 25 s
  355. Bit rate                                 : 86 b/s
  356. Frame rate                               : 0.179 FPS
  357. Count of elements                        : 262
  358. Stream size                              : 15.5 KiB (0%)
  359. Language                                 : Russian
  360. Default                                  : No
  361. Forced                                   : No
  362. Text #25
  363. ID                                       : 27
  364. Format                                   : UTF-8
  365. Codec ID                                 : S_TEXT/UTF8
  366. Codec ID/Info                            : UTF-8 Plain Text
  367. Duration                                 : 21 min 54 s
  368. Bit rate                                 : 57 b/s
  369. Frame rate                               : 0.161 FPS
  370. Count of elements                        : 212
  371. Stream size                              : 9.21 KiB (0%)
  372. Language                                 : Swedish
  373. Default                                  : No
  374. Forced                                   : No
  375. Text #26
  376. ID                                       : 28
  377. Format                                   : UTF-8
  378. Codec ID                                 : S_TEXT/UTF8
  379. Codec ID/Info                            : UTF-8 Plain Text
  380. Duration                                 : 24 min 28 s
  381. Bit rate                                 : 139 b/s
  382. Frame rate                               : 0.183 FPS
  383. Count of elements                        : 268
  384. Stream size                              : 25.0 KiB (0%)
  385. Language                                 : Thai
  386. Default                                  : No
  387. Forced                                   : No
  388. Text #27
  389. ID                                       : 29
  390. Format                                   : UTF-8
  391. Codec ID                                 : S_TEXT/UTF8
  392. Codec ID/Info                            : UTF-8 Plain Text
  393. Duration                                 : 24 min 28 s
  394. Bit rate                                 : 50 b/s
  395. Frame rate                               : 0.170 FPS
  396. Count of elements                        : 250
  397. Stream size                              : 9.11 KiB (0%)
  398. Language                                 : Turkish
  399. Default                                  : No
  400. Forced                                   : No
  401. Text #28
  402. ID                                       : 30
  403. Format                                   : UTF-8
  404. Codec ID                                 : S_TEXT/UTF8
  405. Codec ID/Info                            : UTF-8 Plain Text
  406. Duration                                 : 24 min 24 s
  407. Bit rate                                 : 81 b/s
  408. Frame rate                               : 0.182 FPS
  409. Count of elements                        : 267
  410. Stream size                              : 14.6 KiB (0%)
  411. Language                                 : Vietnamese
  412. Default                                  : No
  413. Forced                                   : No
  414. Text #29
  415. ID                                       : 31
  416. Format                                   : UTF-8
  417. Codec ID                                 : S_TEXT/UTF8
  418. Codec ID/Info                            : UTF-8 Plain Text
  419. Duration                                 : 24 min 28 s
  420. Bit rate                                 : 50 b/s
  421. Frame rate                               : 0.173 FPS
  422. Count of elements                        : 254
  423. Stream size                              : 9.07 KiB (0%)
  424. Title                                    : Simplified
  425. Language                                 : Chinese (Simplied)
  426. Default                                  : No
  427. Forced                                   : No
  428. Text #30
  429. ID                                       : 32
  430. Format                                   : UTF-8
  431. Codec ID                                 : S_TEXT/UTF8
  432. Codec ID/Info                            : UTF-8 Plain Text
  433. Duration                                 : 24 min 28 s
  434. Bit rate                                 : 48 b/s
  435. Frame rate                               : 0.183 FPS
  436. Count of elements                        : 268
  437. Stream size                              : 8.73 KiB (0%)
  438. Title                                    : Traditional
  439. Language                                 : Chinese (Traditional)
  440. Default                                  : No
  441. Forced                                   : No
  442. Menu
  443. 00:22:12.000                             : en:End Credits
复制代码











回复

使用道具 举报

懒得打字嘛,点击右侧快捷回复 【右侧内容,后台自定义】
您需要登录后才可以回帖 登录 | 立即加入

本版积分规则

Copyright © 2024 Comsenz Inc. Powered by 蓝光电影网

本站内容由用户自主分享和转载自互联网,转载目的在于传递更多信息,并不代表本网赞同其观点和对其真实性负责。

如有侵权、违反国家法律政策行为,请联系我们,我们会第一时间及时清除和处理!

举报反馈邮箱:4k1080.com@gmail.com

快速回复 返回顶部 返回列表