找回密码

查看: 1387|回复: 0

[2160p-WEB] 征服14座高峰:凡事皆可能[中文字幕].14.Peaks.Nothing.Is.Impossible.2021.2160p.NF.WEB-DL.x265.10bit.HDR.DDP5.1.Atmos-EVERYTHINGISPOSSIBLE 6.90GB

[复制链接]
蓝光币
1848
发表于 2023-1-3 03:28:09 | 显示全部楼层 |阅读模式


◎标  题 征服14座高峰:凡事皆能够
◎译  名 14绝岭:不成能的创举(港) / 勇闯天下14高峰:应战不成能(台)
◎片  名 14 Peaks: Nothing Is Impossible
◎年  代 2021
◎产  地 美国
◎类  别 记载片
◎语  言 英语
◎上映日期 2021-11-29(美国)
◎IMDb评分 7.7/10 (26377人评价)
◎IMDb链接 https://www.imdb.com/title/tt14079374/
◎豆瓣评分 8.5/10 (2916人评价)
◎豆瓣链接 https://movie.douban.com/subject/35642265/
◎片  长 101分钟
◎简  介
  《征服 14 座高峰:凡事皆能够》透过尼玛尔·普贾(“尼姆斯”)的视角,摸索了尼泊尔与高海拔爬山的不解之缘,尼玛尔·普贾是一位无所害怕、酷爱玩乐的尼泊尔爬山者,他正在履行一项他称之为“能够性计划”的使命:在 7 个月内登顶天下上 14 座海拔 8000 米的山岳,而此前的最短记载是 7 年。他与一群技术纯熟的夏尔巴人一路穿越了珠穆朗玛峰、乔戈里峰和其他标志性山岳,履历了极端天气、生死决定,以及家中母亲病倒的变故。《征服 14 座高峰:凡事皆能够》是一个关于勇气、毅力和应战人类耐力极限的惊险故事。托奎尔·琼斯担任编剧、导演和制片人。金国威和伊丽莎白·柴·瓦沙瑞莉配合担任监制。该片由 Noah Media Group 和 Little Monster Films 结合建造。
  1. Video
  2. ID                                       : 1
  3. Format                                   : HEVC
  4. Format/Info                              : High Efficiency Video Coding
  5. Format profile                           : Main 10@L5@Main
  6. HDR format                               : Dolby Vision, Version 1.0, dvhe.08.07, BL+RPU, HDR10 compatible / SMPTE ST 2086, HDR10 compatible
  7. Codec ID                                 : V_MPEGH/ISO/HEVC
  8. Duration                                 : 1 h 39 min
  9. Bit rate                                 : 9 118 kb/s
  10. Width                                    : 3 840 pixels
  11. Height                                   : 2 160 pixels
  12. Display aspect ratio                     : 16:9
  13. Frame rate mode                          : Constant
  14. Frame rate                               : 25.000 FPS
  15. Color space                              : YUV
  16. Chroma subsampling                       : 4:2:0 (Type 2)
  17. Bit depth                                : 10 bits
  18. Bits/(Pixel*Frame)                       : 0.044
  19. Stream size                              : 6.35 GiB (92%)
  20. Language                                 : English
  21. Default                                  : Yes
  22. Forced                                   : No
  23. Color range                              : Limited
  24. Color primaries                          : BT.2020
  25. Transfer characteristics                 : PQ
  26. Matrix coefficients                      : BT.2020 non-constant
  27. Mastering display color primaries        : Display P3
  28. Mastering display luminance              : min: 0.0001 cd/m2, max: 1000 cd/m2
  29. Maximum Content Light Level              : 1881 cd/m2
  30. Maximum Frame-Average Light Level        : 321 cd/m2
  31. Audio
  32. ID                                       : 2
  33. Format                                   : E-AC-3 JOC
  34. Format/Info                              : Enhanced AC-3 with Joint Object Coding
  35. Commercial name                          : Dolby Digital Plus with Dolby Atmos
  36. Codec ID                                 : A_EAC3
  37. Duration                                 : 1 h 41 min
  38. Bit rate mode                            : Constant
  39. Bit rate                                 : 768 kb/s
  40. Channel(s)                               : 6 channels
  41. Channel layout                           : L R C LFE Ls Rs
  42. Sampling rate                            : 48.0 kHz
  43. Frame rate                               : 31.250 FPS (1536 SPF)
  44. Compression mode                         : Lossy
  45. Stream size                              : 555 MiB (8%)
  46. Language                                 : English
  47. Service kind                             : Complete Main
  48. Default                                  : Yes
  49. Forced                                   : No
  50. Complexity index                         : 16
  51. Number of dynamic objects                : 15
  52. Bed channel count                        : 1 channel
  53. Bed channel configuration                : LFE
  54. Text #1
  55. ID                                       : 3
  56. Format                                   : UTF-8
  57. Codec ID                                 : S_TEXT/UTF8
  58. Codec ID/Info                            : UTF-8 Plain Text
  59. Duration                                 : 1 h 34 min
  60. Bit rate                                 : 11 b/s
  61. Frame rate                               : 0.035 FPS
  62. Count of elements                        : 201
  63. Stream size                              : 8.27 KiB (0%)
  64. Title                                    : Forced
  65. Language                                 : English
  66. Default                                  : Yes
  67. Forced                                   : Yes
  68. Text #2
  69. ID                                       : 4
  70. Format                                   : UTF-8
  71. Codec ID                                 : S_TEXT/UTF8
  72. Codec ID/Info                            : UTF-8 Plain Text
  73. Duration                                 : 1 h 36 min
  74. Bit rate                                 : 61 b/s
  75. Frame rate                               : 0.171 FPS
  76. Count of elements                        : 991
  77. Stream size                              : 43.6 KiB (0%)
  78. Language                                 : English
  79. Default                                  : No
  80. Forced                                   : No
  81. Text #3
  82. ID                                       : 5
  83. Format                                   : UTF-8
  84. Codec ID                                 : S_TEXT/UTF8
  85. Codec ID/Info                            : UTF-8 Plain Text
  86. Duration                                 : 1 h 38 min
  87. Bit rate                                 : 69 b/s
  88. Frame rate                               : 0.202 FPS
  89. Count of elements                        : 1186
  90. Stream size                              : 50.0 KiB (0%)
  91. Title                                    : SDH
  92. Language                                 : English
  93. Default                                  : No
  94. Forced                                   : No
  95. Text #4
  96. ID                                       : 6
  97. Format                                   : UTF-8
  98. Codec ID                                 : S_TEXT/UTF8
  99. Codec ID/Info                            : UTF-8 Plain Text
  100. Duration                                 : 1 h 39 min
  101. Bit rate                                 : 96 b/s
  102. Frame rate                               : 0.189 FPS
  103. Count of elements                        : 1124
  104. Stream size                              : 70.0 KiB (0%)
  105. Language                                 : Arabic
  106. Default                                  : No
  107. Forced                                   : No
  108. Text #5
  109. ID                                       : 7
  110. Format                                   : UTF-8
  111. Codec ID                                 : S_TEXT/UTF8
  112. Codec ID/Info                            : UTF-8 Plain Text
  113. Duration                                 : 1 h 39 min
  114. Bit rate                                 : 56 b/s
  115. Frame rate                               : 0.183 FPS
  116. Count of elements                        : 1089
  117. Stream size                              : 41.3 KiB (0%)
  118. Language                                 : Czech
  119. Default                                  : No
  120. Forced                                   : No
  121. Text #6
  122. ID                                       : 8
  123. Format                                   : UTF-8
  124. Codec ID                                 : S_TEXT/UTF8
  125. Codec ID/Info                            : UTF-8 Plain Text
  126. Duration                                 : 1 h 39 min
  127. Bit rate                                 : 57 b/s
  128. Frame rate                               : 0.170 FPS
  129. Count of elements                        : 1012
  130. Stream size                              : 42.0 KiB (0%)
  131. Language                                 : Danish
  132. Default                                  : No
  133. Forced                                   : No
  134. Text #7
  135. ID                                       : 9
  136. Format                                   : UTF-8
  137. Codec ID                                 : S_TEXT/UTF8
  138. Codec ID/Info                            : UTF-8 Plain Text
  139. Duration                                 : 1 h 39 min
  140. Bit rate                                 : 60 b/s
  141. Frame rate                               : 0.179 FPS
  142. Count of elements                        : 1064
  143. Stream size                              : 43.9 KiB (0%)
  144. Language                                 : German
  145. Default                                  : No
  146. Forced                                   : No
  147. Text #8
  148. ID                                       : 10
  149. Format                                   : UTF-8
  150. Codec ID                                 : S_TEXT/UTF8
  151. Codec ID/Info                            : UTF-8 Plain Text
  152. Duration                                 : 1 h 39 min
  153. Bit rate                                 : 98 b/s
  154. Frame rate                               : 0.188 FPS
  155. Count of elements                        : 1122
  156. Stream size                              : 71.8 KiB (0%)
  157. Language                                 : Greek
  158. Default                                  : No
  159. Forced                                   : No
  160. Text #9
  161. ID                                       : 11
  162. Format                                   : UTF-8
  163. Codec ID                                 : S_TEXT/UTF8
  164. Codec ID/Info                            : UTF-8 Plain Text
  165. Duration                                 : 1 h 39 min
  166. Bit rate                                 : 57 b/s
  167. Frame rate                               : 0.183 FPS
  168. Count of elements                        : 1088
  169. Stream size                              : 42.0 KiB (0%)
  170. Title                                    : Latin American
  171. Language                                 : Spanish (Latin America)
  172. Default                                  : No
  173. Forced                                   : No
  174. Text #10
  175. ID                                       : 12
  176. Format                                   : UTF-8
  177. Codec ID                                 : S_TEXT/UTF8
  178. Codec ID/Info                            : UTF-8 Plain Text
  179. Duration                                 : 1 h 39 min
  180. Bit rate                                 : 57 b/s
  181. Frame rate                               : 0.181 FPS
  182. Count of elements                        : 1077
  183. Stream size                              : 42.0 KiB (0%)
  184. Language                                 : Spanish (ES)
  185. Default                                  : No
  186. Forced                                   : No
  187. Text #11
  188. ID                                       : 13
  189. Format                                   : UTF-8
  190. Codec ID                                 : S_TEXT/UTF8
  191. Codec ID/Info                            : UTF-8 Plain Text
  192. Duration                                 : 1 h 39 min
  193. Bit rate                                 : 51 b/s
  194. Frame rate                               : 0.173 FPS
  195. Count of elements                        : 1028
  196. Stream size                              : 37.5 KiB (0%)
  197. Language                                 : Finnish
  198. Default                                  : No
  199. Forced                                   : No
  200. Text #12
  201. ID                                       : 14
  202. Format                                   : UTF-8
  203. Codec ID                                 : S_TEXT/UTF8
  204. Codec ID/Info                            : UTF-8 Plain Text
  205. Duration                                 : 1 h 39 min
  206. Bit rate                                 : 59 b/s
  207. Frame rate                               : 0.180 FPS
  208. Count of elements                        : 1069
  209. Stream size                              : 43.2 KiB (0%)
  210. Language                                 : French
  211. Default                                  : No
  212. Forced                                   : No
  213. Text #13
  214. ID                                       : 15
  215. Format                                   : UTF-8
  216. Codec ID                                 : S_TEXT/UTF8
  217. Codec ID/Info                            : UTF-8 Plain Text
  218. Duration                                 : 1 h 39 min
  219. Bit rate                                 : 82 b/s
  220. Frame rate                               : 0.187 FPS
  221. Count of elements                        : 1116
  222. Stream size                              : 60.0 KiB (0%)
  223. Language                                 : Hebrew
  224. Default                                  : No
  225. Forced                                   : No
  226. Text #14
  227. ID                                       : 16
  228. Format                                   : UTF-8
  229. Codec ID                                 : S_TEXT/UTF8
  230. Codec ID/Info                            : UTF-8 Plain Text
  231. Duration                                 : 1 h 39 min
  232. Bit rate                                 : 55 b/s
  233. Frame rate                               : 0.183 FPS
  234. Count of elements                        : 1087
  235. Stream size                              : 40.6 KiB (0%)
  236. Language                                 : Croatian
  237. Default                                  : No
  238. Forced                                   : No
  239. Text #15
  240. ID                                       : 17
  241. Format                                   : UTF-8
  242. Codec ID                                 : S_TEXT/UTF8
  243. Codec ID/Info                            : UTF-8 Plain Text
  244. Duration                                 : 1 h 39 min
  245. Bit rate                                 : 64 b/s
  246. Frame rate                               : 0.182 FPS
  247. Count of elements                        : 1082
  248. Stream size                              : 47.0 KiB (0%)
  249. Language                                 : Hungarian
  250. Default                                  : No
  251. Forced                                   : No
  252. Text #16
  253. ID                                       : 18
  254. Format                                   : UTF-8
  255. Codec ID                                 : S_TEXT/UTF8
  256. Codec ID/Info                            : UTF-8 Plain Text
  257. Duration                                 : 1 h 39 min
  258. Bit rate                                 : 58 b/s
  259. Frame rate                               : 0.184 FPS
  260. Count of elements                        : 1098
  261. Stream size                              : 42.5 KiB (0%)
  262. Language                                 : Indonesian
  263. Default                                  : No
  264. Forced                                   : No
  265. Text #17
  266. ID                                       : 19
  267. Format                                   : UTF-8
  268. Codec ID                                 : S_TEXT/UTF8
  269. Codec ID/Info                            : UTF-8 Plain Text
  270. Duration                                 : 1 h 39 min
  271. Bit rate                                 : 57 b/s
  272. Frame rate                               : 0.170 FPS
  273. Count of elements                        : 1010
  274. Stream size                              : 41.5 KiB (0%)
  275. Language                                 : Italian
  276. Default                                  : No
  277. Forced                                   : No
  278. Text #18
  279. ID                                       : 20
  280. Format                                   : UTF-8
  281. Codec ID                                 : S_TEXT/UTF8
  282. Codec ID/Info                            : UTF-8 Plain Text
  283. Duration                                 : 1 h 39 min
  284. Bit rate                                 : 77 b/s
  285. Frame rate                               : 0.212 FPS
  286. Count of elements                        : 1262
  287. Stream size                              : 56.6 KiB (0%)
  288. Language                                 : Japanese
  289. Default                                  : No
  290. Forced                                   : No
  291. Text #19
  292. ID                                       : 21
  293. Format                                   : UTF-8
  294. Codec ID                                 : S_TEXT/UTF8
  295. Codec ID/Info                            : UTF-8 Plain Text
  296. Duration                                 : 1 h 39 min
  297. Bit rate                                 : 70 b/s
  298. Frame rate                               : 0.188 FPS
  299. Count of elements                        : 1121
  300. Stream size                              : 50.9 KiB (0%)
  301. Language                                 : Korean
  302. Default                                  : No
  303. Forced                                   : No
  304. Text #20
  305. ID                                       : 22
  306. Format                                   : UTF-8
  307. Codec ID                                 : S_TEXT/UTF8
  308. Codec ID/Info                            : UTF-8 Plain Text
  309. Duration                                 : 1 h 39 min
  310. Bit rate                                 : 59 b/s
  311. Frame rate                               : 0.179 FPS
  312. Count of elements                        : 1063
  313. Stream size                              : 43.5 KiB (0%)
  314. Language                                 : Malay
  315. Default                                  : No
  316. Forced                                   : No
  317. Text #21
  318. ID                                       : 23
  319. Format                                   : UTF-8
  320. Codec ID                                 : S_TEXT/UTF8
  321. Codec ID/Info                            : UTF-8 Plain Text
  322. Duration                                 : 1 h 39 min
  323. Bit rate                                 : 54 b/s
  324. Frame rate                               : 0.177 FPS
  325. Count of elements                        : 1052
  326. Stream size                              : 39.9 KiB (0%)
  327. Language                                 : Norwegian Bokmal
  328. Default                                  : No
  329. Forced                                   : No
  330. Text #22
  331. ID                                       : 24
  332. Format                                   : UTF-8
  333. Codec ID                                 : S_TEXT/UTF8
  334. Codec ID/Info                            : UTF-8 Plain Text
  335. Duration                                 : 1 h 39 min
  336. Bit rate                                 : 49 b/s
  337. Frame rate                               : 0.164 FPS
  338. Count of elements                        : 975
  339. Stream size                              : 35.7 KiB (0%)
  340. Language                                 : Dutch
  341. Default                                  : No
  342. Forced                                   : No
  343. Text #23
  344. ID                                       : 25
  345. Format                                   : UTF-8
  346. Codec ID                                 : S_TEXT/UTF8
  347. Codec ID/Info                            : UTF-8 Plain Text
  348. Duration                                 : 1 h 39 min
  349. Bit rate                                 : 47 b/s
  350. Frame rate                               : 0.182 FPS
  351. Count of elements                        : 1084
  352. Stream size                              : 34.7 KiB (0%)
  353. Language                                 : Polish
  354. Default                                  : No
  355. Forced                                   : No
  356. Text #24
  357. ID                                       : 26
  358. Format                                   : UTF-8
  359. Codec ID                                 : S_TEXT/UTF8
  360. Codec ID/Info                            : UTF-8 Plain Text
  361. Duration                                 : 1 h 39 min
  362. Bit rate                                 : 58 b/s
  363. Frame rate                               : 0.183 FPS
  364. Count of elements                        : 1088
  365. Stream size                              : 42.4 KiB (0%)
  366. Title                                    : Brazilian
  367. Language                                 : Portuguese (BR)
  368. Default                                  : No
  369. Forced                                   : No
  370. Text #25
  371. ID                                       : 27
  372. Format                                   : UTF-8
  373. Codec ID                                 : S_TEXT/UTF8
  374. Codec ID/Info                            : UTF-8 Plain Text
  375. Duration                                 : 1 h 39 min
  376. Bit rate                                 : 61 b/s
  377. Frame rate                               : 0.182 FPS
  378. Count of elements                        : 1082
  379. Stream size                              : 44.7 KiB (0%)
  380. Language                                 : Portuguese (PT)
  381. Default                                  : No
  382. Forced                                   : No
  383. Text #26
  384. ID                                       : 28
  385. Format                                   : UTF-8
  386. Codec ID                                 : S_TEXT/UTF8
  387. Codec ID/Info                            : UTF-8 Plain Text
  388. Duration                                 : 1 h 39 min
  389. Bit rate                                 : 66 b/s
  390. Frame rate                               : 0.182 FPS
  391. Count of elements                        : 1083
  392. Stream size                              : 48.6 KiB (0%)
  393. Language                                 : Romanian
  394. Default                                  : No
  395. Forced                                   : No
  396. Text #27
  397. ID                                       : 29
  398. Format                                   : UTF-8
  399. Codec ID                                 : S_TEXT/UTF8
  400. Codec ID/Info                            : UTF-8 Plain Text
  401. Duration                                 : 1 h 39 min
  402. Bit rate                                 : 97 b/s
  403. Frame rate                               : 0.188 FPS
  404. Count of elements                        : 1117
  405. Stream size                              : 70.9 KiB (0%)
  406. Language                                 : Russian
  407. Default                                  : No
  408. Forced                                   : No
  409. Text #28
  410. ID                                       : 30
  411. Format                                   : UTF-8
  412. Codec ID                                 : S_TEXT/UTF8
  413. Codec ID/Info                            : UTF-8 Plain Text
  414. Duration                                 : 1 h 39 min
  415. Bit rate                                 : 58 b/s
  416. Frame rate                               : 0.181 FPS
  417. Count of elements                        : 1076
  418. Stream size                              : 42.5 KiB (0%)
  419. Language                                 : Swedish
  420. Default                                  : No
  421. Forced                                   : No
  422. Text #29
  423. ID                                       : 31
  424. Format                                   : UTF-8
  425. Codec ID                                 : S_TEXT/UTF8
  426. Codec ID/Info                            : UTF-8 Plain Text
  427. Duration                                 : 1 h 39 min
  428. Bit rate                                 : 136 b/s
  429. Frame rate                               : 0.188 FPS
  430. Count of elements                        : 1120
  431. Stream size                              : 98.9 KiB (0%)
  432. Language                                 : Thai
  433. Default                                  : No
  434. Forced                                   : No
  435. Text #30
  436. ID                                       : 32
  437. Format                                   : UTF-8
  438. Codec ID                                 : S_TEXT/UTF8
  439. Codec ID/Info                            : UTF-8 Plain Text
  440. Duration                                 : 1 h 39 min
  441. Bit rate                                 : 60 b/s
  442. Frame rate                               : 0.176 FPS
  443. Count of elements                        : 1046
  444. Stream size                              : 43.9 KiB (0%)
  445. Language                                 : Turkish
  446. Default                                  : No
  447. Forced                                   : No
  448. Text #31
  449. ID                                       : 33
  450. Format                                   : UTF-8
  451. Codec ID                                 : S_TEXT/UTF8
  452. Codec ID/Info                            : UTF-8 Plain Text
  453. Duration                                 : 1 h 37 min
  454. Bit rate                                 : 95 b/s
  455. Frame rate                               : 0.191 FPS
  456. Count of elements                        : 1116
  457. Stream size                              : 68.1 KiB (0%)
  458. Language                                 : Ukrainian
  459. Default                                  : No
  460. Forced                                   : No
  461. Text #32
  462. ID                                       : 34
  463. Format                                   : UTF-8
  464. Codec ID                                 : S_TEXT/UTF8
  465. Codec ID/Info                            : UTF-8 Plain Text
  466. Duration                                 : 1 h 39 min
  467. Bit rate                                 : 80 b/s
  468. Frame rate                               : 0.183 FPS
  469. Count of elements                        : 1088
  470. Stream size                              : 58.5 KiB (0%)
  471. Language                                 : Vietnamese
  472. Default                                  : No
  473. Forced                                   : No
  474. Text #33
  475. ID                                       : 35
  476. Format                                   : UTF-8
  477. Codec ID                                 : S_TEXT/UTF8
  478. Codec ID/Info                            : UTF-8 Plain Text
  479. Duration                                 : 1 h 39 min
  480. Bit rate                                 : 58 b/s
  481. Frame rate                               : 0.186 FPS
  482. Count of elements                        : 1105
  483. Stream size                              : 42.2 KiB (0%)
  484. Title                                    : Simplified
  485. Language                                 : Chinese (Simplied)
  486. Default                                  : No
  487. Forced                                   : No
  488. Text #34
  489. ID                                       : 36
  490. Format                                   : UTF-8
  491. Codec ID                                 : S_TEXT/UTF8
  492. Codec ID/Info                            : UTF-8 Plain Text
  493. Duration                                 : 1 h 39 min
  494. Bit rate                                 : 52 b/s
  495. Frame rate                               : 0.190 FPS
  496. Count of elements                        : 1128
  497. Stream size                              : 38.2 KiB (0%)
  498. Title                                    : Traditional
  499. Language                                 : Chinese (Traditional)
  500. Default                                  : No
  501. Forced                                   : No
  502. Menu
  503. 01:38:10.000                             : en:End Credits
复制代码











征服14座高峰:凡事皆能够[中笔墨幕].14.Peaks.Nothing.Is.Impossible.2021.2160p.NF.WEB-DL.x265.10bit.HDR.DDP5.1.Atmos-EVERYTHINGISPOSSIBLE 6.90GB

14.Peaks.Nothing.Is.Impossible.2021.2160p.NF.WEB-DL.x265.10bit.HDR.DDP5.1.Atmos-.torrent

17.96 KB, 下载次数: 15, 下载积分: 蓝光币 -2

回复

使用道具 举报

懒得打字嘛,点击右侧快捷回复 【右侧内容,后台自定义】
您需要登录后才可以回帖 登录 | 立即加入

本版积分规则

Copyright © 2024 Comsenz Inc. Powered by 蓝光电影网

本站内容由用户自主分享和转载自互联网,转载目的在于传递更多信息,并不代表本网赞同其观点和对其真实性负责。

如有侵权、违反国家法律政策行为,请联系我们,我们会第一时间及时清除和处理!

举报反馈邮箱:4k1080.com@gmail.com

快速回复 返回顶部 返回列表