找回密码

查看: 1247|回复: 0

[2160p-WEB] 业余选手[中文字幕].Amateur.2018.2160p.NF.WEB-DL.x265.10bit.SDR.DDP5.1-NewYear 8.25GB

[复制链接]
蓝光币
1848
发表于 2023-1-3 03:28:10 | 显示全部楼层 |阅读模式


◎标  题 专业选手
◎片  名 Amateur
◎年  代 2018
◎产  地 美国
◎类  别 剧情 / 活动
◎语  言 英语
◎上映日期 2018-04-06(美国)
◎IMDb评分 5.9/10 (4636人评价)
◎IMDb链接 https://www.imdb.com/title/tt5580392/
◎豆瓣评分 6.5/10 (356人评价)
◎豆瓣链接 https://movie.douban.com/subject/30186154/
◎片  长 96分钟
◎演  员 莎朗·莉尔 Sharon Leal
       科里·帕克·罗宾逊 Corey Parker Robinson
       乔西·查尔斯 Josh Charles
       杰森·迈克尔·伯曼 Jason Michael Berman
◎简  介
  一位年轻的篮球运带动正在尽力顺应新的球队
  1. Video
  2. ID                                       : 1
  3. Format                                   : HEVC
  4. Format/Info                              : High Efficiency Video Coding
  5. Format profile                           : Main 10@L5@Main
  6. Codec ID                                 : V_MPEGH/ISO/HEVC
  7. Duration                                 : 1 h 36 min
  8. Bit rate                                 : 11.6 Mb/s
  9. Width                                    : 3 840 pixels
  10. Height                                   : 2 160 pixels
  11. Display aspect ratio                     : 16:9
  12. Frame rate mode                          : Constant
  13. Frame rate                               : 23.976 (24000/1001) FPS
  14. Color space                              : YUV
  15. Chroma subsampling                       : 4:2:0
  16. Bit depth                                : 10 bits
  17. Bits/(Pixel*Frame)                       : 0.058
  18. Stream size                              : 7.82 GiB (95%)
  19. Language                                 : English
  20. Default                                  : Yes
  21. Forced                                   : No
  22. Color range                              : Limited
  23. Color primaries                          : BT.709
  24. Transfer characteristics                 : BT.709
  25. Matrix coefficients                      : BT.709
  26. Audio
  27. ID                                       : 2
  28. Format                                   : E-AC-3
  29. Format/Info                              : Enhanced AC-3
  30. Commercial name                          : Dolby Digital Plus
  31. Codec ID                                 : A_EAC3
  32. Duration                                 : 1 h 36 min
  33. Bit rate mode                            : Constant
  34. Bit rate                                 : 640 kb/s
  35. Channel(s)                               : 6 channels
  36. Channel layout                           : L R C LFE Ls Rs
  37. Sampling rate                            : 48.0 kHz
  38. Frame rate                               : 31.250 FPS (1536 SPF)
  39. Compression mode                         : Lossy
  40. Stream size                              : 441 MiB (5%)
  41. Language                                 : English
  42. Service kind                             : Complete Main
  43. Default                                  : Yes
  44. Forced                                   : No
  45. Text #1
  46. ID                                       : 3
  47. Format                                   : UTF-8
  48. Codec ID                                 : S_TEXT/UTF8
  49. Codec ID/Info                            : UTF-8 Plain Text
  50. Duration                                 : 1 h 26 min
  51. Bit rate                                 : 71 b/s
  52. Frame rate                               : 0.223 FPS
  53. Count of elements                        : 1156
  54. Stream size                              : 45.5 KiB (0%)
  55. Language                                 : English
  56. Default                                  : No
  57. Forced                                   : No
  58. Text #2
  59. ID                                       : 4
  60. Format                                   : UTF-8
  61. Codec ID                                 : S_TEXT/UTF8
  62. Codec ID/Info                            : UTF-8 Plain Text
  63. Duration                                 : 1 h 33 min
  64. Bit rate                                 : 79 b/s
  65. Frame rate                               : 0.237 FPS
  66. Count of elements                        : 1331
  67. Stream size                              : 54.3 KiB (0%)
  68. Title                                    : SDH
  69. Language                                 : English
  70. Default                                  : No
  71. Forced                                   : No
  72. Text #3
  73. ID                                       : 5
  74. Format                                   : UTF-8
  75. Codec ID                                 : S_TEXT/UTF8
  76. Codec ID/Info                            : UTF-8 Plain Text
  77. Duration                                 : 1 h 35 min
  78. Bit rate                                 : 111 b/s
  79. Frame rate                               : 0.199 FPS
  80. Count of elements                        : 1141
  81. Stream size                              : 78.4 KiB (0%)
  82. Language                                 : Arabic
  83. Default                                  : No
  84. Forced                                   : No
  85. Text #4
  86. ID                                       : 6
  87. Format                                   : UTF-8
  88. Codec ID                                 : S_TEXT/UTF8
  89. Codec ID/Info                            : UTF-8 Plain Text
  90. Duration                                 : 1 h 35 min
  91. Bit rate                                 : 51 b/s
  92. Frame rate                               : 0.198 FPS
  93. Count of elements                        : 1134
  94. Stream size                              : 36.1 KiB (0%)
  95. Language                                 : Danish
  96. Default                                  : No
  97. Forced                                   : No
  98. Text #5
  99. ID                                       : 7
  100. Format                                   : UTF-8
  101. Codec ID                                 : S_TEXT/UTF8
  102. Codec ID/Info                            : UTF-8 Plain Text
  103. Duration                                 : 1 h 35 min
  104. Bit rate                                 : 61 b/s
  105. Frame rate                               : 0.199 FPS
  106. Count of elements                        : 1139
  107. Stream size                              : 43.2 KiB (0%)
  108. Language                                 : German
  109. Default                                  : No
  110. Forced                                   : No
  111. Text #6
  112. ID                                       : 8
  113. Format                                   : UTF-8
  114. Codec ID                                 : S_TEXT/UTF8
  115. Codec ID/Info                            : UTF-8 Plain Text
  116. Duration                                 : 1 h 35 min
  117. Bit rate                                 : 104 b/s
  118. Frame rate                               : 0.198 FPS
  119. Count of elements                        : 1135
  120. Stream size                              : 73.5 KiB (0%)
  121. Language                                 : Greek
  122. Default                                  : No
  123. Forced                                   : No
  124. Text #7
  125. ID                                       : 9
  126. Format                                   : UTF-8
  127. Codec ID                                 : S_TEXT/UTF8
  128. Codec ID/Info                            : UTF-8 Plain Text
  129. Duration                                 : 1 h 35 min
  130. Bit rate                                 : 63 b/s
  131. Frame rate                               : 0.199 FPS
  132. Count of elements                        : 1140
  133. Stream size                              : 44.3 KiB (0%)
  134. Title                                    : Latin American
  135. Language                                 : Spanish (Latin America)
  136. Default                                  : No
  137. Forced                                   : No
  138. Text #8
  139. ID                                       : 10
  140. Format                                   : UTF-8
  141. Codec ID                                 : S_TEXT/UTF8
  142. Codec ID/Info                            : UTF-8 Plain Text
  143. Duration                                 : 1 h 35 min
  144. Bit rate                                 : 58 b/s
  145. Frame rate                               : 0.199 FPS
  146. Count of elements                        : 1140
  147. Stream size                              : 40.7 KiB (0%)
  148. Language                                 : Spanish (ES)
  149. Default                                  : No
  150. Forced                                   : No
  151. Text #9
  152. ID                                       : 11
  153. Format                                   : UTF-8
  154. Codec ID                                 : S_TEXT/UTF8
  155. Codec ID/Info                            : UTF-8 Plain Text
  156. Duration                                 : 1 h 35 min
  157. Bit rate                                 : 52 b/s
  158. Frame rate                               : 0.157 FPS
  159. Count of elements                        : 901
  160. Stream size                              : 36.6 KiB (0%)
  161. Language                                 : Finnish
  162. Default                                  : No
  163. Forced                                   : No
  164. Text #10
  165. ID                                       : 12
  166. Format                                   : UTF-8
  167. Codec ID                                 : S_TEXT/UTF8
  168. Codec ID/Info                            : UTF-8 Plain Text
  169. Duration                                 : 1 h 35 min
  170. Bit rate                                 : 62 b/s
  171. Frame rate                               : 0.199 FPS
  172. Count of elements                        : 1139
  173. Stream size                              : 43.6 KiB (0%)
  174. Language                                 : French
  175. Default                                  : No
  176. Forced                                   : No
  177. Text #11
  178. ID                                       : 13
  179. Format                                   : UTF-8
  180. Codec ID                                 : S_TEXT/UTF8
  181. Codec ID/Info                            : UTF-8 Plain Text
  182. Duration                                 : 1 h 35 min
  183. Bit rate                                 : 98 b/s
  184. Frame rate                               : 0.199 FPS
  185. Count of elements                        : 1141
  186. Stream size                              : 69.3 KiB (0%)
  187. Language                                 : Hebrew
  188. Default                                  : No
  189. Forced                                   : No
  190. Text #12
  191. ID                                       : 14
  192. Format                                   : UTF-8
  193. Codec ID                                 : S_TEXT/UTF8
  194. Codec ID/Info                            : UTF-8 Plain Text
  195. Duration                                 : 1 h 26 min
  196. Bit rate                                 : 63 b/s
  197. Frame rate                               : 0.223 FPS
  198. Count of elements                        : 1159
  199. Stream size                              : 40.5 KiB (0%)
  200. Language                                 : Indonesian
  201. Default                                  : No
  202. Forced                                   : No
  203. Text #13
  204. ID                                       : 15
  205. Format                                   : UTF-8
  206. Codec ID                                 : S_TEXT/UTF8
  207. Codec ID/Info                            : UTF-8 Plain Text
  208. Duration                                 : 1 h 35 min
  209. Bit rate                                 : 68 b/s
  210. Frame rate                               : 0.198 FPS
  211. Count of elements                        : 1138
  212. Stream size                              : 47.9 KiB (0%)
  213. Language                                 : Italian
  214. Default                                  : No
  215. Forced                                   : No
  216. Text #14
  217. ID                                       : 16
  218. Format                                   : UTF-8
  219. Codec ID                                 : S_TEXT/UTF8
  220. Codec ID/Info                            : UTF-8 Plain Text
  221. Duration                                 : 1 h 35 min
  222. Bit rate                                 : 48 b/s
  223. Frame rate                               : 0.227 FPS
  224. Count of elements                        : 1299
  225. Stream size                              : 33.9 KiB (0%)
  226. Language                                 : Japanese
  227. Default                                  : No
  228. Forced                                   : No
  229. Text #15
  230. ID                                       : 17
  231. Format                                   : UTF-8
  232. Codec ID                                 : S_TEXT/UTF8
  233. Codec ID/Info                            : UTF-8 Plain Text
  234. Duration                                 : 1 h 35 min
  235. Bit rate                                 : 68 b/s
  236. Frame rate                               : 0.199 FPS
  237. Count of elements                        : 1142
  238. Stream size                              : 47.7 KiB (0%)
  239. Language                                 : Korean
  240. Default                                  : No
  241. Forced                                   : No
  242. Text #16
  243. ID                                       : 18
  244. Format                                   : UTF-8
  245. Codec ID                                 : S_TEXT/UTF8
  246. Codec ID/Info                            : UTF-8 Plain Text
  247. Duration                                 : 1 h 35 min
  248. Bit rate                                 : 56 b/s
  249. Frame rate                               : 0.199 FPS
  250. Count of elements                        : 1139
  251. Stream size                              : 39.5 KiB (0%)
  252. Language                                 : Norwegian Bokmal
  253. Default                                  : No
  254. Forced                                   : No
  255. Text #17
  256. ID                                       : 19
  257. Format                                   : UTF-8
  258. Codec ID                                 : S_TEXT/UTF8
  259. Codec ID/Info                            : UTF-8 Plain Text
  260. Duration                                 : 1 h 35 min
  261. Bit rate                                 : 57 b/s
  262. Frame rate                               : 0.191 FPS
  263. Count of elements                        : 1097
  264. Stream size                              : 40.5 KiB (0%)
  265. Language                                 : Dutch
  266. Default                                  : No
  267. Forced                                   : No
  268. Text #18
  269. ID                                       : 20
  270. Format                                   : UTF-8
  271. Codec ID                                 : S_TEXT/UTF8
  272. Codec ID/Info                            : UTF-8 Plain Text
  273. Duration                                 : 1 h 35 min
  274. Bit rate                                 : 51 b/s
  275. Frame rate                               : 0.196 FPS
  276. Count of elements                        : 1127
  277. Stream size                              : 36.3 KiB (0%)
  278. Language                                 : Polish
  279. Default                                  : No
  280. Forced                                   : No
  281. Text #19
  282. ID                                       : 21
  283. Format                                   : UTF-8
  284. Codec ID                                 : S_TEXT/UTF8
  285. Codec ID/Info                            : UTF-8 Plain Text
  286. Duration                                 : 1 h 35 min
  287. Bit rate                                 : 63 b/s
  288. Frame rate                               : 0.197 FPS
  289. Count of elements                        : 1133
  290. Stream size                              : 44.7 KiB (0%)
  291. Title                                    : Brazilian
  292. Language                                 : Portuguese (BR)
  293. Default                                  : No
  294. Forced                                   : No
  295. Text #20
  296. ID                                       : 22
  297. Format                                   : UTF-8
  298. Codec ID                                 : S_TEXT/UTF8
  299. Codec ID/Info                            : UTF-8 Plain Text
  300. Duration                                 : 1 h 35 min
  301. Bit rate                                 : 62 b/s
  302. Frame rate                               : 0.198 FPS
  303. Count of elements                        : 1137
  304. Stream size                              : 44.0 KiB (0%)
  305. Language                                 : Portuguese (PT)
  306. Default                                  : No
  307. Forced                                   : No
  308. Text #21
  309. ID                                       : 23
  310. Format                                   : UTF-8
  311. Codec ID                                 : S_TEXT/UTF8
  312. Codec ID/Info                            : UTF-8 Plain Text
  313. Duration                                 : 1 h 35 min
  314. Bit rate                                 : 62 b/s
  315. Frame rate                               : 0.199 FPS
  316. Count of elements                        : 1139
  317. Stream size                              : 43.7 KiB (0%)
  318. Language                                 : Romanian
  319. Default                                  : No
  320. Forced                                   : No
  321. Text #22
  322. ID                                       : 24
  323. Format                                   : UTF-8
  324. Codec ID                                 : S_TEXT/UTF8
  325. Codec ID/Info                            : UTF-8 Plain Text
  326. Duration                                 : 1 h 35 min
  327. Bit rate                                 : 63 b/s
  328. Frame rate                               : 0.196 FPS
  329. Count of elements                        : 1122
  330. Stream size                              : 44.3 KiB (0%)
  331. Language                                 : Swedish
  332. Default                                  : No
  333. Forced                                   : No
  334. Text #23
  335. ID                                       : 25
  336. Format                                   : UTF-8
  337. Codec ID                                 : S_TEXT/UTF8
  338. Codec ID/Info                            : UTF-8 Plain Text
  339. Duration                                 : 1 h 35 min
  340. Bit rate                                 : 143 b/s
  341. Frame rate                               : 0.199 FPS
  342. Count of elements                        : 1142
  343. Stream size                              : 100 KiB (0%)
  344. Language                                 : Thai
  345. Default                                  : No
  346. Forced                                   : No
  347. Text #24
  348. ID                                       : 26
  349. Format                                   : UTF-8
  350. Codec ID                                 : S_TEXT/UTF8
  351. Codec ID/Info                            : UTF-8 Plain Text
  352. Duration                                 : 1 h 35 min
  353. Bit rate                                 : 58 b/s
  354. Frame rate                               : 0.199 FPS
  355. Count of elements                        : 1140
  356. Stream size                              : 41.2 KiB (0%)
  357. Language                                 : Turkish
  358. Default                                  : No
  359. Forced                                   : No
  360. Text #25
  361. ID                                       : 27
  362. Format                                   : UTF-8
  363. Codec ID                                 : S_TEXT/UTF8
  364. Codec ID/Info                            : UTF-8 Plain Text
  365. Duration                                 : 1 h 35 min
  366. Bit rate                                 : 54 b/s
  367. Frame rate                               : 0.199 FPS
  368. Count of elements                        : 1142
  369. Stream size                              : 38.3 KiB (0%)
  370. Title                                    : Simplified
  371. Language                                 : Chinese (Simplied)
  372. Default                                  : No
  373. Forced                                   : No
  374. Text #26
  375. ID                                       : 28
  376. Format                                   : UTF-8
  377. Codec ID                                 : S_TEXT/UTF8
  378. Codec ID/Info                            : UTF-8 Plain Text
  379. Duration                                 : 1 h 35 min
  380. Bit rate                                 : 57 b/s
  381. Frame rate                               : 0.199 FPS
  382. Count of elements                        : 1143
  383. Stream size                              : 40.0 KiB (0%)
  384. Title                                    : Traditional
  385. Language                                 : Chinese (Traditional)
  386. Default                                  : No
  387. Forced                                   : No
  388. Menu
  389. 01:29:46.000                             : en:End Credits
复制代码











回复

使用道具 举报

懒得打字嘛,点击右侧快捷回复 【右侧内容,后台自定义】
您需要登录后才可以回帖 登录 | 立即加入

本版积分规则

Copyright © 2024 Comsenz Inc. Powered by 蓝光电影网

本站内容由用户自主分享和转载自互联网,转载目的在于传递更多信息,并不代表本网赞同其观点和对其真实性负责。

如有侵权、违反国家法律政策行为,请联系我们,我们会第一时间及时清除和处理!

举报反馈邮箱:4k1080.com@gmail.com

快速回复 返回顶部 返回列表