找回密码

查看: 1228|回复: 0

[2160p-WEB] 异乡人在纽约[中文字幕].After.Maria.2019.2160p.NF.WEB-DL.x265.10bit.SDR.DDP5.1-NewYear 3.16GB

[复制链接]
蓝光币
1840
发表于 2023-1-3 03:28:10 | 显示全部楼层 |阅读模式


◎标  题 异乡人在纽约
◎片  名 After Maria
◎年  代 2019
◎产  地 美国
◎类  别 记载片
◎语  言 西班牙语
◎上映日期 2019-04-28(美国)
◎IMDb评分 4.9/10 (412人评价)
◎IMDb链接 https://www.imdb.com/title/tt10136680/
◎豆瓣链接 https://movie.douban.com/subject/33426017/
◎片  长 35分钟
◎简  介
  Strong Puerto Rican women forced to flee the island after Hurricane Maria have bonded like family in a FEMA hotel in the Bronx. They seek stability in their new life as forces try to pull them apart.
  1. Video
  2. ID                                       : 1
  3. Format                                   : HEVC
  4. Format/Info                              : High Efficiency Video Coding
  5. Format profile                           : Main 10@L5@Main
  6. Codec ID                                 : V_MPEGH/ISO/HEVC
  7. Duration                                 : 37 min 32 s
  8. Bit rate                                 : 11.4 Mb/s
  9. Width                                    : 3 840 pixels
  10. Height                                   : 2 160 pixels
  11. Display aspect ratio                     : 16:9
  12. Frame rate mode                          : Constant
  13. Frame rate                               : 23.976 (24000/1001) FPS
  14. Color space                              : YUV
  15. Chroma subsampling                       : 4:2:0
  16. Bit depth                                : 10 bits
  17. Bits/(Pixel*Frame)                       : 0.057
  18. Stream size                              : 2.99 GiB (95%)
  19. Language                                 : English
  20. Default                                  : Yes
  21. Forced                                   : No
  22. Color range                              : Limited
  23. Color primaries                          : BT.709
  24. Transfer characteristics                 : BT.709
  25. Matrix coefficients                      : BT.709
  26. Audio
  27. ID                                       : 2
  28. Format                                   : E-AC-3
  29. Format/Info                              : Enhanced AC-3
  30. Commercial name                          : Dolby Digital Plus
  31. Codec ID                                 : A_EAC3
  32. Duration                                 : 37 min 32 s
  33. Bit rate mode                            : Constant
  34. Bit rate                                 : 640 kb/s
  35. Channel(s)                               : 6 channels
  36. Channel layout                           : L R C LFE Ls Rs
  37. Sampling rate                            : 48.0 kHz
  38. Frame rate                               : 31.250 FPS (1536 SPF)
  39. Compression mode                         : Lossy
  40. Stream size                              : 172 MiB (5%)
  41. Language                                 : English
  42. Service kind                             : Complete Main
  43. Default                                  : Yes
  44. Forced                                   : No
  45. Text #1
  46. ID                                       : 3
  47. Format                                   : UTF-8
  48. Codec ID                                 : S_TEXT/UTF8
  49. Codec ID/Info                            : UTF-8 Plain Text
  50. Duration                                 : 34 min 52 s
  51. Bit rate                                 : 51 b/s
  52. Frame rate                               : 0.152 FPS
  53. Count of elements                        : 319
  54. Stream size                              : 13.1 KiB (0%)
  55. Title                                    : Forced
  56. Language                                 : English
  57. Default                                  : Yes
  58. Forced                                   : Yes
  59. Text #2
  60. ID                                       : 4
  61. Format                                   : UTF-8
  62. Codec ID                                 : S_TEXT/UTF8
  63. Codec ID/Info                            : UTF-8 Plain Text
  64. Duration                                 : 34 min 52 s
  65. Bit rate                                 : 67 b/s
  66. Frame rate                               : 0.196 FPS
  67. Count of elements                        : 410
  68. Stream size                              : 17.2 KiB (0%)
  69. Language                                 : English
  70. Default                                  : No
  71. Forced                                   : No
  72. Text #3
  73. ID                                       : 5
  74. Format                                   : UTF-8
  75. Codec ID                                 : S_TEXT/UTF8
  76. Codec ID/Info                            : UTF-8 Plain Text
  77. Duration                                 : 35 min 43 s
  78. Bit rate                                 : 75 b/s
  79. Frame rate                               : 0.212 FPS
  80. Count of elements                        : 454
  81. Stream size                              : 19.9 KiB (0%)
  82. Title                                    : SDH
  83. Language                                 : English
  84. Default                                  : No
  85. Forced                                   : No
  86. Text #4
  87. ID                                       : 6
  88. Format                                   : UTF-8
  89. Codec ID                                 : S_TEXT/UTF8
  90. Codec ID/Info                            : UTF-8 Plain Text
  91. Duration                                 : 35 min 35 s
  92. Bit rate                                 : 101 b/s
  93. Frame rate                               : 0.200 FPS
  94. Count of elements                        : 428
  95. Stream size                              : 26.4 KiB (0%)
  96. Language                                 : Arabic
  97. Default                                  : No
  98. Forced                                   : No
  99. Text #5
  100. ID                                       : 7
  101. Format                                   : UTF-8
  102. Codec ID                                 : S_TEXT/UTF8
  103. Codec ID/Info                            : UTF-8 Plain Text
  104. Duration                                 : 36 min 41 s
  105. Bit rate                                 : 60 b/s
  106. Frame rate                               : 0.188 FPS
  107. Count of elements                        : 413
  108. Stream size                              : 16.2 KiB (0%)
  109. Language                                 : Czech
  110. Default                                  : No
  111. Forced                                   : No
  112. Text #6
  113. ID                                       : 8
  114. Format                                   : UTF-8
  115. Codec ID                                 : S_TEXT/UTF8
  116. Codec ID/Info                            : UTF-8 Plain Text
  117. Duration                                 : 36 min 44 s
  118. Bit rate                                 : 61 b/s
  119. Frame rate                               : 0.186 FPS
  120. Count of elements                        : 410
  121. Stream size                              : 16.5 KiB (0%)
  122. Language                                 : Danish
  123. Default                                  : No
  124. Forced                                   : No
  125. Text #7
  126. ID                                       : 9
  127. Format                                   : UTF-8
  128. Codec ID                                 : S_TEXT/UTF8
  129. Codec ID/Info                            : UTF-8 Plain Text
  130. Duration                                 : 36 min 41 s
  131. Bit rate                                 : 67 b/s
  132. Frame rate                               : 0.191 FPS
  133. Count of elements                        : 420
  134. Stream size                              : 18.2 KiB (0%)
  135. Language                                 : German
  136. Default                                  : No
  137. Forced                                   : No
  138. Text #8
  139. ID                                       : 10
  140. Format                                   : UTF-8
  141. Codec ID                                 : S_TEXT/UTF8
  142. Codec ID/Info                            : UTF-8 Plain Text
  143. Duration                                 : 35 min 34 s
  144. Bit rate                                 : 116 b/s
  145. Frame rate                               : 0.198 FPS
  146. Count of elements                        : 422
  147. Stream size                              : 30.3 KiB (0%)
  148. Language                                 : Greek
  149. Default                                  : No
  150. Forced                                   : No
  151. Text #9
  152. ID                                       : 11
  153. Format                                   : UTF-8
  154. Codec ID                                 : S_TEXT/UTF8
  155. Codec ID/Info                            : UTF-8 Plain Text
  156. Duration                                 : 35 min 34 s
  157. Bit rate                                 : 21 b/s
  158. Frame rate                               : 0.054 FPS
  159. Count of elements                        : 115
  160. Stream size                              : 5.67 KiB (0%)
  161. Title                                    : Latin American
  162. Language                                 : Spanish (Latin America)
  163. Default                                  : No
  164. Forced                                   : No
  165. Text #10
  166. ID                                       : 12
  167. Format                                   : UTF-8
  168. Codec ID                                 : S_TEXT/UTF8
  169. Codec ID/Info                            : UTF-8 Plain Text
  170. Duration                                 : 36 min 46 s
  171. Bit rate                                 : 22 b/s
  172. Frame rate                               : 0.055 FPS
  173. Count of elements                        : 122
  174. Stream size                              : 6.08 KiB (0%)
  175. Language                                 : Spanish (ES)
  176. Default                                  : No
  177. Forced                                   : No
  178. Text #11
  179. ID                                       : 13
  180. Format                                   : UTF-8
  181. Codec ID                                 : S_TEXT/UTF8
  182. Codec ID/Info                            : UTF-8 Plain Text
  183. Duration                                 : 36 min 40 s
  184. Bit rate                                 : 60 b/s
  185. Frame rate                               : 0.181 FPS
  186. Count of elements                        : 398
  187. Stream size                              : 16.2 KiB (0%)
  188. Language                                 : Finnish
  189. Default                                  : No
  190. Forced                                   : No
  191. Text #12
  192. ID                                       : 14
  193. Format                                   : UTF-8
  194. Codec ID                                 : S_TEXT/UTF8
  195. Codec ID/Info                            : UTF-8 Plain Text
  196. Duration                                 : 35 min 34 s
  197. Bit rate                                 : 62 b/s
  198. Frame rate                               : 0.195 FPS
  199. Count of elements                        : 416
  200. Stream size                              : 16.2 KiB (0%)
  201. Language                                 : French
  202. Default                                  : No
  203. Forced                                   : No
  204. Text #13
  205. ID                                       : 15
  206. Format                                   : UTF-8
  207. Codec ID                                 : S_TEXT/UTF8
  208. Codec ID/Info                            : UTF-8 Plain Text
  209. Duration                                 : 36 min 44 s
  210. Bit rate                                 : 95 b/s
  211. Frame rate                               : 0.189 FPS
  212. Count of elements                        : 417
  213. Stream size                              : 25.8 KiB (0%)
  214. Language                                 : Hebrew
  215. Default                                  : No
  216. Forced                                   : No
  217. Text #14
  218. ID                                       : 16
  219. Format                                   : UTF-8
  220. Codec ID                                 : S_TEXT/UTF8
  221. Codec ID/Info                            : UTF-8 Plain Text
  222. Duration                                 : 35 min 34 s
  223. Bit rate                                 : 74 b/s
  224. Frame rate                               : 0.195 FPS
  225. Count of elements                        : 417
  226. Stream size                              : 19.4 KiB (0%)
  227. Language                                 : Hungarian
  228. Default                                  : No
  229. Forced                                   : No
  230. Text #15
  231. ID                                       : 17
  232. Format                                   : UTF-8
  233. Codec ID                                 : S_TEXT/UTF8
  234. Codec ID/Info                            : UTF-8 Plain Text
  235. Duration                                 : 35 min 34 s
  236. Bit rate                                 : 67 b/s
  237. Frame rate                               : 0.196 FPS
  238. Count of elements                        : 418
  239. Stream size                              : 17.5 KiB (0%)
  240. Language                                 : Indonesian
  241. Default                                  : No
  242. Forced                                   : No
  243. Text #16
  244. ID                                       : 18
  245. Format                                   : UTF-8
  246. Codec ID                                 : S_TEXT/UTF8
  247. Codec ID/Info                            : UTF-8 Plain Text
  248. Duration                                 : 36 min 42 s
  249. Bit rate                                 : 58 b/s
  250. Frame rate                               : 0.188 FPS
  251. Count of elements                        : 414
  252. Stream size                              : 15.6 KiB (0%)
  253. Language                                 : Italian
  254. Default                                  : No
  255. Forced                                   : No
  256. Text #17
  257. ID                                       : 19
  258. Format                                   : UTF-8
  259. Codec ID                                 : S_TEXT/UTF8
  260. Codec ID/Info                            : UTF-8 Plain Text
  261. Duration                                 : 36 min 46 s
  262. Bit rate                                 : 63 b/s
  263. Frame rate                               : 0.208 FPS
  264. Count of elements                        : 460
  265. Stream size                              : 17.1 KiB (0%)
  266. Language                                 : Japanese
  267. Default                                  : No
  268. Forced                                   : No
  269. Text #18
  270. ID                                       : 20
  271. Format                                   : UTF-8
  272. Codec ID                                 : S_TEXT/UTF8
  273. Codec ID/Info                            : UTF-8 Plain Text
  274. Duration                                 : 36 min 44 s
  275. Bit rate                                 : 80 b/s
  276. Frame rate                               : 0.198 FPS
  277. Count of elements                        : 437
  278. Stream size                              : 21.6 KiB (0%)
  279. Language                                 : Korean
  280. Default                                  : No
  281. Forced                                   : No
  282. Text #19
  283. ID                                       : 21
  284. Format                                   : UTF-8
  285. Codec ID                                 : S_TEXT/UTF8
  286. Codec ID/Info                            : UTF-8 Plain Text
  287. Duration                                 : 35 min 34 s
  288. Bit rate                                 : 62 b/s
  289. Frame rate                               : 0.196 FPS
  290. Count of elements                        : 418
  291. Stream size                              : 16.2 KiB (0%)
  292. Language                                 : Norwegian Bokmal
  293. Default                                  : No
  294. Forced                                   : No
  295. Text #20
  296. ID                                       : 22
  297. Format                                   : UTF-8
  298. Codec ID                                 : S_TEXT/UTF8
  299. Codec ID/Info                            : UTF-8 Plain Text
  300. Duration                                 : 36 min 46 s
  301. Bit rate                                 : 57 b/s
  302. Frame rate                               : 0.184 FPS
  303. Count of elements                        : 406
  304. Stream size                              : 15.4 KiB (0%)
  305. Language                                 : Dutch
  306. Default                                  : No
  307. Forced                                   : No
  308. Text #21
  309. ID                                       : 23
  310. Format                                   : UTF-8
  311. Codec ID                                 : S_TEXT/UTF8
  312. Codec ID/Info                            : UTF-8 Plain Text
  313. Duration                                 : 36 min 42 s
  314. Bit rate                                 : 63 b/s
  315. Frame rate                               : 0.187 FPS
  316. Count of elements                        : 411
  317. Stream size                              : 17.0 KiB (0%)
  318. Language                                 : Polish
  319. Default                                  : No
  320. Forced                                   : No
  321. Text #22
  322. ID                                       : 24
  323. Format                                   : UTF-8
  324. Codec ID                                 : S_TEXT/UTF8
  325. Codec ID/Info                            : UTF-8 Plain Text
  326. Duration                                 : 35 min 36 s
  327. Bit rate                                 : 65 b/s
  328. Frame rate                               : 0.192 FPS
  329. Count of elements                        : 410
  330. Stream size                              : 17.1 KiB (0%)
  331. Title                                    : Brazilian
  332. Language                                 : Portuguese (BR)
  333. Default                                  : No
  334. Forced                                   : No
  335. Text #23
  336. ID                                       : 25
  337. Format                                   : UTF-8
  338. Codec ID                                 : S_TEXT/UTF8
  339. Codec ID/Info                            : UTF-8 Plain Text
  340. Duration                                 : 35 min 34 s
  341. Bit rate                                 : 69 b/s
  342. Frame rate                               : 0.199 FPS
  343. Count of elements                        : 424
  344. Stream size                              : 18.0 KiB (0%)
  345. Language                                 : Portuguese (PT)
  346. Default                                  : No
  347. Forced                                   : No
  348. Text #24
  349. ID                                       : 26
  350. Format                                   : UTF-8
  351. Codec ID                                 : S_TEXT/UTF8
  352. Codec ID/Info                            : UTF-8 Plain Text
  353. Duration                                 : 35 min 34 s
  354. Bit rate                                 : 77 b/s
  355. Frame rate                               : 0.196 FPS
  356. Count of elements                        : 418
  357. Stream size                              : 20.1 KiB (0%)
  358. Language                                 : Romanian
  359. Default                                  : No
  360. Forced                                   : No
  361. Text #25
  362. ID                                       : 27
  363. Format                                   : UTF-8
  364. Codec ID                                 : S_TEXT/UTF8
  365. Codec ID/Info                            : UTF-8 Plain Text
  366. Duration                                 : 35 min 34 s
  367. Bit rate                                 : 111 b/s
  368. Frame rate                               : 0.199 FPS
  369. Count of elements                        : 424
  370. Stream size                              : 29.0 KiB (0%)
  371. Language                                 : Russian
  372. Default                                  : No
  373. Forced                                   : No
  374. Text #26
  375. ID                                       : 28
  376. Format                                   : UTF-8
  377. Codec ID                                 : S_TEXT/UTF8
  378. Codec ID/Info                            : UTF-8 Plain Text
  379. Duration                                 : 35 min 26 s
  380. Bit rate                                 : 69 b/s
  381. Frame rate                               : 0.187 FPS
  382. Count of elements                        : 398
  383. Stream size                              : 18.1 KiB (0%)
  384. Language                                 : Swedish
  385. Default                                  : No
  386. Forced                                   : No
  387. Text #27
  388. ID                                       : 29
  389. Format                                   : UTF-8
  390. Codec ID                                 : S_TEXT/UTF8
  391. Codec ID/Info                            : UTF-8 Plain Text
  392. Duration                                 : 35 min 34 s
  393. Bit rate                                 : 161 b/s
  394. Frame rate                               : 0.198 FPS
  395. Count of elements                        : 423
  396. Stream size                              : 42.1 KiB (0%)
  397. Language                                 : Thai
  398. Default                                  : No
  399. Forced                                   : No
  400. Text #28
  401. ID                                       : 30
  402. Format                                   : UTF-8
  403. Codec ID                                 : S_TEXT/UTF8
  404. Codec ID/Info                            : UTF-8 Plain Text
  405. Duration                                 : 36 min 45 s
  406. Bit rate                                 : 60 b/s
  407. Frame rate                               : 0.195 FPS
  408. Count of elements                        : 429
  409. Stream size                              : 16.4 KiB (0%)
  410. Language                                 : Turkish
  411. Default                                  : No
  412. Forced                                   : No
  413. Text #29
  414. ID                                       : 31
  415. Format                                   : UTF-8
  416. Codec ID                                 : S_TEXT/UTF8
  417. Codec ID/Info                            : UTF-8 Plain Text
  418. Duration                                 : 35 min 34 s
  419. Bit rate                                 : 87 b/s
  420. Frame rate                               : 0.198 FPS
  421. Count of elements                        : 422
  422. Stream size                              : 22.8 KiB (0%)
  423. Language                                 : Vietnamese
  424. Default                                  : No
  425. Forced                                   : No
  426. Text #30
  427. ID                                       : 32
  428. Format                                   : UTF-8
  429. Codec ID                                 : S_TEXT/UTF8
  430. Codec ID/Info                            : UTF-8 Plain Text
  431. Duration                                 : 36 min 41 s
  432. Bit rate                                 : 58 b/s
  433. Frame rate                               : 0.199 FPS
  434. Count of elements                        : 438
  435. Stream size                              : 15.8 KiB (0%)
  436. Title                                    : Simplified
  437. Language                                 : Chinese (Simplied)
  438. Default                                  : No
  439. Forced                                   : No
  440. Text #31
  441. ID                                       : 33
  442. Format                                   : UTF-8
  443. Codec ID                                 : S_TEXT/UTF8
  444. Codec ID/Info                            : UTF-8 Plain Text
  445. Duration                                 : 36 min 44 s
  446. Bit rate                                 : 57 b/s
  447. Frame rate                               : 0.196 FPS
  448. Count of elements                        : 432
  449. Stream size                              : 15.3 KiB (0%)
  450. Title                                    : Traditional
  451. Language                                 : Chinese (Traditional)
  452. Default                                  : No
  453. Forced                                   : No
  454. Menu
  455. 00:36:02.000                             : en:End Credits
复制代码











回复

使用道具 举报

懒得打字嘛,点击右侧快捷回复 【右侧内容,后台自定义】
您需要登录后才可以回帖 登录 | 立即加入

本版积分规则

Copyright © 2024 Comsenz Inc. Powered by 蓝光电影网

本站内容由用户自主分享和转载自互联网,转载目的在于传递更多信息,并不代表本网赞同其观点和对其真实性负责。

如有侵权、违反国家法律政策行为,请联系我们,我们会第一时间及时清除和处理!

举报反馈邮箱:4k1080.com@gmail.com

快速回复 返回顶部 返回列表