找回密码

查看: 1145|回复: 0

[2160p-WEB] 克里斯·洛克:铃鼓[中文字幕].Chris.Rock.Tamborine.2018.2160p.NF.WEB-DL.x265.10bit.SDR.DDP5.1-ENDISNEAR 5.70GB

[复制链接]
蓝光币
1848
发表于 2023-1-3 03:28:11 | 显示全部楼层 |阅读模式


◎标  题 克里斯·洛克:铃鼓
◎译  名 克里斯·洛克 尽昏黑: 铃鼓加长版
◎片  名 Chris Rock: Tamborine
◎年  代 2018
◎产  地 美国
◎类  别 笑剧 / 脱口秀
◎语  言 英语
◎上映日期 2018-02-14(美国)
◎IMDb评分 6.6/10 (7088人评价)
◎IMDb链接 https://www.imdb.com/title/tt8005338/
◎豆瓣评分 7.5/10 (1013人评价)
◎豆瓣链接 https://movie.douban.com/subject/30148257/
◎片  长 65分钟
◎导  演 博·伯翰 Bo Burnham
◎编  剧 克里斯·洛克 Chris Rock
◎演  员 克里斯·洛克 Chris Rock
◎简  介
  Chris Rock为这部笑剧特辑在布鲁克林登台,他对父亲脚色、对朋友不忠以及美国政治等话题颁发了他锋利的观察与看法。
  1. Video
  2. ID                                       : 1
  3. Format                                   : HEVC
  4. Format/Info                              : High Efficiency Video Coding
  5. Format profile                           : Main 10@L5@Main
  6. Codec ID                                 : V_MPEGH/ISO/HEVC
  7. Duration                                 : 1 h 4 min
  8. Bit rate                                 : 11.9 Mb/s
  9. Width                                    : 3 840 pixels
  10. Height                                   : 2 160 pixels
  11. Display aspect ratio                     : 16:9
  12. Frame rate mode                          : Constant
  13. Frame rate                               : 23.976 (24000/1001) FPS
  14. Color space                              : YUV
  15. Chroma subsampling                       : 4:2:0
  16. Bit depth                                : 10 bits
  17. Bits/(Pixel*Frame)                       : 0.060
  18. Stream size                              : 5.41 GiB (95%)
  19. Language                                 : English
  20. Default                                  : Yes
  21. Forced                                   : No
  22. Color range                              : Limited
  23. Color primaries                          : BT.709
  24. Transfer characteristics                 : BT.709
  25. Matrix coefficients                      : BT.709
  26. Audio
  27. ID                                       : 2
  28. Format                                   : E-AC-3
  29. Format/Info                              : Enhanced AC-3
  30. Commercial name                          : Dolby Digital Plus
  31. Codec ID                                 : A_EAC3
  32. Duration                                 : 1 h 4 min
  33. Bit rate mode                            : Constant
  34. Bit rate                                 : 640 kb/s
  35. Channel(s)                               : 6 channels
  36. Channel layout                           : L R C LFE Ls Rs
  37. Sampling rate                            : 48.0 kHz
  38. Frame rate                               : 31.250 FPS (1536 SPF)
  39. Compression mode                         : Lossy
  40. Stream size                              : 297 MiB (5%)
  41. Language                                 : English
  42. Service kind                             : Complete Main
  43. Default                                  : Yes
  44. Forced                                   : No
  45. Text #1
  46. ID                                       : 3
  47. Format                                   : UTF-8
  48. Codec ID                                 : S_TEXT/UTF8
  49. Codec ID/Info                            : UTF-8 Plain Text
  50. Duration                                 : 1 h 3 min
  51. Bit rate                                 : 79 b/s
  52. Frame rate                               : 0.254 FPS
  53. Count of elements                        : 961
  54. Stream size                              : 36.6 KiB (0%)
  55. Language                                 : English
  56. Default                                  : No
  57. Forced                                   : No
  58. Text #2
  59. ID                                       : 4
  60. Format                                   : UTF-8
  61. Codec ID                                 : S_TEXT/UTF8
  62. Codec ID/Info                            : UTF-8 Plain Text
  63. Duration                                 : 1 h 4 min
  64. Bit rate                                 : 79 b/s
  65. Frame rate                               : 0.257 FPS
  66. Count of elements                        : 996
  67. Stream size                              : 37.8 KiB (0%)
  68. Title                                    : SDH
  69. Language                                 : English
  70. Default                                  : No
  71. Forced                                   : No
  72. Text #3
  73. ID                                       : 5
  74. Format                                   : UTF-8
  75. Codec ID                                 : S_TEXT/UTF8
  76. Codec ID/Info                            : UTF-8 Plain Text
  77. Duration                                 : 1 h 4 min
  78. Bit rate                                 : 109 b/s
  79. Frame rate                               : 0.244 FPS
  80. Count of elements                        : 946
  81. Stream size                              : 51.6 KiB (0%)
  82. Language                                 : Arabic
  83. Default                                  : No
  84. Forced                                   : No
  85. Text #4
  86. ID                                       : 6
  87. Format                                   : UTF-8
  88. Codec ID                                 : S_TEXT/UTF8
  89. Codec ID/Info                            : UTF-8 Plain Text
  90. Duration                                 : 1 h 4 min
  91. Bit rate                                 : 68 b/s
  92. Frame rate                               : 0.195 FPS
  93. Count of elements                        : 755
  94. Stream size                              : 32.4 KiB (0%)
  95. Language                                 : Danish
  96. Default                                  : No
  97. Forced                                   : No
  98. Text #5
  99. ID                                       : 7
  100. Format                                   : UTF-8
  101. Codec ID                                 : S_TEXT/UTF8
  102. Codec ID/Info                            : UTF-8 Plain Text
  103. Duration                                 : 1 h 3 min
  104. Bit rate                                 : 74 b/s
  105. Frame rate                               : 0.243 FPS
  106. Count of elements                        : 930
  107. Stream size                              : 34.9 KiB (0%)
  108. Language                                 : German
  109. Default                                  : No
  110. Forced                                   : No
  111. Text #6
  112. ID                                       : 8
  113. Format                                   : UTF-8
  114. Codec ID                                 : S_TEXT/UTF8
  115. Codec ID/Info                            : UTF-8 Plain Text
  116. Duration                                 : 1 h 3 min
  117. Bit rate                                 : 128 b/s
  118. Frame rate                               : 0.245 FPS
  119. Count of elements                        : 938
  120. Stream size                              : 60.0 KiB (0%)
  121. Language                                 : Greek
  122. Default                                  : No
  123. Forced                                   : No
  124. Text #7
  125. ID                                       : 9
  126. Format                                   : UTF-8
  127. Codec ID                                 : S_TEXT/UTF8
  128. Codec ID/Info                            : UTF-8 Plain Text
  129. Duration                                 : 1 h 4 min
  130. Bit rate                                 : 70 b/s
  131. Frame rate                               : 0.241 FPS
  132. Count of elements                        : 934
  133. Stream size                              : 33.2 KiB (0%)
  134. Title                                    : Latin American
  135. Language                                 : Spanish (Latin America)
  136. Default                                  : No
  137. Forced                                   : No
  138. Text #8
  139. ID                                       : 10
  140. Format                                   : UTF-8
  141. Codec ID                                 : S_TEXT/UTF8
  142. Codec ID/Info                            : UTF-8 Plain Text
  143. Duration                                 : 1 h 4 min
  144. Bit rate                                 : 68 b/s
  145. Frame rate                               : 0.245 FPS
  146. Count of elements                        : 949
  147. Stream size                              : 32.5 KiB (0%)
  148. Language                                 : Spanish (ES)
  149. Default                                  : No
  150. Forced                                   : No
  151. Text #9
  152. ID                                       : 11
  153. Format                                   : UTF-8
  154. Codec ID                                 : S_TEXT/UTF8
  155. Codec ID/Info                            : UTF-8 Plain Text
  156. Duration                                 : 1 h 3 min
  157. Bit rate                                 : 73 b/s
  158. Frame rate                               : 0.253 FPS
  159. Count of elements                        : 959
  160. Stream size                              : 34.1 KiB (0%)
  161. Language                                 : Finnish
  162. Default                                  : No
  163. Forced                                   : No
  164. Text #10
  165. ID                                       : 12
  166. Format                                   : UTF-8
  167. Codec ID                                 : S_TEXT/UTF8
  168. Codec ID/Info                            : UTF-8 Plain Text
  169. Duration                                 : 1 h 3 min
  170. Bit rate                                 : 67 b/s
  171. Frame rate                               : 0.244 FPS
  172. Count of elements                        : 933
  173. Stream size                              : 31.6 KiB (0%)
  174. Language                                 : French
  175. Default                                  : No
  176. Forced                                   : No
  177. Text #11
  178. ID                                       : 13
  179. Format                                   : UTF-8
  180. Codec ID                                 : S_TEXT/UTF8
  181. Codec ID/Info                            : UTF-8 Plain Text
  182. Duration                                 : 1 h 3 min
  183. Bit rate                                 : 108 b/s
  184. Frame rate                               : 0.247 FPS
  185. Count of elements                        : 945
  186. Stream size                              : 50.7 KiB (0%)
  187. Language                                 : Hebrew
  188. Default                                  : No
  189. Forced                                   : No
  190. Text #12
  191. ID                                       : 14
  192. Format                                   : UTF-8
  193. Codec ID                                 : S_TEXT/UTF8
  194. Codec ID/Info                            : UTF-8 Plain Text
  195. Duration                                 : 1 h 4 min
  196. Bit rate                                 : 70 b/s
  197. Frame rate                               : 0.225 FPS
  198. Count of elements                        : 875
  199. Stream size                              : 33.3 KiB (0%)
  200. Language                                 : Italian
  201. Default                                  : No
  202. Forced                                   : No
  203. Text #13
  204. ID                                       : 15
  205. Format                                   : UTF-8
  206. Codec ID                                 : S_TEXT/UTF8
  207. Codec ID/Info                            : UTF-8 Plain Text
  208. Duration                                 : 1 h 4 min
  209. Bit rate                                 : 63 b/s
  210. Frame rate                               : 0.243 FPS
  211. Count of elements                        : 940
  212. Stream size                              : 29.9 KiB (0%)
  213. Language                                 : Japanese
  214. Default                                  : No
  215. Forced                                   : No
  216. Text #14
  217. ID                                       : 16
  218. Format                                   : UTF-8
  219. Codec ID                                 : S_TEXT/UTF8
  220. Codec ID/Info                            : UTF-8 Plain Text
  221. Duration                                 : 1 h 4 min
  222. Bit rate                                 : 82 b/s
  223. Frame rate                               : 0.244 FPS
  224. Count of elements                        : 944
  225. Stream size                              : 39.0 KiB (0%)
  226. Language                                 : Korean
  227. Default                                  : No
  228. Forced                                   : No
  229. Text #15
  230. ID                                       : 17
  231. Format                                   : UTF-8
  232. Codec ID                                 : S_TEXT/UTF8
  233. Codec ID/Info                            : UTF-8 Plain Text
  234. Duration                                 : 1 h 3 min
  235. Bit rate                                 : 68 b/s
  236. Frame rate                               : 0.241 FPS
  237. Count of elements                        : 921
  238. Stream size                              : 32.0 KiB (0%)
  239. Language                                 : Norwegian Bokmal
  240. Default                                  : No
  241. Forced                                   : No
  242. Text #16
  243. ID                                       : 18
  244. Format                                   : UTF-8
  245. Codec ID                                 : S_TEXT/UTF8
  246. Codec ID/Info                            : UTF-8 Plain Text
  247. Duration                                 : 1 h 3 min
  248. Bit rate                                 : 66 b/s
  249. Frame rate                               : 0.233 FPS
  250. Count of elements                        : 891
  251. Stream size                              : 31.1 KiB (0%)
  252. Language                                 : Dutch
  253. Default                                  : No
  254. Forced                                   : No
  255. Text #17
  256. ID                                       : 19
  257. Format                                   : UTF-8
  258. Codec ID                                 : S_TEXT/UTF8
  259. Codec ID/Info                            : UTF-8 Plain Text
  260. Duration                                 : 1 h 4 min
  261. Bit rate                                 : 70 b/s
  262. Frame rate                               : 0.249 FPS
  263. Count of elements                        : 967
  264. Stream size                              : 33.2 KiB (0%)
  265. Language                                 : Polish
  266. Default                                  : No
  267. Forced                                   : No
  268. Text #18
  269. ID                                       : 20
  270. Format                                   : UTF-8
  271. Codec ID                                 : S_TEXT/UTF8
  272. Codec ID/Info                            : UTF-8 Plain Text
  273. Duration                                 : 1 h 3 min
  274. Bit rate                                 : 69 b/s
  275. Frame rate                               : 0.245 FPS
  276. Count of elements                        : 939
  277. Stream size                              : 32.6 KiB (0%)
  278. Title                                    : Brazilian
  279. Language                                 : Portuguese (BR)
  280. Default                                  : No
  281. Forced                                   : No
  282. Text #19
  283. ID                                       : 21
  284. Format                                   : UTF-8
  285. Codec ID                                 : S_TEXT/UTF8
  286. Codec ID/Info                            : UTF-8 Plain Text
  287. Duration                                 : 1 h 3 min
  288. Bit rate                                 : 68 b/s
  289. Frame rate                               : 0.247 FPS
  290. Count of elements                        : 944
  291. Stream size                              : 31.8 KiB (0%)
  292. Language                                 : Portuguese (PT)
  293. Default                                  : No
  294. Forced                                   : No
  295. Text #20
  296. ID                                       : 22
  297. Format                                   : UTF-8
  298. Codec ID                                 : S_TEXT/UTF8
  299. Codec ID/Info                            : UTF-8 Plain Text
  300. Duration                                 : 1 h 4 min
  301. Bit rate                                 : 70 b/s
  302. Frame rate                               : 0.227 FPS
  303. Count of elements                        : 879
  304. Stream size                              : 33.2 KiB (0%)
  305. Language                                 : Romanian
  306. Default                                  : No
  307. Forced                                   : No
  308. Text #21
  309. ID                                       : 23
  310. Format                                   : UTF-8
  311. Codec ID                                 : S_TEXT/UTF8
  312. Codec ID/Info                            : UTF-8 Plain Text
  313. Duration                                 : 1 h 4 min
  314. Bit rate                                 : 64 b/s
  315. Frame rate                               : 0.242 FPS
  316. Count of elements                        : 936
  317. Stream size                              : 30.6 KiB (0%)
  318. Language                                 : Swedish
  319. Default                                  : No
  320. Forced                                   : No
  321. Text #22
  322. ID                                       : 24
  323. Format                                   : UTF-8
  324. Codec ID                                 : S_TEXT/UTF8
  325. Codec ID/Info                            : UTF-8 Plain Text
  326. Duration                                 : 1 h 3 min
  327. Bit rate                                 : 167 b/s
  328. Frame rate                               : 0.247 FPS
  329. Count of elements                        : 945
  330. Stream size                              : 78.3 KiB (0%)
  331. Language                                 : Thai
  332. Default                                  : No
  333. Forced                                   : No
  334. Text #23
  335. ID                                       : 25
  336. Format                                   : UTF-8
  337. Codec ID                                 : S_TEXT/UTF8
  338. Codec ID/Info                            : UTF-8 Plain Text
  339. Duration                                 : 1 h 4 min
  340. Bit rate                                 : 73 b/s
  341. Frame rate                               : 0.246 FPS
  342. Count of elements                        : 956
  343. Stream size                              : 35.0 KiB (0%)
  344. Language                                 : Turkish
  345. Default                                  : No
  346. Forced                                   : No
  347. Text #24
  348. ID                                       : 26
  349. Format                                   : UTF-8
  350. Codec ID                                 : S_TEXT/UTF8
  351. Codec ID/Info                            : UTF-8 Plain Text
  352. Duration                                 : 1 h 3 min
  353. Bit rate                                 : 71 b/s
  354. Frame rate                               : 0.246 FPS
  355. Count of elements                        : 943
  356. Stream size                              : 33.3 KiB (0%)
  357. Title                                    : Simplified
  358. Language                                 : Chinese (Simplied)
  359. Default                                  : No
  360. Forced                                   : No
  361. Text #25
  362. ID                                       : 27
  363. Format                                   : UTF-8
  364. Codec ID                                 : S_TEXT/UTF8
  365. Codec ID/Info                            : UTF-8 Plain Text
  366. Duration                                 : 1 h 4 min
  367. Bit rate                                 : 67 b/s
  368. Frame rate                               : 0.249 FPS
  369. Count of elements                        : 967
  370. Stream size                              : 32.1 KiB (0%)
  371. Title                                    : Traditional
  372. Language                                 : Chinese (Traditional)
  373. Default                                  : No
  374. Forced                                   : No
  375. Menu
  376. 01:03:57.000                             : en:End Credits
复制代码











回复

使用道具 举报

懒得打字嘛,点击右侧快捷回复 【右侧内容,后台自定义】
您需要登录后才可以回帖 登录 | 立即加入

本版积分规则

Copyright © 2024 Comsenz Inc. Powered by 蓝光电影网

本站内容由用户自主分享和转载自互联网,转载目的在于传递更多信息,并不代表本网赞同其观点和对其真实性负责。

如有侵权、违反国家法律政策行为,请联系我们,我们会第一时间及时清除和处理!

举报反馈邮箱:4k1080.com@gmail.com

快速回复 返回顶部 返回列表